Subcategories

Jem - Finally Woken [Japan Edition]

Posted By: jetset
Jem - Finally Woken [Japan Edition]

Jem - Finally Woken [Japan Edition] (2004)
EAC Rip | APE+CUE, LOG | 319 MB
Pop, Rock, Trip Hop, Downtempo | Label: BMG | Hotfile + Depositfiles + Filefactory


Tracklist:

01. They
02. Come On Closer
03. Finally Woken
04. Save Me
05. 24
06. Missing You
07. Wish I
08. Just A Ride
09. Falling For You
10. Stay Now
11. Flying High
Bonus Track:
12. They (Cut Chemist Remix)

Jem is a singer-songwriter, known for her eclectic musical stylings. Her debut album has defied the categorization of some music critics with a fusion of genres. While some of her songs are straight up rock ballads, some of her tracks verge on electronica and trip-hop. Her throaty, mellow voice draws immediate comparisons to Imogen Heap, Beth Orton and to a lesser extent Dido. However, Jem herself prefers to let her musical work stand on its own, rather than be compared to other artists.
Along with electronic producer Guy Sigsworth (Bjork, Frou Frou), she wrote the song "Nothing Fails", which was later reworked by Madonna and appeared on her 2003 American Life album.

FINALLY WOKEN marks the recording debut of Welsh singer/songwriter Jem Griffiths. With a voice that brings to mind Beth Orton and songs that sometimes echo the poppier aspects of atmospheric electronic acts such as Air and Royksopp, Jem unveils … Full Descriptiontunes that are custom-made for lounge, cafe, and bedroom listening. The breezy title track floats on gentle ocean sounds and a light acoustic guitar line, while the slightly upbeat "They" glides on funky rhythms and a vintage Swingle Singers vocal sample. Mixing up the chill-out vibe, however, are dramatic, guitar-driven songs such as "Come On Closer" and "Falling for You." FINALLY WOKEN's highlight, though, is the amazingly infectious "Just a Ride," a joyous ode to carefree living. Given her confident singing and the eclectic mix of styles presented on this album, Jem should easily appeal to fans of Orton, Dido, and Sarah McLachlan.


Exact Audio Copy V0.99 prebeta 3 from 28. July 2007
EAC extraction logfile from 2. November 2007, 23:35
Jem / Finally Woken (Japan)
Used drive : _NEC DVD_RW ND-3500AG Adapter: 0 ID: 0
Read mode : Secure
Utilize accurate stream : Yes
Defeat audio cache : Yes
Make use of C2 pointers : No
Read offset correction : 48
Overread into Lead-In and Lead-Out : No
Fill up missing offset samples with silence : Yes
Delete leading and trailing silent blocks : No
Null samples used in CRC calculations : Yes
Used interface : Installed external ASPI interface
Used output format : Internal WAV Routines
Sample format : 44.100 Hz; 16 Bit; Stereo
TOC of the extracted CD
Track | Start | Length | Start sector | End sector
––––––––––––––––––––––––––––-
1 | 0:00.00 | 3:16.22 | 0 | 14721
2 | 3:16.22 | 3:47.00 | 14722 | 31746
3 | 7:03.22 | 3:58.11 | 31747 | 49607
4 | 11:01.33 | 3:33.42 | 49608 | 65624
5 | 14:35.00 | 3:54.39 | 65625 | 83213
6 | 18:29.39 | 4:01.23 | 83214 | 101311
7 | 22:30.62 | 3:56.15 | 101312 | 119026
8 | 26:27.02 | 3:20.55 | 119027 | 134081
9 | 29:47.57 | 4:17.48 | 134082 | 153404
10 | 34:05.30 | 3:43.41 | 153405 | 170170
11 | 37:48.71 | 4:11.14 | 170171 | 189009
12 | 42:00.10 | 3:11.65 | 189010 | 203399
Range status and errors
Selected range
Filename D:\Temp\Finally Woken (Japan).wav
Peak level 100.0 %
Range quality 99.9 %
Copy CRC 964D8E6D
Copy OK
No errors occurred
AccurateRip summary
Track 1 not present in database
Track 2 not present in database
Track 3 not present in database
Track 4 not present in database
Track 5 not present in database
Track 6 not present in database
Track 7 not present in database
Track 8 not present in database
Track 9 not present in database
Track 10 not present in database
Track 11 not present in database
Track 12 not present in database
None of the tracks are present in the AccurateRip database
End of status report




Download FREE


NO Mirror Please!