Tags
Language
Tags

Jerry Garcia Band - GarciaLive Volume 16: November 15th, 1991 Madison Square Garden (2021)

Posted By: delpotro
Jerry Garcia Band - GarciaLive Volume 16: November 15th, 1991 Madison Square Garden (2021)

Jerry Garcia Band - GarciaLive Volume 16: November 15th, 1991 Madison Square Garden (2021)
EAC Rip | FLAC (tracks+log+.cue) - 927 Mb | MP3 CBR 320 kbps - 365 Mb | Covers included | 02:34:05
Psychedelic Rock, Folk Rock, Jam Band | Label: Round Records

Garcia Live Volume 16 is a three-CD album by the Jerry Garcia Band. It contains the complete concert recorded on November 15, 1991 at Madison Square Garden in New York City. It is scheduled to be released on June 25, 2021. This show was the Jerry Garcia Band's first appearance at Madison Square Garden. It featured their 1986 to 1993 lineup of Jerry Garcia on guitar and vocals, Melvin Seals on keyboards, John Kahn on bass, David Kemper on drums, and Jaclyn LaBranch and Gloria Jones on backing vocals.
Tracklist:
1. How Sweet It Is (To Be Loved By You) (Live)
2. Struggling Man (Live)
3. He Ain't Give You None (Live)
4. Simple Twist of Fate (Live)
5. Lay Down Sally (Live)
6. The Night They Drove Old Dixie Down (Live)
7. My Sisters and Brothers (Live)
8. Deal (Live)
9. The Way You Do The Things You Do (Live)
10. Waiting for a Miracle (Live)
11. Shining Star (Live)
12. Ain't No Bread in the Breadbox (Live)
13. Don't Let Go (Live)
14. That Lucky Old Sun (Live)
15. Bright Side of the Road (Live)
16. (What A) Wonderful World (Live)

Exact Audio Copy V1.3 from 2. September 2016

EAC extraction logfile from 24. June 2021, 15:04

Jerry Garcia Band / GarciaLive Volume 16: November 15th 1991, Madison Square Garden

Used drive : TSSTcorpDVD+-RW TS-T633C Adapter: 1 ID: 0

Read mode : Secure
Utilize accurate stream : Yes
Defeat audio cache : Yes
Make use of C2 pointers : No

Read offset correction : 6
Overread into Lead-In and Lead-Out : No
Fill up missing offset samples with silence : Yes
Delete leading and trailing silent blocks : No
Null samples used in CRC calculations : Yes
Used interface : Native Win32 interface for Win NT & 2000
Gap handling : Appended to previous track

Used output format : User Defined Encoder
Selected bitrate : 1024 kBit/s
Quality : High
Add ID3 tag : No
Command line compressor : C:\Program Files (x86)\Exact Audio Copy\Flac\flac.exe
Additional command line options : -8 -e -p -V -T "ARTIST=%artist%" -T "TITLE=%title%" -T "ALBUM=%albumtitle%" -T "DATE=%year%" -T "TRACKNUMBER=%tracknr%" -T "GENRE=%genre%" -T "PERFORMER=%albuminterpret%" -T "COMPOSER=%composer%" %haslyrics%–tag-from-file=LYRICS="%lyricsfile%"%haslyrics% -T "ALBUMARTIST=%albumartist%" -T "DISCNUMBER=%cdnumber%" -T "TOTALDISCS=%totalcds%" -T "TOTALTRACKS=%numtracks%" -T "COMMENT=%comment%" %source% -o %dest%


TOC of the extracted CD

Track | Start | Length | Start sector | End sector
––––––––––––––––––––––––––––-
1 | 0:00.00 | 7:41.07 | 0 | 34581
2 | 7:41.07 | 7:18.34 | 34582 | 67465
3 | 14:59.41 | 8:31.51 | 67466 | 105841
4 | 23:31.17 | 13:42.08 | 105842 | 167499
5 | 37:13.25 | 9:37.03 | 167500 | 210777


Track 1

Filename F:\EAC Rips\Jerry Garcia Band - GarciaLive Volume 16 November 15th 1991, Madison Square Garden (2021) [FLAC] {JGFRR1037}\Disc 1\01 - How Sweet It Is (To Be Loved by You).wav

Pre-gap length 0:00:02.00

Peak level 98.7 %
Extraction speed 2.7 X
Track quality 100.0 %
Test CRC F462FCA0
Copy CRC F462FCA0
Track not present in AccurateRip database
Copy OK

Track 2

Filename F:\EAC Rips\Jerry Garcia Band - GarciaLive Volume 16 November 15th 1991, Madison Square Garden (2021) [FLAC] {JGFRR1037}\Disc 1\02 - Struggling Man.wav

Peak level 97.2 %
Extraction speed 3.3 X
Track quality 100.0 %
Test CRC B50067C3
Copy CRC B50067C3
Track not present in AccurateRip database
Copy OK

Track 3

Filename F:\EAC Rips\Jerry Garcia Band - GarciaLive Volume 16 November 15th 1991, Madison Square Garden (2021) [FLAC] {JGFRR1037}\Disc 1\03 - He Ain't Give You None.wav

Peak level 97.9 %
Extraction speed 3.8 X
Track quality 100.0 %
Test CRC DA458D3F
Copy CRC DA458D3F
Track not present in AccurateRip database
Copy OK

Track 4

Filename F:\EAC Rips\Jerry Garcia Band - GarciaLive Volume 16 November 15th 1991, Madison Square Garden (2021) [FLAC] {JGFRR1037}\Disc 1\04 - Simple Twist of Fate.wav

Peak level 96.5 %
Extraction speed 4.4 X
Track quality 100.0 %
Test CRC 7C703377
Copy CRC 7C703377
Track not present in AccurateRip database
Copy OK

Track 5

Filename F:\EAC Rips\Jerry Garcia Band - GarciaLive Volume 16 November 15th 1991, Madison Square Garden (2021) [FLAC] {JGFRR1037}\Disc 1\05 - Lay Down Sally.wav

Peak level 98.3 %
Extraction speed 4.3 X
Track quality 99.9 %
Test CRC 9DFDF485
Copy CRC 9DFDF485
Track not present in AccurateRip database
Copy OK


None of the tracks are present in the AccurateRip database

No errors occurred

End of status report

–– CUETools DB Plugin V2.1.6

[CTDB TOCID: 0zCuKKgTw3MvOJ6QB6bAjRh9cD0-] disk not present in database
Submit result: 0zCuKKgTw3MvOJ6QB6bAjRh9cD0- has been uploaded


==== Log checksum 028A454EC3F2E1EB44AA8F8C795F2A5987A0B9D08D299D9C185D65551A634829 ====
Exact Audio Copy V1.3 from 2. September 2016

EAC extraction logfile from 24. June 2021, 16:04

Jerry Garcia Band / GarciaLive Volume 16: November 15th 1991, Madison Square Garden

Used drive : TSSTcorpDVD+-RW TS-T633C Adapter: 1 ID: 0

Read mode : Secure
Utilize accurate stream : Yes
Defeat audio cache : Yes
Make use of C2 pointers : No

Read offset correction : 6
Overread into Lead-In and Lead-Out : No
Fill up missing offset samples with silence : Yes
Delete leading and trailing silent blocks : No
Null samples used in CRC calculations : Yes
Used interface : Native Win32 interface for Win NT & 2000
Gap handling : Appended to previous track

Used output format : User Defined Encoder
Selected bitrate : 1024 kBit/s
Quality : High
Add ID3 tag : No
Command line compressor : C:\Program Files (x86)\Exact Audio Copy\Flac\flac.exe
Additional command line options : -8 -e -p -V -T "ARTIST=%artist%" -T "TITLE=%title%" -T "ALBUM=%albumtitle%" -T "DATE=%year%" -T "TRACKNUMBER=%tracknr%" -T "GENRE=%genre%" -T "PERFORMER=%albuminterpret%" -T "COMPOSER=%composer%" %haslyrics%–tag-from-file=LYRICS="%lyricsfile%"%haslyrics% -T "ALBUMARTIST=%albumartist%" -T "DISCNUMBER=%cdnumber%" -T "TOTALDISCS=%totalcds%" -T "TOTALTRACKS=%numtracks%" -T "COMMENT=%comment%" %source% -o %dest%


TOC of the extracted CD

Track | Start | Length | Start sector | End sector
––––––––––––––––––––––––––––-
1 | 0:00.00 | 9:44.04 | 0 | 43803
2 | 9:44.04 | 4:36.03 | 43804 | 64506
3 | 14:20.07 | 9:02.07 | 64507 | 105163
4 | 23:22.14 | 14:10.51 | 105164 | 168964
5 | 37:32.65 | 6:15.55 | 168965 | 197144
6 | 43:48.45 | 11:25.67 | 197145 | 248586
7 | 55:14.37 | 9:28.38 | 248587 | 291224


Track 1

Filename F:\EAC Rips\Jerry Garcia Band - GarciaLive Volume 16 November 15th 1991, Madison Square Garden (2021) [FLAC] {JGFRR1037}\Disc 2\01 - The Night They Drove Old Dixie Down.wav

Pre-gap length 0:00:02.00

Peak level 97.5 %
Extraction speed 2.9 X
Track quality 100.0 %
Test CRC 77DF83C4
Copy CRC 77DF83C4
Track not present in AccurateRip database
Copy OK

Track 2

Filename F:\EAC Rips\Jerry Garcia Band - GarciaLive Volume 16 November 15th 1991, Madison Square Garden (2021) [FLAC] {JGFRR1037}\Disc 2\02 - My Sisters and Brothers.wav

Peak level 97.3 %
Extraction speed 3.3 X
Track quality 100.0 %
Test CRC 69FD8CD8
Copy CRC 69FD8CD8
Track not present in AccurateRip database
Copy OK

Track 3

Filename F:\EAC Rips\Jerry Garcia Band - GarciaLive Volume 16 November 15th 1991, Madison Square Garden (2021) [FLAC] {JGFRR1037}\Disc 2\03 - Deal.wav

Peak level 97.9 %
Extraction speed 3.9 X
Track quality 100.0 %
Test CRC 865B66A6
Copy CRC 865B66A6
Track not present in AccurateRip database
Copy OK

Track 4

Filename F:\EAC Rips\Jerry Garcia Band - GarciaLive Volume 16 November 15th 1991, Madison Square Garden (2021) [FLAC] {JGFRR1037}\Disc 2\04 - The Way You Do the Things You Do.wav

Peak level 97.4 %
Extraction speed 4.5 X
Track quality 100.0 %
Test CRC 8CBDB239
Copy CRC 8CBDB239
Track not present in AccurateRip database
Copy OK

Track 5

Filename F:\EAC Rips\Jerry Garcia Band - GarciaLive Volume 16 November 15th 1991, Madison Square Garden (2021) [FLAC] {JGFRR1037}\Disc 2\05 - Waiting for a Miracle.wav

Peak level 97.0 %
Extraction speed 4.7 X
Track quality 100.0 %
Test CRC B985A096
Copy CRC B985A096
Track not present in AccurateRip database
Copy OK

Track 6

Filename F:\EAC Rips\Jerry Garcia Band - GarciaLive Volume 16 November 15th 1991, Madison Square Garden (2021) [FLAC] {JGFRR1037}\Disc 2\06 - Shining Star.wav

Peak level 97.0 %
Extraction speed 4.7 X
Track quality 99.9 %
Test CRC 681BDEE7
Copy CRC 681BDEE7
Track not present in AccurateRip database
Copy OK

Track 7

Filename F:\EAC Rips\Jerry Garcia Band - GarciaLive Volume 16 November 15th 1991, Madison Square Garden (2021) [FLAC] {JGFRR1037}\Disc 2\07 - Ain't No Bread in the Breadbox.wav

Peak level 98.7 %
Extraction speed 5.6 X
Track quality 100.0 %
Test CRC CF7CFD7D
Copy CRC CF7CFD7D
Track not present in AccurateRip database
Copy OK


None of the tracks are present in the AccurateRip database

No errors occurred

End of status report

–– CUETools DB Plugin V2.1.6

[CTDB TOCID: SACJjUSPrsw90IEzCkDKAjmawPs-] disk not present in database
Submit result: SACJjUSPrsw90IEzCkDKAjmawPs- has been uploaded


==== Log checksum 41FA7D4B0C19965611A080CA6180854074846A22FF28A73A54AD48C03495365E ====
Exact Audio Copy V1.3 from 2. September 2016

EAC extraction logfile from 24. June 2021, 16:55

Jerry Garcia Band / GarciaLive Volume 16: November 15th, 1991, Madison Square Garden

Used drive : TSSTcorpDVD+-RW TS-T633C Adapter: 1 ID: 0

Read mode : Secure
Utilize accurate stream : Yes
Defeat audio cache : Yes
Make use of C2 pointers : No

Read offset correction : 6
Overread into Lead-In and Lead-Out : No
Fill up missing offset samples with silence : Yes
Delete leading and trailing silent blocks : No
Null samples used in CRC calculations : Yes
Used interface : Native Win32 interface for Win NT & 2000
Gap handling : Appended to previous track

Used output format : User Defined Encoder
Selected bitrate : 1024 kBit/s
Quality : High
Add ID3 tag : No
Command line compressor : C:\Program Files (x86)\Exact Audio Copy\Flac\flac.exe
Additional command line options : -8 -e -p -V -T "ARTIST=%artist%" -T "TITLE=%title%" -T "ALBUM=%albumtitle%" -T "DATE=%year%" -T "TRACKNUMBER=%tracknr%" -T "GENRE=%genre%" -T "PERFORMER=%albuminterpret%" -T "COMPOSER=%composer%" %haslyrics%–tag-from-file=LYRICS="%lyricsfile%"%haslyrics% -T "ALBUMARTIST=%albumartist%" -T "DISCNUMBER=%cdnumber%" -T "TOTALDISCS=%totalcds%" -T "TOTALTRACKS=%numtracks%" -T "COMMENT=%comment%" %source% -o %dest%


TOC of the extracted CD

Track | Start | Length | Start sector | End sector
––––––––––––––––––––––––––––-
1 | 0:00.00 | 15:46.32 | 0 | 70981
2 | 15:46.32 | 12:29.49 | 70982 | 127205
3 | 28:16.06 | 5:58.65 | 127206 | 154120
4 | 34:14.71 | 8:17.31 | 154121 | 191426


Track 1

Filename F:\EAC Rips\Jerry Garcia Band - GarciaLive Volume 16 November 15th 1991, Madison Square Garden (2021) [FLAC] {JGFRR1037}\Disc 3\01 - Don't Let Go.wav

Pre-gap length 0:00:02.00

Peak level 98.4 %
Extraction speed 3.2 X
Track quality 100.0 %
Test CRC FB04C24A
Copy CRC FB04C24A
Track not present in AccurateRip database
Copy OK

Track 2

Filename F:\EAC Rips\Jerry Garcia Band - GarciaLive Volume 16 November 15th 1991, Madison Square Garden (2021) [FLAC] {JGFRR1037}\Disc 3\02 - That Lucky Old Sun.wav

Peak level 97.8 %
Extraction speed 3.8 X
Track quality 99.9 %
Test CRC 0D8B0E07
Copy CRC 0D8B0E07
Track not present in AccurateRip database
Copy OK

Track 3

Filename F:\EAC Rips\Jerry Garcia Band - GarciaLive Volume 16 November 15th 1991, Madison Square Garden (2021) [FLAC] {JGFRR1037}\Disc 3\03 - Bright Side of the Road.wav

Peak level 96.3 %
Extraction speed 3.7 X
Track quality 99.9 %
Test CRC CA955E38
Copy CRC CA955E38
Track not present in AccurateRip database
Copy OK

Track 4

Filename F:\EAC Rips\Jerry Garcia Band - GarciaLive Volume 16 November 15th 1991, Madison Square Garden (2021) [FLAC] {JGFRR1037}\Disc 3\04 - (What A) Wonderful World.wav

Peak level 96.0 %
Extraction speed 4.8 X
Track quality 100.0 %
Test CRC 8B0068D0
Copy CRC 8B0068D0
Track not present in AccurateRip database
Copy OK


None of the tracks are present in the AccurateRip database

No errors occurred

End of status report

–– CUETools DB Plugin V2.1.6

[CTDB TOCID: v6N1.4DSX56G58nw8CA429HbFeM-] disk not present in database
Submit result: v6N1.4DSX56G58nw8CA429HbFeM- has been uploaded


==== Log checksum C850BD5B6B9250C4FA24FAF29F3768810285A9F296964E40DA5658506C7BFF52 ====

Thanks to the Original ripper !