Tags
Language
Tags

Jerry Garcia Band - GarciaLive, Vol. 13: 1989-09-16 Poplar Creek Music Theatre (2020)

Posted By: delpotro
Jerry Garcia Band - GarciaLive, Vol. 13: 1989-09-16 Poplar Creek Music Theatre (2020)

Jerry Garcia Band - GarciaLive, Vol. 13: 1989-09-16 Poplar Creek Music Theatre (2020)
EAC Rip | FLAC (tracks+log+.cue) - 843 Mb | MP3 CBR 320 kbps - 310 Mb | 02:12:12
Psychedelic Rock, Folk Rock | Label: Round Records, ATO Records

GarciaLive Volume 13 puts a spotlight on the Jerry Garcia Band's legendary September '89 run highlighting the September 16th show at Poplar Creek Music Theatre located in the suburbs of Chicago. Alongside the Jerry Garcia Band – John Kahn, David Kemper, Melvin Seals, Gloria Jones, and Jacklyn LaBranch – there is one BIG addition on saxophone… the Big Man, Clarence Clemons (Bruce Springsteen and the E-Street Band). While the setlist is fairly standard for the era, Clemons helps the band find new heights on old staples like The Band's “The Night They Drove Old Dixie Down,” The Beatles’ “Dear Prudence" and a pair of Garcia/Hunter originals, “Cats Under The Stars” and “They Love Each Other.” One relative rarity of note is a positively blistering take on The Rolling Stones’ romp “Let’s Spend The Night Together,” dusted off earlier in the year after having been absent since ’76, which closes set one spectacularly. Top to bottom, this one is filled with magic.
Tracklist:
Disc 1 (01:06:50)
1. Cats Under the Stars (feat. Clarence Clemons) [Live] (09:31)
2. They Love Each Other (feat. Clarence Clemons) [Live] (08:26)
3. Let it Rock (feat. Clarence Clemons) [Live] (08:59)
4. I Shall Be Released (feat. Clarence Clemons) [Live] (09:53)
5. Someday Baby (feat. Clarence Clemons) [Live] (08:17)
6. Dear Prudence (feat. Clarence Clemons) [Live] (11:05)
7. Let's Spend the Night Together (feat. Clarence Clemons) [Live] (10:39)

Disc 2 (01:05:15)
1. How Sweet it is (To Be Loved By You) (feat. Clarence Clemons) [Live] (07:55)
2. Knockin' on Heaven's Door (feat. Clarence Clemons) [Live] (11:45)
3. Think (feat. Clarence Clemons) [Live] (09:45)
4. Waiting for a Miracle (feat. Clarence Clemons) [Live] (07:03)
5. Evangeline (feat. Clarence Clemons) [Live] (05:51)
6. The Night They Drove Old Dixie Down (feat. Clarence Clemons) [Live] (10:34)
7. Tangled Up in Blue (feat. Clarence Clemons) [Live] (12:22)

Exact Audio Copy V1.5 from 20. February 2020

EAC extraction logfile from 10. June 2020, 13:42

The Jerry Garcia Band / GarciaLive Volume 13 - September 16th, 1989 Poplar Creek Music Theatre

Used drive : HL-DT-STBD-RE WH14NS40 Adapter: 1 ID: 1

Read mode : Secure
Utilize accurate stream : Yes
Defeat audio cache : Yes
Make use of C2 pointers : No

Read offset correction : 6
Overread into Lead-In and Lead-Out : No
Fill up missing offset samples with silence : Yes
Delete leading and trailing silent blocks : No
Null samples used in CRC calculations : Yes
Used interface : Native Win32 interface for Win NT & 2000
Gap handling : Appended to previous track

Used output format : User Defined Encoder
Selected bitrate : 1024 kBit/s
Quality : High
Add ID3 tag : No
Command line compressor : C:\Program Files (x86)\Exact Audio Copy\Flac\flac.exe
Additional command line options : -8 -V -T "ARTIST=%artist%" -T "TITLE=%title%" -T "ALBUM=%albumtitle%" -T "DATE=%year%" -T "TRACKNUMBER=%tracknr%" -T "GENRE=%genre%" -T "PERFORMER=%albuminterpret%" -T "COMPOSER=%composer%" -T "ALBUMARTIST=%albumartist%" -T "DISCNUMBER=%cdnumber%" -T "TOTALDISCS=%totalcds%" -T "TOTALTRACKS=%numtracks%" -T "COMMENT=%comment%" %source% -o %dest%


TOC of the extracted CD

Track | Start | Length | Start sector | End sector
––––––––––––––––––––––––––––-
1 | 0:00.00 | 9:31.74 | 0 | 42898
2 | 9:31.74 | 8:26.16 | 42899 | 80864
3 | 17:58.15 | 8:59.64 | 80865 | 121353
4 | 26:58.04 | 9:53.57 | 121354 | 165885
5 | 36:51.61 | 8:17.37 | 165886 | 203197
6 | 45:09.23 | 11:05.30 | 203198 | 253102
7 | 56:14.53 | 10:39.57 | 253103 | 301084


Track 1

Filename C:\Users\IEUser\Music\Jerry Garcia Band - GarciaLive Volume 13 September 16th, 1989 Poplar Creek Music Theatre (2020) [FLAC]\Disc 1 of 2\01 - Cats Under The Stars.wav

Pre-gap length 0:00:02.00

Peak level 98.5 %
Extraction speed 4.6 X
Track quality 99.9 %
Test CRC 1710BE55
Copy CRC 1710BE55
Accurately ripped (confidence 6) [4D1B923A] (AR v2)
Copy OK

Track 2

Filename C:\Users\IEUser\Music\Jerry Garcia Band - GarciaLive Volume 13 September 16th, 1989 Poplar Creek Music Theatre (2020) [FLAC]\Disc 1 of 2\02 - They Love Each Other.wav

Peak level 99.8 %
Extraction speed 6.0 X
Track quality 100.0 %
Test CRC 0B095195
Copy CRC 0B095195
Accurately ripped (confidence 6) [8C427EDA] (AR v2)
Copy OK

Track 3

Filename C:\Users\IEUser\Music\Jerry Garcia Band - GarciaLive Volume 13 September 16th, 1989 Poplar Creek Music Theatre (2020) [FLAC]\Disc 1 of 2\03 - Let It Rock.wav

Peak level 96.9 %
Extraction speed 6.7 X
Track quality 100.0 %
Test CRC E3935EB8
Copy CRC E3935EB8
Accurately ripped (confidence 6) [F9B579CF] (AR v2)
Copy OK

Track 4

Filename C:\Users\IEUser\Music\Jerry Garcia Band - GarciaLive Volume 13 September 16th, 1989 Poplar Creek Music Theatre (2020) [FLAC]\Disc 1 of 2\04 - I Shall Be Released.wav

Peak level 96.9 %
Extraction speed 7.6 X
Track quality 100.0 %
Test CRC 39DDAB14
Copy CRC 39DDAB14
Accurately ripped (confidence 6) [77684731] (AR v2)
Copy OK

Track 5

Filename C:\Users\IEUser\Music\Jerry Garcia Band - GarciaLive Volume 13 September 16th, 1989 Poplar Creek Music Theatre (2020) [FLAC]\Disc 1 of 2\05 - Someday Baby.wav

Peak level 96.4 %
Extraction speed 8.2 X
Track quality 100.0 %
Test CRC A0561A3F
Copy CRC A0561A3F
Accurately ripped (confidence 6) [3E1019B7] (AR v2)
Copy OK

Track 6

Filename C:\Users\IEUser\Music\Jerry Garcia Band - GarciaLive Volume 13 September 16th, 1989 Poplar Creek Music Theatre (2020) [FLAC]\Disc 1 of 2\06 - Dear Prudence.wav

Peak level 98.0 %
Extraction speed 9.0 X
Track quality 100.0 %
Test CRC D60E49B2
Copy CRC D60E49B2
Accurately ripped (confidence 6) [3C31B42E] (AR v2)
Copy OK

Track 7

Filename C:\Users\IEUser\Music\Jerry Garcia Band - GarciaLive Volume 13 September 16th, 1989 Poplar Creek Music Theatre (2020) [FLAC]\Disc 1 of 2\07 - Let's Spend The Night Together.wav

Peak level 97.6 %
Extraction speed 8.7 X
Track quality 99.9 %
Test CRC 96A1A955
Copy CRC 96A1A955
Accurately ripped (confidence 5) [2BADB5C9] (AR v2)
Copy OK


All tracks accurately ripped

No errors occurred

End of status report

–– CUETools DB Plugin V2.1.6

[CTDB TOCID: h452jykpkZkFxap2PWFd9lxJexI-] found
Submit result: h452jykpkZkFxap2PWFd9lxJexI- has been confirmed
Track | CTDB Status
1 | (20/20) Accurately ripped
2 | (20/20) Accurately ripped
3 | (20/20) Accurately ripped
4 | (20/20) Accurately ripped
5 | (20/20) Accurately ripped
6 | (20/20) Accurately ripped
7 | (20/20) Accurately ripped


==== Log checksum 10338A3DF58EF4F7F8B663BA839A2B97E0AF33A37C8F215A728058BACD2027A7 ====
Exact Audio Copy V1.5 from 20. February 2020

EAC extraction logfile from 10. June 2020, 16:24

The Jerry Garcia Band / GarciaLive Volume 13 - September 16th, 1989 Poplar Creek Music Theatre

Used drive : HL-DT-STBD-RE WH14NS40 Adapter: 1 ID: 1

Read mode : Secure
Utilize accurate stream : Yes
Defeat audio cache : Yes
Make use of C2 pointers : No

Read offset correction : 6
Overread into Lead-In and Lead-Out : No
Fill up missing offset samples with silence : Yes
Delete leading and trailing silent blocks : No
Null samples used in CRC calculations : Yes
Used interface : Native Win32 interface for Win NT & 2000
Gap handling : Appended to previous track

Used output format : User Defined Encoder
Selected bitrate : 1024 kBit/s
Quality : High
Add ID3 tag : No
Command line compressor : C:\Program Files (x86)\Exact Audio Copy\Flac\flac.exe
Additional command line options : -8 -V -T "ARTIST=%artist%" -T "TITLE=%title%" -T "ALBUM=%albumtitle%" -T "DATE=%year%" -T "TRACKNUMBER=%tracknr%" -T "GENRE=%genre%" -T "PERFORMER=%albuminterpret%" -T "COMPOSER=%composer%" -T "ALBUMARTIST=%albumartist%" -T "DISCNUMBER=%cdnumber%" -T "TOTALDISCS=%totalcds%" -T "TOTALTRACKS=%numtracks%" -T "COMMENT=%comment%" %source% -o %dest%


TOC of the extracted CD

Track | Start | Length | Start sector | End sector
––––––––––––––––––––––––––––-
1 | 0:00.00 | 7:55.66 | 0 | 35690
2 | 7:55.66 | 11:45.54 | 35691 | 88619
3 | 19:41.45 | 9:45.08 | 88620 | 132502
4 | 29:26.53 | 7:03.23 | 132503 | 164250
5 | 36:30.01 | 5:51.13 | 164251 | 190588
6 | 42:21.14 | 10:34.13 | 190589 | 238151
7 | 52:55.27 | 12:22.18 | 238152 | 293819


Track 1

Filename C:\Users\IEUser\Music\Jerry Garcia Band - GarciaLive Volume 13 September 16th, 1989 Poplar Creek Music Theatre (2020) [FLAC]\Disc 2 of 2\01 - How Sweet It Is (To Be Loved By You).wav

Pre-gap length 0:00:02.00

Peak level 98.0 %
Extraction speed 1.1 X
Track quality 100.0 %
Test CRC 0E5C5A5A
Copy CRC 0E5C5A5A
Accurately ripped (confidence 3) [C31ABF19] (AR v2)
Copy OK

Track 2

Filename C:\Users\IEUser\Music\Jerry Garcia Band - GarciaLive Volume 13 September 16th, 1989 Poplar Creek Music Theatre (2020) [FLAC]\Disc 2 of 2\02 - Knockin' On Heaven's Door.wav

Peak level 97.0 %
Extraction speed 1.5 X
Track quality 100.0 %
Test CRC 2D6D946F
Copy CRC 2D6D946F
Accurately ripped (confidence 3) [C61C7000] (AR v2)
Copy OK

Track 3

Filename C:\Users\IEUser\Music\Jerry Garcia Band - GarciaLive Volume 13 September 16th, 1989 Poplar Creek Music Theatre (2020) [FLAC]\Disc 2 of 2\03 - Think.wav

Peak level 99.2 %
Extraction speed 1.7 X
Track quality 100.0 %
Test CRC C6343B8C
Copy CRC C6343B8C
Accurately ripped (confidence 3) [A271E4F4] (AR v2)
Copy OK

Track 4

Filename C:\Users\IEUser\Music\Jerry Garcia Band - GarciaLive Volume 13 September 16th, 1989 Poplar Creek Music Theatre (2020) [FLAC]\Disc 2 of 2\04 - Waiting For A Miracle.wav

Peak level 98.6 %
Extraction speed 1.7 X
Track quality 99.9 %
Test CRC 34A6322F
Copy CRC 34A6322F
Accurately ripped (confidence 3) [C2901921] (AR v2)
Copy OK

Track 5

Filename C:\Users\IEUser\Music\Jerry Garcia Band - GarciaLive Volume 13 September 16th, 1989 Poplar Creek Music Theatre (2020) [FLAC]\Disc 2 of 2\05 - Evangeline.wav

Peak level 97.9 %
Extraction speed 1.9 X
Track quality 100.0 %
Test CRC 1213D0F2
Copy CRC 1213D0F2
Accurately ripped (confidence 3) [D53484B7] (AR v2)
Copy OK

Track 6

Filename C:\Users\IEUser\Music\Jerry Garcia Band - GarciaLive Volume 13 September 16th, 1989 Poplar Creek Music Theatre (2020) [FLAC]\Disc 2 of 2\06 - The Night They Drove Old Dixie Down.wav

Peak level 98.5 %
Extraction speed 2.1 X
Track quality 100.0 %
Test CRC E940A788
Copy CRC E940A788
Accurately ripped (confidence 3) [27967F4B] (AR v2)
Copy OK

Track 7

Filename C:\Users\IEUser\Music\Jerry Garcia Band - GarciaLive Volume 13 September 16th, 1989 Poplar Creek Music Theatre (2020) [FLAC]\Disc 2 of 2\07 - Tangled Up In Blue.wav

Peak level 99.7 %
Extraction speed 2.3 X
Track quality 100.0 %
Test CRC 159267A4
Copy CRC 159267A4
Accurately ripped (confidence 3) [5F9AE6CA] (AR v2)
Copy OK


All tracks accurately ripped

No errors occurred

End of status report

–– CUETools DB Plugin V2.1.6

[CTDB TOCID: Jw9ZMOEkS4oG2lBdWm4.qvLyCEU-] found
Submit result: Jw9ZMOEkS4oG2lBdWm4.qvLyCEU- has been confirmed
Track | CTDB Status
1 | (20/20) Accurately ripped
2 | (20/20) Accurately ripped
3 | (20/20) Accurately ripped
4 | (20/20) Accurately ripped
5 | (20/20) Accurately ripped
6 | (20/20) Accurately ripped
7 | (20/20) Accurately ripped


==== Log checksum 6434C2149B0CC03A6901B19980EA48D779CDF5897C5B8FBD1F8933BB75EBB6BE ====

Thanks to the Original ripper !