Subcategories
Tags
Language
Tags

John Carpenter - Lost Themes III: Alive After Death (2021)

Posted By: delpotro
John Carpenter - Lost Themes III: Alive After Death (2021)

John Carpenter - Lost Themes III: Alive After Death (2021)
EAC Rip | FLAC (tracks+log+.cue) - 212 Mb | MP3 CBR 320 kbps - 97 Mb | 00:40:27
Electronic | Label: Sacred Bones Records

John Carpenter returns with another collection of shlock soundtracks "for the movies in your mind." Kinda good though?

It's been five years since Carpenter last released a collection of "Lost Themes" with Cody Carpenter and Daniel Davies, but time means pretty much nothing when you've been trotting out quality (and ridiculously influential) synth-laced movie music since the 1970s. There aren't exactly any stylistic surprises here, a bit of refinement though - since "Lost Themes II", Carpenter has been on tour for the first time ever so that seems to have loosened him up a bit.

These new tracks might be the best latter-day Carpenter material we've heard, and he's finally struck a balance between the new and the old, the digital and the analog. It's as if he's finally unified the chunky rawk stylings of his later work (hello "Vampires") with the icy, minimal doom of early classics like "Assault on Precinct 13" and "Halloween". Here's to "Lost Themes IV", we're ready.
Tracklist:
1. Alive After Death (04:04)
2. Weeping Ghost (03:33)
3. Dripping Blood (03:54)
4. Dead Eyes (03:26)
5. Vampire's Touch (04:30)
6. Cemetery (04:11)
7. Skeleton (03:13)
8. Turning the Bones (03:33)
9. The Dead Walk (04:25)
10. Carpathian Darkness (05:36)

Exact Audio Copy V1.3 from 2. September 2016

EAC extraction logfile from 28. January 2021, 1:10

John Carpenter / Lost Themes III

Used drive : HL-DT-STBD-RE WH16NS40 Adapter: 1 ID: 0

Read mode : Secure
Utilize accurate stream : Yes
Defeat audio cache : Yes
Make use of C2 pointers : No

Read offset correction : 6
Overread into Lead-In and Lead-Out : No
Fill up missing offset samples with silence : Yes
Delete leading and trailing silent blocks : No
Null samples used in CRC calculations : Yes
Used interface : Native Win32 interface for Win NT & 2000
Gap handling : Appended to previous track

Used output format : User Defined Encoder
Selected bitrate : 1024 kBit/s
Quality : High
Add ID3 tag : No
Command line compressor : C:\Program Files (x86)\Exact Audio Copy\Flac\flac.exe
Additional command line options : -8 -V -T "ARTIST=%artist%" -T "TITLE=%title%" -T "ALBUM=%albumtitle%" -T "DATE=%year%" -T "TRACKNUMBER=%tracknr%" -T "GENRE=%genre%" -T "PERFORMER=%albuminterpret%" -T "COMPOSER=%composer%" %haslyrics%–tag-from-file=LYRICS="%lyricsfile%"%haslyrics% -T "ALBUMARTIST=%albumartist%" -T "DISCNUMBER=%cdnumber%" -T "TOTALDISCS=%totalcds%" -T "TOTALTRACKS=%numtracks%" -T "COMMENT=%comment%" %source% -o %dest%


TOC of the extracted CD

Track | Start | Length | Start sector | End sector
––––––––––––––––––––––––––––-
1 | 0:00.00 | 4:04.50 | 0 | 18349
2 | 4:04.50 | 3:33.21 | 18350 | 34345
3 | 7:37.71 | 3:54.27 | 34346 | 51922
4 | 11:32.23 | 3:26.22 | 51923 | 67394
5 | 14:58.45 | 4:30.34 | 67395 | 87678
6 | 19:29.04 | 4:11.01 | 87679 | 106504
7 | 23:40.05 | 3:13.24 | 106505 | 121003
8 | 26:53.29 | 3:33.04 | 121004 | 136982
9 | 30:26.33 | 4:25.17 | 136983 | 156874
10 | 34:51.50 | 5:36.20 | 156875 | 182094


Track 1

Filename C:\EAC\John Carpenter - Lost Themes III (2021) [FLAC]\01 - Alive After Death.wav

Pre-gap length 0:00:02.00

Peak level 97.5 %
Extraction speed 3.8 X
Track quality 99.9 %
Test CRC 29C7C9EC
Copy CRC 29C7C9EC
Track not present in AccurateRip database
Copy OK

Track 2

Filename C:\EAC\John Carpenter - Lost Themes III (2021) [FLAC]\02 - Weeping Ghost.wav

Peak level 97.5 %
Extraction speed 5.0 X
Track quality 100.0 %
Test CRC 9D0E6781
Copy CRC 9D0E6781
Track not present in AccurateRip database
Copy OK

Track 3

Filename C:\EAC\John Carpenter - Lost Themes III (2021) [FLAC]\03 - Dripping Blood.wav

Peak level 71.2 %
Extraction speed 4.5 X
Track quality 99.9 %
Test CRC 025DB131
Copy CRC 025DB131
Track not present in AccurateRip database
Copy OK

Track 4

Filename C:\EAC\John Carpenter - Lost Themes III (2021) [FLAC]\04 - Dead Eyes.wav

Peak level 91.3 %
Extraction speed 5.7 X
Track quality 100.0 %
Test CRC 2CDE7040
Copy CRC 2CDE7040
Track not present in AccurateRip database
Copy OK

Track 5

Filename C:\EAC\John Carpenter - Lost Themes III (2021) [FLAC]\05 - Vampire's Touch.wav

Peak level 97.5 %
Extraction speed 6.4 X
Track quality 100.0 %
Test CRC 16FFC81D
Copy CRC 16FFC81D
Track not present in AccurateRip database
Copy OK

Track 6

Filename C:\EAC\John Carpenter - Lost Themes III (2021) [FLAC]\06 - Cemetery.wav

Peak level 97.5 %
Extraction speed 5.6 X
Track quality 99.9 %
Test CRC AB6D2946
Copy CRC AB6D2946
Track not present in AccurateRip database
Copy OK

Track 7

Filename C:\EAC\John Carpenter - Lost Themes III (2021) [FLAC]\07 - Skeleton.wav

Peak level 98.8 %
Extraction speed 6.7 X
Track quality 100.0 %
Test CRC 09203FCE
Copy CRC 09203FCE
Track not present in AccurateRip database
Copy OK

Track 8

Filename C:\EAC\John Carpenter - Lost Themes III (2021) [FLAC]\08 - Turning The Bones.wav

Peak level 60.6 %
Extraction speed 7.1 X
Track quality 100.0 %
Test CRC 27AE291F
Copy CRC 27AE291F
Track not present in AccurateRip database
Copy OK

Track 9

Filename C:\EAC\John Carpenter - Lost Themes III (2021) [FLAC]\09 - The Dead Walk.wav

Peak level 97.5 %
Extraction speed 7.7 X
Track quality 100.0 %
Test CRC 6C64720B
Copy CRC 6C64720B
Track not present in AccurateRip database
Copy OK

Track 10

Filename C:\EAC\John Carpenter - Lost Themes III (2021) [FLAC]\10 - Carpathian Darkness.wav

Peak level 97.4 %
Extraction speed 8.2 X
Track quality 100.0 %
Test CRC AA726C93
Copy CRC AA726C93
Track not present in AccurateRip database
Copy OK


None of the tracks are present in the AccurateRip database

No errors occurred

End of status report

–– CUETools DB Plugin V2.1.6

[CTDB TOCID: 58jnkwpqfpK6YbtmW4RL5yG0KIY-] disk not present in database
Submit result: 58jnkwpqfpK6YbtmW4RL5yG0KIY- has been uploaded


==== Log checksum C158B18376F98614B9C25F9657BE404FCB02A0ED8ECE263CB8287D3AFDB4A2A8 ====

Thanks to the Original ripper !