Subcategories

King Crimson - Live in Chicago, June 28th, 2017 (2017) [Official Bootleg]

Posted By: delpotro
King Crimson -  Live in Chicago, June 28th, 2017 (2017) [Official Bootleg]

King Crimson - Live in Chicago, June 28th, 2017 (2017)
EAC Rip | FLAC (tracks+log+.cue) | 02:33:34 | 958 Mb
Progressive Rock | Label: Discipline Global Mobile, Inner Knot, Panegyric

King Crimson evolves, changes, morphs as relentlessly as the Soundscapes which open each concert. Since the 2016 tour of Europe, the band has become a double quartet line-up with Bill Rieflin’s return from sabbatical as keyboard player & Jeremy Stacey’s confirmation as a permanent member/third drummer. This allows for the inclusion of an ever more complex & compelling array of material, far more than can be contained in a single concert. With options for up to three keyboard players in the current line-up – Fripp & Stacey both have setups alongside their respective guitar/drum rigs - the majority of Lizard is performed live for the first time ever, likewise Fallen Angel from Red is making its first ever concert appearance/live recording, Cirkus envelops the listener in sound, the beautiful title track from Islands closes the first set, while staples from the 1980s line-up Indiscipline and Neurotica appear in very different arrangements. New piece, The Errors makes its recorded debut & current audience favourite Heroes appears in the encores at the end of Disc Two. Add to this list of concert newcomers & returnees, live staples of the recent tours such as Starless, Easy Money, a recording of Level Five described as the “best ever single performance” of the piece by King Crimson biographer Sid Smith & a storming ending provided by the evergreen 21st Century Schizoid Man & it’s easy to see why the band was so pleased with this gig & the audience went home happy.

King Crimson continues to re-invent & re-imagine both itself & its music; the kind of thing that once would have been called a “progressive” approach. It’s an approach that has benefited band members and listeners alike from January 1969 to the present – September 2017.
Tracklist:
Disc One:
01-Bellscape And Orchestral Werning 02:29
02-Larks' Tongues In Aspic Pt I 09:28
03-Neurotica 04:54
04-The Errors 04:53
05-Cirkus 07:34
06-The Lizard Suite 11:21
07-Fallen Angel 06:00
08-Larks' Tongues In Aspic Pt II 07:10
09-Islands 09:49
10-Pictures Of A City 09:59

Disc Two:
01-Indiscipline 08:02
02-The ConstruKction Of Light 06:19
03-Easy Money 09:34
04-The Letters 06:44
05-Interlude 02:24
06-Meltdown 04:23
07-Radical Action II 02:28
08-Level Five 07:04
09-Starless 14:37
10-Heroes 04:50
11-21st Century Schizoid Man 15:54

Exact Audio Copy V1.3 from 2. September 2016

EAC extraction logfile from 20. October 2017, 0:31

King Crimson / Live in Chicago

Used drive : PIONEER BD-RW BDR-XD05 Adapter: 1 ID: 0

Read mode : Secure
Utilize accurate stream : Yes
Defeat audio cache : Yes
Make use of C2 pointers : No

Read offset correction : 667
Overread into Lead-In and Lead-Out : No
Fill up missing offset samples with silence : Yes
Delete leading and trailing silent blocks : No
Null samples used in CRC calculations : Yes
Used interface : Native Win32 interface for Win NT & 2000
Gap handling : Appended to previous track

Used output format : User Defined Encoder
Selected bitrate : 128 kBit/s
Quality : High
Add ID3 tag : No
Command line compressor : C:\Program Files (x86)\Exact Audio Copy\Flac\flac.exe
Additional command line options : -8 -V -T "ARTIST=%artist%" -T "TITLE=%title%" -T "ALBUM=%albumtitle%" -T "DATE=%year%" -T "TRACKNUMBER=%tracknr%" -T "GENRE=%genre%" -T "PERFORMER=%albuminterpret%" -T "COMPOSER=%composer%" %haslyrics%–tag-from-file=LYRICS="%lyricsfile%"%haslyrics% -T "ALBUMARTIST=%albumartist%" -T "DISCNUMBER=%cdnumber%" -T "TOTALDISCS=%totalcds%" -T "TOTALTRACKS=%numtracks%" -T "COMMENT=%comment%" %source% -o %dest%


TOC of the extracted CD

Track | Start | Length | Start sector | End sector
––––––––––––––––––––––––––––-
1 | 0:00.00 | 2:29.16 | 0 | 11190
2 | 2:29.16 | 9:28.11 | 11191 | 53801
3 | 11:57.27 | 4:54.38 | 53802 | 75889
4 | 16:51.65 | 4:53.53 | 75890 | 97917
5 | 21:45.43 | 7:34.33 | 97918 | 132000
6 | 29:20.01 | 11:21.34 | 132001 | 183109
7 | 40:41.35 | 5:59.66 | 183110 | 210100
8 | 46:41.26 | 7:10.14 | 210101 | 242364
9 | 53:51.40 | 9:58.05 | 242365 | 287219
10 | 63:49.45 | 9:53.11 | 287220 | 331705


Track 1

Filename F:\Music\King Crimson - Live in Chicago (2017) CD FLAC\Disc 1\101 - Bellscape and Orchestral Werning.wav

Pre-gap length 0:00:02.00

Peak level 21.5 %
Extraction speed 2.6 X
Track quality 100.0 %
Test CRC 36911B8A
Copy CRC 36911B8A
Track not present in AccurateRip database
Copy OK

Track 2

Filename F:\Music\King Crimson - Live in Chicago (2017) CD FLAC\Disc 1\102 - Larks' Tongues in Aspic, Part I.wav

Peak level 86.9 %
Extraction speed 3.5 X
Track quality 100.0 %
Test CRC F68FAFE3
Copy CRC F68FAFE3
Track not present in AccurateRip database
Copy OK

Track 3

Filename F:\Music\King Crimson - Live in Chicago (2017) CD FLAC\Disc 1\103 - Neurotica.wav

Peak level 89.5 %
Extraction speed 3.7 X
Track quality 100.0 %
Test CRC AF8A4A98
Copy CRC AF8A4A98
Track not present in AccurateRip database
Copy OK

Track 4

Filename F:\Music\King Crimson - Live in Chicago (2017) CD FLAC\Disc 1\104 - The Errors.wav

Peak level 81.2 %
Extraction speed 4.0 X
Track quality 100.0 %
Test CRC 0A948065
Copy CRC 0A948065
Track not present in AccurateRip database
Copy OK

Track 5

Filename F:\Music\King Crimson - Live in Chicago (2017) CD FLAC\Disc 1\105 - Cirkus.wav

Peak level 86.4 %
Extraction speed 4.3 X
Track quality 100.0 %
Test CRC 7D2E96E2
Copy CRC 7D2E96E2
Track not present in AccurateRip database
Copy OK

Track 6

Filename F:\Music\King Crimson - Live in Chicago (2017) CD FLAC\Disc 1\106 - The Lizard Suite- The Battle of Glass Tears (Dawn Song, Last Skirmish, Prince Rupert's Lament).wav

Peak level 87.7 %
Extraction speed 4.9 X
Track quality 100.0 %
Test CRC 89EEBE88
Copy CRC 89EEBE88
Track not present in AccurateRip database
Copy OK

Track 7

Filename F:\Music\King Crimson - Live in Chicago (2017) CD FLAC\Disc 1\107 - Fallen Angel.wav

Peak level 91.1 %
Extraction speed 4.6 X
Track quality 99.9 %
Test CRC 5018E32F
Copy CRC 5018E32F
Track not present in AccurateRip database
Copy OK

Track 8

Filename F:\Music\King Crimson - Live in Chicago (2017) CD FLAC\Disc 1\108 - Larks' Tongues in Aspic, Part II.wav

Peak level 89.4 %
Extraction speed 5.2 X
Track quality 100.0 %
Test CRC 50DF3069
Copy CRC 50DF3069
Track not present in AccurateRip database
Copy OK

Track 9

Filename F:\Music\King Crimson - Live in Chicago (2017) CD FLAC\Disc 1\109 - Islands.wav

Peak level 84.9 %
Extraction speed 5.7 X
Track quality 100.0 %
Test CRC AF80A9A0
Copy CRC AF80A9A0
Track not present in AccurateRip database
Copy OK

Track 10

Filename F:\Music\King Crimson - Live in Chicago (2017) CD FLAC\Disc 1\110 - Pictures of a City.wav

Peak level 96.7 %
Extraction speed 6.1 X
Track quality 100.0 %
Test CRC BF240ABD
Copy CRC BF240ABD
Track not present in AccurateRip database
Copy OK


None of the tracks are present in the AccurateRip database

No errors occurred

End of status report

–– CUETools DB Plugin V2.1.6

[CTDB TOCID: 4rvAWKIvayewRbGW6h9VjqzZ92A-] found
Submit result: 4rvAWKIvayewRbGW6h9VjqzZ92A- has been confirmed
Track | CTDB Status
1 | (16/16) Accurately ripped
2 | (16/16) Accurately ripped
3 | (16/16) Accurately ripped
4 | (16/16) Accurately ripped
5 | (16/16) Accurately ripped
6 | (16/16) Accurately ripped
7 | (16/16) Accurately ripped
8 | (16/16) Accurately ripped
9 | (16/16) Accurately ripped
10 | (16/16) Accurately ripped


==== Log checksum 1076C258095CB1BDDDB366360E1AEB63ADF1D8414EBEF0926EB666A30A274868 ====

Exact Audio Copy V1.3 from 2. September 2016

EAC extraction logfile from 20. October 2017, 1:09

King Crimson / Live in Chicago

Used drive : PIONEER BD-RW BDR-XD05 Adapter: 1 ID: 0

Read mode : Secure
Utilize accurate stream : Yes
Defeat audio cache : Yes
Make use of C2 pointers : No

Read offset correction : 667
Overread into Lead-In and Lead-Out : No
Fill up missing offset samples with silence : Yes
Delete leading and trailing silent blocks : No
Null samples used in CRC calculations : Yes
Used interface : Native Win32 interface for Win NT & 2000
Gap handling : Appended to previous track

Used output format : User Defined Encoder
Selected bitrate : 128 kBit/s
Quality : High
Add ID3 tag : No
Command line compressor : C:\Program Files (x86)\Exact Audio Copy\Flac\flac.exe
Additional command line options : -8 -V -T "ARTIST=%artist%" -T "TITLE=%title%" -T "ALBUM=%albumtitle%" -T "DATE=%year%" -T "TRACKNUMBER=%tracknr%" -T "GENRE=%genre%" -T "PERFORMER=%albuminterpret%" -T "COMPOSER=%composer%" %haslyrics%–tag-from-file=LYRICS="%lyricsfile%"%haslyrics% -T "ALBUMARTIST=%albumartist%" -T "DISCNUMBER=%cdnumber%" -T "TOTALDISCS=%totalcds%" -T "TOTALTRACKS=%numtracks%" -T "COMMENT=%comment%" %source% -o %dest%


TOC of the extracted CD

Track | Start | Length | Start sector | End sector
––––––––––––––––––––––––––––-
1 | 0:00.00 | 8:17.46 | 0 | 37320
2 | 8:17.46 | 6:19.66 | 37321 | 65811
3 | 14:37.37 | 9:34.49 | 65812 | 108910
4 | 24:12.11 | 6:43.17 | 108911 | 139152
5 | 30:55.28 | 2:24.22 | 139153 | 149974
6 | 33:19.50 | 4:22.66 | 149975 | 169690
7 | 37:42.41 | 2:28.10 | 169691 | 180800
8 | 40:10.51 | 7:04.68 | 180801 | 212668
9 | 47:15.44 | 14:14.25 | 212669 | 276743
10 | 61:29.69 | 4:27.63 | 276744 | 296831
11 | 65:57.57 | 13:53.55 | 296832 | 359361


Track 1

Filename F:\Music\King Crimson - Live in Chicago (2017) CD FLAC\Disc 2\201 - Indiscipline.wav

Pre-gap length 0:00:02.00

Peak level 96.1 %
Extraction speed 3.2 X
Track quality 100.0 %
Test CRC B09F3FF5
Copy CRC B09F3FF5
Track not present in AccurateRip database
Copy OK

Track 2

Filename F:\Music\King Crimson - Live in Chicago (2017) CD FLAC\Disc 2\202 - The ConstruKction of Light.wav

Peak level 95.1 %
Extraction speed 3.6 X
Track quality 100.0 %
Test CRC D6F80374
Copy CRC D6F80374
Track not present in AccurateRip database
Copy OK

Track 3

Filename F:\Music\King Crimson - Live in Chicago (2017) CD FLAC\Disc 2\203 - Easy Money.wav

Peak level 95.0 %
Extraction speed 3.9 X
Track quality 99.9 %
Test CRC 090522DB
Copy CRC 090522DB
Track not present in AccurateRip database
Copy OK

Track 4

Filename F:\Music\King Crimson - Live in Chicago (2017) CD FLAC\Disc 2\204 - The Letters.wav

Peak level 96.9 %
Extraction speed 4.4 X
Track quality 100.0 %
Test CRC DB95602D
Copy CRC DB95602D
Track not present in AccurateRip database
Copy OK

Track 5

Filename F:\Music\King Crimson - Live in Chicago (2017) CD FLAC\Disc 2\205 - Interlude.wav

Peak level 34.4 %
Extraction speed 3.9 X
Track quality 100.0 %
Test CRC 2286A2A3
Copy CRC 2286A2A3
Track not present in AccurateRip database
Copy OK

Track 6

Filename F:\Music\King Crimson - Live in Chicago (2017) CD FLAC\Disc 2\206 - Meltdown.wav

Peak level 86.1 %
Extraction speed 4.4 X
Track quality 100.0 %
Test CRC 3226C577
Copy CRC 3226C577
Track not present in AccurateRip database
Copy OK

Track 7

Filename F:\Music\King Crimson - Live in Chicago (2017) CD FLAC\Disc 2\207 - Radical Action II.wav

Peak level 96.1 %
Extraction speed 4.1 X
Track quality 100.0 %
Test CRC 8B0122D4
Copy CRC 8B0122D4
Track not present in AccurateRip database
Copy OK

Track 8

Filename F:\Music\King Crimson - Live in Chicago (2017) CD FLAC\Disc 2\208 - Level Five.wav

Peak level 93.1 %
Extraction speed 5.0 X
Track quality 100.0 %
Test CRC BE3DA784
Copy CRC BE3DA784
Track not present in AccurateRip database
Copy OK

Track 9

Filename F:\Music\King Crimson - Live in Chicago (2017) CD FLAC\Disc 2\209 - Starless.wav

Peak level 95.7 %
Extraction speed 5.6 X
Track quality 100.0 %
Test CRC 092328A4
Copy CRC 092328A4
Track not present in AccurateRip database
Copy OK

Track 10

Filename F:\Music\King Crimson - Live in Chicago (2017) CD FLAC\Disc 2\210 - Heroes.wav

Peak level 94.1 %
Extraction speed 5.3 X
Track quality 100.0 %
Test CRC 07313E25
Copy CRC 07313E25
Track not present in AccurateRip database
Copy OK

Track 11

Filename F:\Music\King Crimson - Live in Chicago (2017) CD FLAC\Disc 2\211 - 21st Century Schizoid Man.wav

Peak level 95.7 %
Extraction speed 6.2 X
Track quality 100.0 %
Test CRC 5C7EC428
Copy CRC 5C7EC428
Track not present in AccurateRip database
Copy OK


None of the tracks are present in the AccurateRip database

No errors occurred

End of status report

–– CUETools DB Plugin V2.1.6

[CTDB TOCID: HuWgp3IcqTmbxB2Yv1X89s7o_58-] found
Submit result: HuWgp3IcqTmbxB2Yv1X89s7o_58- has been confirmed
Track | CTDB Status
1 | (17/17) Accurately ripped
2 | (17/17) Accurately ripped
3 | (17/17) Accurately ripped
4 | (17/17) Accurately ripped
5 | (17/17) Accurately ripped
6 | (17/17) Accurately ripped
7 | (17/17) Accurately ripped
8 | (17/17) Accurately ripped
9 | (17/17) Accurately ripped
10 | (17/17) Accurately ripped
11 | (17/17) Accurately ripped


==== Log checksum BE82ABC98E9A93FEBA6012954F96B4A3ECF9D8C2B2ACE898BAF1A4D9EFD4BEA2 ====

Thanks to the Original ripper aphexj !