Subcategories

King Crimson - Meltdown (Live in Mexico, 2017) (2018)

Posted By: delpotro
King Crimson - Meltdown (Live in Mexico, 2017) (2018)

King Crimson - Meltdown (Live in Mexico, 2017) (2018)
EAC Rip | FLAC (tracks+log+.cue) - 1,3 Gb | MP3 CBR 320 kbps - 501 Mb | 03:38:48
Progressive Rock | Label: Discipline Global Mobile, Panegyric

A 3CD/1Blu-Ray set featuring over three and a half hours of material performed during King Crimson’s five night residency at Teatro Metropolitan, Mexico City in July 2017 plus audio extras.

The Blu-Ray contains over two hours of multi-camera HD recorded footage, audio soundtrack in 24/48 LPCM, hi-res stereo and 5.1 DTS HD-MA (with 'picture off’ mode allowing the music to be heard independently in lossless audio).

Meltdown includes, for the first time with this line-up, audio recordings of Breathless, Discipline, Moonchild and Tony and Jeremy’s nightly Cadenza improvs.

Mixed by Don Gunn, Mixes produced by King Crimson member Bill Rieflin from full multi-track recordings and presented in two mini-vinyl style gatefold packs with booklet - including photos by Tony Levin and sleeve notes - enclosed in an outer slipcase.
Tracklist:
Disc: 1
1. Walk on (Live in Mexico City, July 2017)
2. Larks' Tongues in Aspic Part One (Live in Mexico City, July 2017)
3. Neurotica (Live in Mexico City, July 2017)
4. Cirkus (Live in Mexico City, July 2017)
5. Dawn Song (Live in Mexico City, July 2017)
6. Last Skirmish (Live in Mexico City, July 2017)
7. Prince Rupert's Lament (Live in Mexico City, July 2017)
8. The Hell Hounds of Krim (Live in Mexico City, July 2017)
9. Red (Live in Mexico City, July 2017)
10. Fallen Angel (Live in Mexico City, July 2017)
11. Islands (Live in Mexico City, July 2017)
12. The Talking Drum (Live in Mexico City, July 2017)
13. Larks' Tongues in Aspic Part Two (Live in Mexico City, July 2017)

Disc: 2
1. Indiscipline (Live in Mexico City, July 2017)
2. The Construkction of Light (Live in Mexico City, July 2017)
3. Epitaph (Live in Mexico City, July 2017)
4. Banshee Legs Bell Hassle (Live in Mexico City, July 2017)
5. Easy Money (Live in Mexico City, July 2017)
6. Interlude (Live in Mexico City, July 2017)
7. The Letters (Live in Mexico City, July 2017)
8. The Sailor's Tale (Live in Mexico City, July 2017)
9. Catalytikc No. 9 (Live in Mexico City, July 2017)
10. Meltdown (Live in Mexico City, July 2017)
11. Radical Action II (Live in Mexico City, July 2017)
12. Level Five (Live in Mexico City, July 2017)
13. Starless (Live in Mexico City, July 2017)

Disc: 3
1. Peace - An End (Live in Mexico City, July 2017)
2. Pictures of a City (Live in Mexico City, July 2017)
3. Devil Dogs of Tessellation Row (Live in Mexico City, July 2017)
4. Fracture (Live in Mexico City, July 2017)
5. The Court of the Crimson King (Live in Mexico City, July 2017)
6. Heroes (Live in Mexico City, July 2017)
7. 21st Century Schizoid Man (Live in Mexico City, July 2017)
8. Discipline (Live in Mexico City, July 2017)
9. Moonchild (Live in Europe, July 2018)
10. Tony's Cadenza (Live in Europe, July 2018)
11. Jeremy's Cadenza (Live in Europe, July 2018)
12. Breathless (Live in Europe, July 2018)
13 Cool Jam (Live in Europe, July 2018)

Exact Audio Copy V1.0 beta 3 from 29. August 2011

EAC extraction logfile from 26. October 2018, 21:17

King Crimson / Meltdown: Live in Mexico

Used drive : HL-DT-STBD-RE WH12LS39 Adapter: 1 ID: 1

Read mode : Secure
Utilize accurate stream : Yes
Defeat audio cache : Yes
Make use of C2 pointers : No

Read offset correction : 667
Overread into Lead-In and Lead-Out : No
Fill up missing offset samples with silence : Yes
Delete leading and trailing silent blocks : No
Null samples used in CRC calculations : Yes
Used interface : Native Win32 interface for Win NT & 2000
Gap handling : Appended to previous track

Used output format : User Defined Encoder
Selected bitrate : 1024 kBit/s
Quality : High
Add ID3 tag : No
Command line compressor : C:\Program Files (x86)\Exact Audio Copy\FLAC\FLAC.EXE
Additional command line options : -8 -V -T "ARTIST=%artist%" -T "TITLE=%title%" -T "ALBUM=%albumtitle%" -T "DATE=%year%" -T "TRACKNUMBER=%tracknr%" -T "GENRE=%genre%" -T "PERFORMER=%albuminterpret%" -T "COMPOSER=%composer%" %haslyrics%–tag-from-file=LYRICS="%lyricsfile%"%haslyrics% -T "ALBUMARTIST=%albumartist%" -T "DISCNUMBER=%cdnumber%" -T "TOTALDISCS=%totalcds%" -T "TOTALTRACKS=%numtracks%" -T "COMMENT=%comment%" %source% -o %dest%


TOC of the extracted CD

Track | Start | Length | Start sector | End sector
––––––––––––––––––––––––––––-
1 | 0:00.00 | 3:46.16 | 0 | 16965
2 | 3:46.16 | 9:27.68 | 16966 | 59558
3 | 13:14.09 | 4:57.30 | 59559 | 81863
4 | 18:11.39 | 7:41.41 | 81864 | 116479
5 | 25:53.05 | 2:19.17 | 116480 | 126921
6 | 28:12.22 | 6:10.21 | 126922 | 154692
7 | 34:22.43 | 2:30.64 | 154693 | 166006
8 | 36:53.32 | 3:42.32 | 166007 | 182688
9 | 40:35.64 | 6:42.49 | 182689 | 212887
10 | 47:18.38 | 6:09.12 | 212888 | 240574
11 | 53:27.50 | 9:02.50 | 240575 | 281274
12 | 62:30.25 | 3:47.56 | 281275 | 298355
13 | 66:18.06 | 6:52.61 | 298356 | 329316


Track 1

Filename E:\Rips\King Crimson\Meltdown - Live In Mexico (2018 CD FLAC)\01 Walk On.wav

Pre-gap length 0:00:02.00

Peak level 72.3 %
Extraction speed 1.1 X
Track quality 100.0 %
Test CRC 1156724F
Copy CRC 1156724F
Track not present in AccurateRip database
Copy OK

Track 2

Filename E:\Rips\King Crimson\Meltdown - Live In Mexico (2018 CD FLAC)\02 Larks' Tongues in Aspic Part 1.wav

Peak level 100.0 %
Extraction speed 1.4 X
Track quality 100.0 %
Test CRC E2DCC59A
Copy CRC E2DCC59A
Track not present in AccurateRip database
Copy OK

Track 3

Filename E:\Rips\King Crimson\Meltdown - Live In Mexico (2018 CD FLAC)\03 Neurotica.wav

Peak level 100.0 %
Extraction speed 1.5 X
Track quality 100.0 %
Test CRC B5FA695F
Copy CRC B5FA695F
Track not present in AccurateRip database
Copy OK

Track 4

Filename E:\Rips\King Crimson\Meltdown - Live In Mexico (2018 CD FLAC)\04 Cirkus.wav

Peak level 99.9 %
Extraction speed 1.7 X
Track quality 100.0 %
Test CRC 9CD873FE
Copy CRC 9CD873FE
Track not present in AccurateRip database
Copy OK

Track 5

Filename E:\Rips\King Crimson\Meltdown - Live In Mexico (2018 CD FLAC)\05 Dawn Song.wav

Peak level 43.5 %
Extraction speed 1.5 X
Track quality 100.0 %
Test CRC 31775E5C
Copy CRC 31775E5C
Track not present in AccurateRip database
Copy OK

Track 6

Filename E:\Rips\King Crimson\Meltdown - Live In Mexico (2018 CD FLAC)\06 Last Skirmish.wav

Peak level 100.0 %
Extraction speed 1.9 X
Track quality 100.0 %
Test CRC D59F75A2
Copy CRC D59F75A2
Track not present in AccurateRip database
Copy OK

Track 7

Filename E:\Rips\King Crimson\Meltdown - Live In Mexico (2018 CD FLAC)\07 Prince Rupert's Lament.wav

Peak level 77.8 %
Extraction speed 1.7 X
Track quality 100.0 %
Test CRC 866B8122
Copy CRC 866B8122
Track not present in AccurateRip database
Copy OK

Track 8

Filename E:\Rips\King Crimson\Meltdown - Live In Mexico (2018 CD FLAC)\08 The Hell Hounds of Krim.wav

Peak level 89.4 %
Extraction speed 1.7 X
Track quality 99.9 %
Test CRC 6678210D
Copy CRC 6678210D
Track not present in AccurateRip database
Copy OK

Track 9

Filename E:\Rips\King Crimson\Meltdown - Live In Mexico (2018 CD FLAC)\09 Red.wav

Peak level 100.0 %
Extraction speed 2.1 X
Track quality 100.0 %
Test CRC 303DFCE9
Copy CRC 303DFCE9
Track not present in AccurateRip database
Copy OK

Track 10

Filename E:\Rips\King Crimson\Meltdown - Live In Mexico (2018 CD FLAC)\10 Fallen Angel.wav

Peak level 100.0 %
Extraction speed 2.0 X
Track quality 99.9 %
Test CRC 2ADFD7DA
Copy CRC 2ADFD7DA
Track not present in AccurateRip database
Copy OK

Track 11

Filename E:\Rips\King Crimson\Meltdown - Live In Mexico (2018 CD FLAC)\11 Islands.wav

Peak level 99.5 %
Extraction speed 2.4 X
Track quality 100.0 %
Test CRC EC2B3562
Copy CRC EC2B3562
Track not present in AccurateRip database
Copy OK

Track 12

Filename E:\Rips\King Crimson\Meltdown - Live In Mexico (2018 CD FLAC)\12 The Talking Drum.wav

Peak level 99.4 %
Extraction speed 2.0 X
Track quality 99.9 %
Test CRC F662FA76
Copy CRC F662FA76
Track not present in AccurateRip database
Copy OK

Track 13

Filename E:\Rips\King Crimson\Meltdown - Live In Mexico (2018 CD FLAC)\13 Larks' Tongues in Aspic Part 2.wav

Peak level 99.9 %
Extraction speed 2.5 X
Track quality 100.0 %
Test CRC 29DBF93C
Copy CRC 29DBF93C
Track not present in AccurateRip database
Copy OK


None of the tracks are present in the AccurateRip database

No errors occurred

End of status report

–– CUETools DB Plugin V2.1.4

[CTDB TOCID: YZUlz2c9xmG7U5rlpvVonsHwVtY-] found
Submit result: YZUlz2c9xmG7U5rlpvVonsHwVtY- has been confirmed
Track | CTDB Status
1 | (30/30) Accurately ripped
2 | (30/30) Accurately ripped
3 | (30/30) Accurately ripped
4 | (30/30) Accurately ripped
5 | (30/30) Accurately ripped
6 | (30/30) Accurately ripped
7 | (30/30) Accurately ripped
8 | (30/30) Accurately ripped
9 | (30/30) Accurately ripped
10 | (30/30) Accurately ripped
11 | (30/30) Accurately ripped
12 | (30/30) Accurately ripped
13 | (30/30) Accurately ripped


==== Log checksum 9AD7DDD333ACD33A3026E88C73956B83F02681AE196B8C4E70974A7FB631B53C ====

Exact Audio Copy V1.0 beta 3 from 29. August 2011

EAC extraction logfile from 26. October 2018, 22:50

King Crimson / Meltdown: Live in Mexico

Used drive : HL-DT-STBD-RE WH12LS39 Adapter: 1 ID: 1

Read mode : Secure
Utilize accurate stream : Yes
Defeat audio cache : Yes
Make use of C2 pointers : No

Read offset correction : 667
Overread into Lead-In and Lead-Out : No
Fill up missing offset samples with silence : Yes
Delete leading and trailing silent blocks : No
Null samples used in CRC calculations : Yes
Used interface : Native Win32 interface for Win NT & 2000
Gap handling : Appended to previous track

Used output format : User Defined Encoder
Selected bitrate : 1024 kBit/s
Quality : High
Add ID3 tag : No
Command line compressor : C:\Program Files (x86)\Exact Audio Copy\FLAC\FLAC.EXE
Additional command line options : -8 -V -T "ARTIST=%artist%" -T "TITLE=%title%" -T "ALBUM=%albumtitle%" -T "DATE=%year%" -T "TRACKNUMBER=%tracknr%" -T "GENRE=%genre%" -T "PERFORMER=%albuminterpret%" -T "COMPOSER=%composer%" %haslyrics%–tag-from-file=LYRICS="%lyricsfile%"%haslyrics% -T "ALBUMARTIST=%albumartist%" -T "DISCNUMBER=%cdnumber%" -T "TOTALDISCS=%totalcds%" -T "TOTALTRACKS=%numtracks%" -T "COMMENT=%comment%" %source% -o %dest%


TOC of the extracted CD

Track | Start | Length | Start sector | End sector
––––––––––––––––––––––––––––-
1 | 0:00.00 | 8:19.46 | 0 | 37470
2 | 8:19.46 | 6:05.31 | 37471 | 64876
3 | 14:25.02 | 8:33.28 | 64877 | 103379
4 | 22:58.30 | 1:39.35 | 103380 | 110839
5 | 24:37.65 | 9:56.74 | 110840 | 155613
6 | 34:34.64 | 2:46.35 | 155614 | 168098
7 | 37:21.24 | 6:12.62 | 168099 | 196060
8 | 43:34.11 | 6:23.39 | 196061 | 224824
9 | 49:57.50 | 1:12.40 | 224825 | 230264
10 | 51:10.15 | 4:22.43 | 230265 | 249957
11 | 55:32.58 | 2:28.18 | 249958 | 261075
12 | 58:01.01 | 7:07.08 | 261076 | 293108
13 | 65:08.09 | 12:27.47 | 293109 | 349180


Track 1

Filename E:\Rips\King Crimson\Meltdown - Live In Mexico (2018 CD FLAC)\14 Indiscipline.wav

Pre-gap length 0:00:02.00

Peak level 100.0 %
Extraction speed 1.2 X
Track quality 99.9 %
Test CRC 55C7505E
Copy CRC 55C7505E
Track not present in AccurateRip database
Copy OK

Track 2

Filename E:\Rips\King Crimson\Meltdown - Live In Mexico (2018 CD FLAC)\15 The ConstruKction of Light.wav

Peak level 100.0 %
Extraction speed 1.5 X
Track quality 100.0 %
Test CRC 158C787A
Copy CRC 158C787A
Track not present in AccurateRip database
Copy OK

Track 3

Filename E:\Rips\King Crimson\Meltdown - Live In Mexico (2018 CD FLAC)\16 Epitaph.wav

Peak level 99.8 %
Extraction speed 1.7 X
Track quality 100.0 %
Test CRC D62F629C
Copy CRC D62F629C
Track not present in AccurateRip database
Copy OK

Track 4

Filename E:\Rips\King Crimson\Meltdown - Live In Mexico (2018 CD FLAC)\17 Banshee Legs Bell Hassle.wav

Peak level 24.3 %
Extraction speed 1.4 X
Track quality 100.0 %
Test CRC A6F8590D
Copy CRC A6F8590D
Track not present in AccurateRip database
Copy OK

Track 5

Filename E:\Rips\King Crimson\Meltdown - Live In Mexico (2018 CD FLAC)\18 Easy Money.wav

Peak level 100.0 %
Extraction speed 2.0 X
Track quality 100.0 %
Test CRC F9EB6106
Copy CRC F9EB6106
Track not present in AccurateRip database
Copy OK

Track 6

Filename E:\Rips\King Crimson\Meltdown - Live In Mexico (2018 CD FLAC)\19 Interlude.wav

Peak level 33.7 %
Extraction speed 1.8 X
Track quality 100.0 %
Test CRC 440A7D66
Copy CRC 440A7D66
Track not present in AccurateRip database
Copy OK

Track 7

Filename E:\Rips\King Crimson\Meltdown - Live In Mexico (2018 CD FLAC)\20 The Letters.wav

Peak level 99.6 %
Extraction speed 1.9 X
Track quality 99.9 %
Test CRC F1EE44AB
Copy CRC F1EE44AB
Track not present in AccurateRip database
Copy OK

Track 8

Filename E:\Rips\King Crimson\Meltdown - Live In Mexico (2018 CD FLAC)\21 The Sailor's Tale.wav

Peak level 99.9 %
Extraction speed 2.2 X
Track quality 100.0 %
Test CRC E173226C
Copy CRC E173226C
Track not present in AccurateRip database
Copy OK

Track 9

Filename E:\Rips\King Crimson\Meltdown - Live In Mexico (2018 CD FLAC)\22 CatalytiKc No. 9.wav

Peak level 99.6 %
Extraction speed 1.6 X
Track quality 100.0 %
Test CRC BE1C0C6E
Copy CRC BE1C0C6E
Track not present in AccurateRip database
Copy OK

Track 10

Filename E:\Rips\King Crimson\Meltdown - Live In Mexico (2018 CD FLAC)\23 Meltdown.wav

Peak level 99.8 %
Extraction speed 2.0 X
Track quality 99.9 %
Test CRC C21D8C3B
Copy CRC C21D8C3B
Track not present in AccurateRip database
Copy OK

Track 11

Filename E:\Rips\King Crimson\Meltdown - Live In Mexico (2018 CD FLAC)\24 Radical Action II.wav

Peak level 99.9 %
Extraction speed 2.1 X
Track quality 100.0 %
Test CRC A7BDABA3
Copy CRC A7BDABA3
Track not present in AccurateRip database
Copy OK

Track 12

Filename E:\Rips\King Crimson\Meltdown - Live In Mexico (2018 CD FLAC)\25 Level Five.wav

Peak level 100.0 %
Extraction speed 2.5 X
Track quality 100.0 %
Test CRC F22F1F99
Copy CRC F22F1F99
Track not present in AccurateRip database
Copy OK

Track 13

Filename E:\Rips\King Crimson\Meltdown - Live In Mexico (2018 CD FLAC)\26 Starless.wav

Peak level 100.0 %
Extraction speed 2.7 X
Track quality 100.0 %
Test CRC FC9C7425
Copy CRC FC9C7425
Track not present in AccurateRip database
Copy OK


None of the tracks are present in the AccurateRip database

No errors occurred

End of status report

–– CUETools DB Plugin V2.1.4

[CTDB TOCID: gp69eKEcLTlTjn7E4P1q7S.4IXs-] found
Submit result: gp69eKEcLTlTjn7E4P1q7S.4IXs- has been confirmed
Track | CTDB Status
1 | (32/32) Accurately ripped
2 | (32/32) Accurately ripped
3 | (32/32) Accurately ripped
4 | (32/32) Accurately ripped
5 | (32/32) Accurately ripped
6 | (32/32) Accurately ripped
7 | (32/32) Accurately ripped
8 | (32/32) Accurately ripped
9 | (32/32) Accurately ripped
10 | (32/32) Accurately ripped
11 | (32/32) Accurately ripped
12 | (32/32) Accurately ripped
13 | (31/32) Accurately ripped


==== Log checksum F7567714C920F1A1E1719A4E4712F6DD79538090129ABC30AA9AC43496CB6A80 ====

Exact Audio Copy V1.0 beta 3 from 29. August 2011

EAC extraction logfile from 27. October 2018, 0:20

King Crimson / Meltdown, King Crimson: Live in Mexico Disc 3

Used drive : HL-DT-STBD-RE WH12LS39 Adapter: 1 ID: 1

Read mode : Secure
Utilize accurate stream : Yes
Defeat audio cache : Yes
Make use of C2 pointers : No

Read offset correction : 667
Overread into Lead-In and Lead-Out : No
Fill up missing offset samples with silence : Yes
Delete leading and trailing silent blocks : No
Null samples used in CRC calculations : Yes
Used interface : Native Win32 interface for Win NT & 2000
Gap handling : Appended to previous track

Used output format : User Defined Encoder
Selected bitrate : 1024 kBit/s
Quality : High
Add ID3 tag : No
Command line compressor : C:\Program Files (x86)\Exact Audio Copy\FLAC\FLAC.EXE
Additional command line options : -8 -V -T "ARTIST=%artist%" -T "TITLE=%title%" -T "ALBUM=%albumtitle%" -T "DATE=%year%" -T "TRACKNUMBER=%tracknr%" -T "GENRE=%genre%" -T "PERFORMER=%albuminterpret%" -T "COMPOSER=%composer%" %haslyrics%–tag-from-file=LYRICS="%lyricsfile%"%haslyrics% -T "ALBUMARTIST=%albumartist%" -T "DISCNUMBER=%cdnumber%" -T "TOTALDISCS=%totalcds%" -T "TOTALTRACKS=%numtracks%" -T "COMMENT=%comment%" %source% -o %dest%


TOC of the extracted CD

Track | Start | Length | Start sector | End sector
––––––––––––––––––––––––––––-
1 | 0:00.00 | 2:13.16 | 0 | 9990
2 | 2:13.16 | 8:21.27 | 9991 | 47592
3 | 10:34.43 | 3:10.14 | 47593 | 61856
4 | 13:44.57 | 11:03.29 | 61857 | 111610
5 | 24:48.11 | 7:03.30 | 111611 | 143365
6 | 31:51.41 | 4:42.36 | 143366 | 164551
7 | 36:34.02 | 13:34.40 | 164552 | 225641
8 | 50:08.42 | 5:29.48 | 225642 | 250364
9 | 55:38.15 | 2:24.39 | 250365 | 261203
10 | 58:02.54 | 1:23.08 | 261204 | 267436
11 | 59:25.62 | 1:05.54 | 267437 | 272365
12 | 60:31.41 | 4:59.53 | 272366 | 294843
13 | 65:31.19 | 2:31.03 | 294844 | 306171


Track 1

Filename E:\Rips\King Crimson\Meltdown - Live In Mexico (2018 CD FLAC)\27 Peace - An End.wav

Pre-gap length 0:00:02.00

Peak level 33.9 %
Extraction speed 0.9 X
Track quality 100.0 %
Test CRC 464FF17B
Copy CRC 464FF17B
Track not present in AccurateRip database
Copy OK

Track 2

Filename E:\Rips\King Crimson\Meltdown - Live In Mexico (2018 CD FLAC)\28 Pictures of a City.wav

Peak level 99.9 %
Extraction speed 1.2 X
Track quality 100.0 %
Test CRC A1E71433
Copy CRC A1E71433
Track not present in AccurateRip database
Copy OK

Track 3

Filename E:\Rips\King Crimson\Meltdown - Live In Mexico (2018 CD FLAC)\29 Devil Dogs of Tessellation Row.wav

Peak level 86.4 %
Extraction speed 1.2 X
Track quality 100.0 %
Test CRC 5F4D5E87
Copy CRC 5F4D5E87
Track not present in AccurateRip database
Copy OK

Track 4

Filename E:\Rips\King Crimson\Meltdown - Live In Mexico (2018 CD FLAC)\30 Fracture.wav

Peak level 99.7 %
Extraction speed 1.6 X
Track quality 100.0 %
Test CRC D774CE33
Copy CRC D774CE33
Track not present in AccurateRip database
Copy OK

Track 5

Filename E:\Rips\King Crimson\Meltdown - Live In Mexico (2018 CD FLAC)\31 The Court of the Crimson King.wav

Peak level 99.9 %
Extraction speed 1.8 X
Track quality 100.0 %
Test CRC C324FFAD
Copy CRC C324FFAD
Track not present in AccurateRip database
Copy OK

Track 6

Filename E:\Rips\King Crimson\Meltdown - Live In Mexico (2018 CD FLAC)\32 Heroes.wav

Peak level 98.1 %
Extraction speed 1.8 X
Track quality 100.0 %
Test CRC D8B639F2
Copy CRC D8B639F2
Track not present in AccurateRip database
Copy OK

Track 7

Filename E:\Rips\King Crimson\Meltdown - Live In Mexico (2018 CD FLAC)\33 21st Century Schizoid Man.wav

Peak level 100.0 %
Extraction speed 2.1 X
Track quality 100.0 %
Test CRC F413A9B2
Copy CRC F413A9B2
Track not present in AccurateRip database
Copy OK

Track 8

Filename E:\Rips\King Crimson\Meltdown - Live In Mexico (2018 CD FLAC)\34 Discipline.wav

Peak level 95.3 %
Extraction speed 1.9 X
Track quality 99.9 %
Test CRC 23BD22AD
Copy CRC 23BD22AD
Track not present in AccurateRip database
Copy OK

Track 9

Filename E:\Rips\King Crimson\Meltdown - Live In Mexico (2018 CD FLAC)\35 Moonchild.wav

Peak level 97.8 %
Extraction speed 1.9 X
Track quality 100.0 %
Test CRC D7776EA6
Copy CRC D7776EA6
Track not present in AccurateRip database
Copy OK

Track 10

Filename E:\Rips\King Crimson\Meltdown - Live In Mexico (2018 CD FLAC)\36 Tony's Cadenza.wav

Peak level 20.3 %
Extraction speed 1.7 X
Track quality 100.0 %
Test CRC 11C6F859
Copy CRC 11C6F859
Track not present in AccurateRip database
Copy OK

Track 11

Filename E:\Rips\King Crimson\Meltdown - Live In Mexico (2018 CD FLAC)\37 Jeremy's Cadenza.wav

Peak level 43.8 %
Extraction speed 1.2 X
Track quality 99.8 %
Test CRC B4A0039F
Copy CRC B4A0039F
Track not present in AccurateRip database
Copy OK

Track 12

Filename E:\Rips\King Crimson\Meltdown - Live In Mexico (2018 CD FLAC)\38 Breathless.wav

Peak level 99.9 %
Extraction speed 2.3 X
Track quality 100.0 %
Test CRC 70C55A3C
Copy CRC 70C55A3C
Track not present in AccurateRip database
Copy OK

Track 13

Filename E:\Rips\King Crimson\Meltdown - Live In Mexico (2018 CD FLAC)\39 Cool Jam.wav

Peak level 99.4 %
Extraction speed 2.1 X
Track quality 100.0 %
Test CRC 32C0FAFD
Copy CRC 32C0FAFD
Track not present in AccurateRip database
Copy OK


None of the tracks are present in the AccurateRip database

No errors occurred

End of status report

–– CUETools DB Plugin V2.1.4

[CTDB TOCID: 1SYYFXEzRaTpeNlQZBRFucrP0wQ-] found
Submit result: 1SYYFXEzRaTpeNlQZBRFucrP0wQ- has been confirmed
Track | CTDB Status
1 | (31/31) Accurately ripped
2 | (31/31) Accurately ripped
3 | (31/31) Accurately ripped
4 | (31/31) Accurately ripped
5 | (31/31) Accurately ripped
6 | (30/31) Accurately ripped
7 | (31/31) Accurately ripped
8 | (31/31) Accurately ripped
9 | (31/31) Accurately ripped
10 | (31/31) Accurately ripped
11 | (31/31) Accurately ripped
12 | (31/31) Accurately ripped
13 | (29/31) Accurately ripped


==== Log checksum FA03B476E14908CEE5F943C270E5AAE899F744ED83DF25439F8F5C1411EE1764 ====

Thanks to the Original ripper ravana !