Tags
Language
Tags

Klaus Schulze - Mirage (40th Anniversary Edition) (1977/2017)

Posted By: delpotro
Klaus Schulze - Mirage (40th Anniversary Edition) (1977/2017)

Klaus Schulze - Mirage (40th Anniversary Edition) (1977/2017)
EAC Rip | FLAC (tracks+log+.cue) - 465 Mb | MP3 CBR 320 kbps - 177 Mb | 01:17:16
Progressive Electronic, Berlin School | Label: MIG Music

40th Anniversary Edition Re-Release - 2017 digitally remastered by Tom Dams! The LP Mirage, as predicted by Record World, will establish Klaus Schulze as one of the most outstanding electronic music composers. Schulze's flexibility in voice and and the final product certainly show the bizarre winter scenery, especially the epic piece Crystal Lake, which is loved by Schulze fans all over the world. For many fans Mirage is considered to be one of the most important Klaus Schulze works of the 70s.

AllMusic Review by Jim Brenholts
Mirage is one of Klaus Schulze's best albums. It is certainly among the eeriest e-music sets ever. He created it as "an electronic winter landscape dedicated to Hans Dieter Schulze." It has somewhat of a symphonic structure. There are two main pieces: "Velvet Voyage" and "Crystal Lake." Each piece has six separate movements with experimental sounds serving as the recurring themes. The album has cold and icy textures that take listeners to the brink of the winter solstice. The experimental timbres give the set a sci-fi feel. This is vital space music. It will appeal to fans of Kevin Braheny, Richard Burmer, and Mychael Danna.
Tracklist:
1. Velvet Voyage: 1984/Aeronef/Eclipse/Exvasion/Lucid Interspace/Destination Void (28:28)
2. Crystal Lake: Xylotones/Cromwaves/Willowdreams/Liquidmirrors/Sprindance/A Bientôt (29:19)
3. In Cosa Crede Chi Non Crede? (19:28)

Exact Audio Copy V1.3 from 2. September 2016

EAC extraction logfile from 22. August 2017, 18:56

Klaus Schulze / Mirage

Used drive : PLDS DVD+-RW DH-16ABS Adapter: 1 ID: 0

Read mode : Secure
Utilize accurate stream : Yes
Defeat audio cache : Yes
Make use of C2 pointers : No

Read offset correction : 6
Overread into Lead-In and Lead-Out : No
Fill up missing offset samples with silence : Yes
Delete leading and trailing silent blocks : No
Null samples used in CRC calculations : Yes
Used interface : Native Win32 interface for Win NT & 2000
Gap handling : Appended to previous track

Used output format : User Defined Encoder
Selected bitrate : 1024 kBit/s
Quality : High
Add ID3 tag : No
Command line compressor : C:\Program Files (x86)\Exact Audio Copy\Flac\flac.exe
Additional command line options : -8 -V -T "ARTIST=%artist%" -T "TITLE=%title%" -T "ALBUM=%albumtitle%" -T "DATE=%year%" -T "TRACKNUMBER=%tracknr%" -T "GENRE=%genre%" -T "PERFORMER=%albuminterpret%" -T "COMPOSER=%composer%" %haslyrics%–tag-from-file=LYRICS="%lyricsfile%"%haslyrics% -T "ALBUMARTIST=%albumartist%" -T "DISCNUMBER=%cdnumber%" -T "TOTALDISCS=%totalcds%" -T "TOTALTRACKS=%numtracks%" -T "COMMENT=%comment%" %source% -o %dest%


TOC of the extracted CD

Track | Start | Length | Start sector | End sector
––––––––––––––––––––––––––––-
1 | 0:00.00 | 28:28.30 | 0 | 128129
2 | 28:28.30 | 29:19.60 | 128130 | 260114
3 | 57:48.15 | 19:28.22 | 260115 | 347736


Track 1

Filename F:\Apollo\Klaus Schulze - Mirage (40th Anniversary)\01 Velvet Voyage.wav

Pre-gap length 0:00:02.00

Peak level 98.5 %
Extraction speed 2.8 X
Track quality 100.0 %
Test CRC 4BD49353
Copy CRC 4BD49353
Track not present in AccurateRip database
Copy OK

Track 2

Filename F:\Apollo\Klaus Schulze - Mirage (40th Anniversary)\02 Crystal Lake.wav

Pre-gap length 0:00:04.00

Peak level 98.1 %
Extraction speed 3.9 X
Track quality 100.0 %
Test CRC 3548C41B
Copy CRC 3548C41B
Track not present in AccurateRip database
Copy OK

Track 3

Filename F:\Apollo\Klaus Schulze - Mirage (40th Anniversary)\03 In Cosa Crede Chi Non Crede.wav

Pre-gap length 0:00:06.00

Peak level 37.2 %
Extraction speed 4.2 X
Track quality 99.9 %
Test CRC 7280564F
Copy CRC 7280564F
Track not present in AccurateRip database
Copy OK


None of the tracks are present in the AccurateRip database

No errors occurred

End of status report

–– CUETools DB Plugin V2.1.6

[CTDB TOCID: 7WNa9fw4uarOCez1CnB1NBIy_Zw-] found
Submit result: already submitted
Track | CTDB Status
1 | (11/11) Accurately ripped
2 | (11/11) Accurately ripped
3 | (11/11) Accurately ripped


==== Log checksum 096C862AE4CCB423E27132A44E18072A0261C083E084DC342A6FFF24161F84B9 ====

Thanks to the Original ripper !