Subcategories

Lalo Schifrin - My Life in Music (2012) {4CD Boxset Aleph Records 047}

Posted By: ruskaval
Lalo Schifrin - My Life in Music (2012) {4CD Boxset Aleph Records 047}

Lalo Schifrin - My Life in Music (2012) {4CD Boxset Aleph Records 047}
EAC rip (secure mode) | FLAC (tracks)+CUE+LOG -> 1.78 Gb | MP3 @320 -> 707 Mb
Full Artwork @ 600 dpi (png) -> 969 Mb | 5% repair rar
© 2012 Aleph Records | 047
Jazz / Classical / Stage & Screen / Soundtracks / Bop / Chamber Music

Aleph Records is proud to release Lalo Schifrin: My Life in Music, a four-CD boxed set of music from the legendary composer's career in film, jazz, and classical music. The set features music from three-dozen films, jazz and symphonic pieces composed by Schifrin, and unreleased music from films including Charley Varrick, The Beguiled, Joe Kidd, and Coogan's Bluff. Along with over five hours worth of music, a forty-eight page book is included with archival photos and notes.
Lalo Schifrin - My Life in Music (2012) {4CD Boxset Aleph Records 047}

This four-disc set spans music from all aspects of Mr. Schifrin's career, from the early beginnings of his film music to the big hits that include Mission Impossible, Dirty Harry, Enter The Dragon, and Bullitt. Also represented is music from his jazz and classical compositions including work commissioned by Dizzy Gillespie, as well as the Grammy-nominated Jazz Meets The Symphony series. His music is a synthesis of traditional and twentieth-century techniques, and his early love for jazz and rhythm are strong attributes of his style. "Invocations," "Concerto for Double Bass," "Piano Concertos No. 1 and No. 2," "Pulsations," "Tropicos," "La Nouvelle Orleans," and "Resonances" are examples of this tendency to juxtapose universal thoughts with a kind of elaborated primitivism.

Lalo Schifrin - My Life in Music (2012) {4CD Boxset Aleph Records 047}


In the classical composition field, Schifrin has more than 60 works. Schifrin has written over 100 film and television scores including Mission Impossible, Mannix, Cool Hand Luke, Bullitt, The Cincinnati Kid, Amityville Horror, Enter The Dragon, four of the Dirty Harry films, and more recently Abominable and the Rush Hour trilogy. Lalo Schifrin has now won five GrammysR (twenty-two nominations), one Cable ACE Award, and six Academy AwardR nominations.
Lalo Schifrin - My Life in Music (2012) {4CD Boxset Aleph Records 047}


tracklist:
DISC 1

01. Enter The Dragon - Main Title
02. Samba Para Dos – from Bossa Nova Groove
03. The Fox - Main Title
04. The Eagle Has Landed – Eagle Falls In Love
05. Rhino – Transporting Rhino
06. Fast Walking- Main Title
07. Burning Bridges – from Kelly's Heroes Vocals: The Mike Curb Congregation
08. Invisible City – from Metamorphosis: Jazz Meets The Symphony #4
09. Dirty Harry - Main Title
10. The Cincinnati Kid – New Orleans Procession
11. Caveman - End Title
12. Abominable – There Is Something Out There
13. Cool Hand Luke - Main Title
14. Telefon - Main Title
15. The Dead Pool – The Pier, The Bridge, and The City
16. Love Poem For Donna – from Ins and Outs
17. Charley Varrick – Bank Robbery – PREVIOUSLY UNRELEASED
18. Bullitt - Main Title
19. Coogan's Bluff - Main Title – PREVIOUSLY UNRELEASED
20. Rush Hour - End Title

Lalo Schifrin - My Life in Music (2012) {4CD Boxset Aleph Records 047}

Lalo Schifrin - My Life in Music (2012) {4CD Boxset Aleph Records 047}


DISC 2
01. Joe Kidd - Main Title – PREVIOUSLY UNRELEASED
02. Cool Hand Luke – Tar Sequence
03. The Osterman Weekend – The Face of Love
04. Rollercoaster – Calliope Of Death
05. Kelly's Heroes – All For The Love Of Sunshine
06. The Venetian Affair – Venice After Dark
07. Dirty Harry – Scorpio's View
08. The Statue Of Liberty March – from Those Fabulous Hollywood Marches
09. Brubaker – Theme From Brubaker
10. The Cincinnati Kid – Instrumental Version (Lalo Schifrin, piano)
11. Something to Believe In – The Miracle
12. The Beguiled – Amputation Aftermath
13. Che – Che!
14. El Dorado – from Firebird: Jazz Meets The Symphony #3
15. Sudden Impact - Main Title
16. The Wrath Of God – Pablito / Guitarra / Padre Van Horne
17. Magnum Force – Magnum Force
18. The Amityville Horror - Main Title
19. Coogan's Bluff – Take Me to Ringerman – PREVIOUSLY UNRELEASED
20. Return Of The Marquis de Sade – Justine
21. Mission: Impossible – The Plot

Lalo Schifrin - My Life in Music (2012) {4CD Boxset Aleph Records 047}

Lalo Schifrin - My Life in Music (2012) {4CD Boxset Aleph Records 047}


DISC 3
01. The Cincinnati Kid - Vocals: Ray Charles
02. Cool Hand Luke – Arletta Blues
03. Les Felins - Main Title
04. The Fourth Protocol - Main Title
05. Spooks – The Forces Of Darkness
06. The Beguilded – Finding McB – PREVIOUSLY UNRELEASED
07. Mannix – Theme from Mannix
08. Bulitt – Ice Pick Mike
09. Return Of The Marquis de Sade Bach to the Blues
10. Magnum Force - Main Title
11. Tango del Atardecer – from Letters from Argentina
12. Joe Kidd – Chama – PREVIOUSLY UNRELEASED
13. Rollercoaster – Movement From String Quartette
14. Summer Dance – from Invocations: Jazz Meets The Symphony #7
15. Don Quixote – My Lord Don Quixote / End Title
16. Rage - Main Title – PREVIOUSLY UNRELEASED
17. Let Us Leave Some Songs – from Cantos Aztecas
18. La Pelle – Tema D'Amore
19. Charley Varrick – Last Of The Independents - PREVIOUSLY UNRELEASED
20. Sudden Impact – Robbery Suspect
21. Rush Hour - Main Title

Lalo Schifrin - My Life in Music (2012) {4CD Boxset Aleph Records 047}

Lalo Schifrin - My Life in Music (2012) {4CD Boxset Aleph Records 047}


DISC 4
01. Concorde: Airport 79 – Suite
02. Paraphrase – from Kaleidoscope: Jazz Meets The Symphony #6
03. Panamericana – from Gillespiana
04. Once a Thief – from Jazz Goes To Hollywood
05. Resonances – from Esperanto
06. Montuno – from Latin Jazz Suite
07. People Alone - The Competition – from Jazz Goes to Hollywood
08. Intersections – from Intersections: Jazz Meets The Symphony #5
09. Agnus Dei – from Jazz Mass
10. Toccata – from Gillespiana
11. Mission: Impossible – from Jazz Goes to Hollywood

Lalo Schifrin - My Life in Music (2012) {4CD Boxset Aleph Records 047}

Lalo Schifrin - My Life in Music (2012) {4CD Boxset Aleph Records 047}


Exact Audio Copy V1.0 beta 3 from 29. August 2011

EAC extraction logfile from 24. October 2015, 11:53

Lalo Schifrin / My Life in Music - CD 1

Used drive : PLEXTOR BD-R PX-B950SA Adapter: 3 ID: 0

Read mode : Secure
Utilize accurate stream : Yes
Defeat audio cache : Yes
Make use of C2 pointers : No

Read offset correction : 6
Overread into Lead-In and Lead-Out : No
Fill up missing offset samples with silence : Yes
Delete leading and trailing silent blocks : No
Null samples used in CRC calculations : Yes
Used interface : Native Win32 interface for Win NT & 2000
Gap handling : Appended to previous track

Used output format : User Defined Encoder
Selected bitrate : 1024 kBit/s
Quality : High
Add ID3 tag : No
Command line compressor : C:\Program Files (x86)\Exact Audio Copy\Flac\flac.exe
Additional command line options : -8 -V -T "ARTIST=%artist%" -T "TITLE=%title%" -T "ALBUM=%albumtitle%" -T "DATE=%year%" -T "TRACKNUMBER=%tracknr%" -T "TOTALTRACKS=%numtracks%" -T "GENRE=%genre%" -T "ALBUMARTIST=%albumartist%" -T "ALBUM ARTIST=%albumartist%" -T "COMMENT=EAC Secure Mode, Test & Copy, AccurateRip, FLAC -8" %source%


TOC of the extracted CD

Track | Start | Length | Start sector | End sector
––––––––––––––––––––––––––––-
1 | 0:00.00 | 2:21.57 | 0 | 10631
2 | 2:21.57 | 5:30.58 | 10632 | 35439
3 | 7:52.40 | 5:05.07 | 35440 | 58321
4 | 12:57.47 | 5:17.61 | 58322 | 82157
5 | 18:15.33 | 1:47.11 | 82158 | 90193
6 | 20:02.44 | 3:05.25 | 90194 | 104093
7 | 23:07.69 | 2:43.13 | 104094 | 116331
8 | 25:51.07 | 5:52.16 | 116332 | 142747
9 | 31:43.23 | 3:30.18 | 142748 | 158515
10 | 35:13.41 | 4:04.22 | 158516 | 176837
11 | 39:17.63 | 3:04.53 | 176838 | 190690
12 | 42:22.41 | 4:25.27 | 190691 | 210592
13 | 46:47.68 | 2:06.38 | 210593 | 220080
14 | 48:54.31 | 3:08.43 | 220081 | 234223
15 | 52:02.74 | 3:43.03 | 234224 | 250951
16 | 55:46.02 | 5:04.73 | 250952 | 273824
17 | 60:51.00 | 3:12.46 | 273825 | 288270
18 | 64:03.46 | 3:08.46 | 288271 | 302416
19 | 67:12.17 | 4:39.58 | 302417 | 323399
20 | 71:52.00 | 3:25.33 | 323400 | 338807


Track 1

Filename Z:\#Torrents\Eigene\#EAC default\Lalo Schifrin - My Life in Music (2012) [FLAC] {4CD Boxset}\Disc 1of4\01 - Enter the Dragon - Main Title.wav

Pre-gap length 0:00:02.00

Peak level 87.1 %
Extraction speed 1.2 X
Track quality 99.9 %
Test CRC 084ED595
Copy CRC 084ED595
Accurately ripped (confidence 5) [EE311411] (AR v2)
Copy OK

Track 2

Filename Z:\#Torrents\Eigene\#EAC default\Lalo Schifrin - My Life in Music (2012) [FLAC] {4CD Boxset}\Disc 1of4\02 - Samba Para Dos (from Bossa Nova Groove).wav

Peak level 78.5 %
Extraction speed 2.4 X
Track quality 100.0 %
Test CRC 844089AD
Copy CRC 844089AD
Accurately ripped (confidence 5) [C6DADDCF] (AR v2)
Copy OK

Track 3

Filename Z:\#Torrents\Eigene\#EAC default\Lalo Schifrin - My Life in Music (2012) [FLAC] {4CD Boxset}\Disc 1of4\03 - The Fox - Main Title.wav

Peak level 88.1 %
Extraction speed 2.0 X
Track quality 99.9 %
Test CRC 513CDE58
Copy CRC 513CDE58
Accurately ripped (confidence 5) [BC1CE94F] (AR v2)
Copy OK

Track 4

Filename Z:\#Torrents\Eigene\#EAC default\Lalo Schifrin - My Life in Music (2012) [FLAC] {4CD Boxset}\Disc 1of4\04 - Eagle Falls in Love (from The Eagle Has Landed).wav

Peak level 81.1 %
Extraction speed 2.9 X
Track quality 100.0 %
Test CRC 034574C0
Copy CRC 034574C0
Accurately ripped (confidence 5) [055DBDB4] (AR v2)
Copy OK

Track 5

Filename Z:\#Torrents\Eigene\#EAC default\Lalo Schifrin - My Life in Music (2012) [FLAC] {4CD Boxset}\Disc 1of4\05 - Transporting Rhino (from Rhino).wav

Peak level 96.5 %
Extraction speed 2.5 X
Track quality 100.0 %
Test CRC 6651BCF0
Copy CRC 6651BCF0
Accurately ripped (confidence 5) [DE0E55F7] (AR v2)
Copy OK

Track 6

Filename Z:\#Torrents\Eigene\#EAC default\Lalo Schifrin - My Life in Music (2012) [FLAC] {4CD Boxset}\Disc 1of4\06 - Fast-Walking - Main Title (Previously Unreleased).wav

Peak level 77.0 %
Extraction speed 2.9 X
Track quality 100.0 %
Test CRC 272A8DFE
Copy CRC 272A8DFE
Accurately ripped (confidence 5) [FBF8BC3D] (AR v2)
Copy OK

Track 7

Filename Z:\#Torrents\Eigene\#EAC default\Lalo Schifrin - My Life in Music (2012) [FLAC] {4CD Boxset}\Disc 1of4\07 - Burning Bridges (from Kelly's Heroes).wav

Peak level 85.1 %
Extraction speed 2.9 X
Track quality 100.0 %
Test CRC 24FB8A2F
Copy CRC 24FB8A2F
Accurately ripped (confidence 5) [727A2860] (AR v2)
Copy OK

Track 8

Filename Z:\#Torrents\Eigene\#EAC default\Lalo Schifrin - My Life in Music (2012) [FLAC] {4CD Boxset}\Disc 1of4\08 - Invisible City (from Metamorphosis).wav

Peak level 97.1 %
Extraction speed 3.4 X
Track quality 100.0 %
Test CRC C68D8238
Copy CRC C68D8238
Accurately ripped (confidence 5) [420C1D1C] (AR v2)
Copy OK

Track 9

Filename Z:\#Torrents\Eigene\#EAC default\Lalo Schifrin - My Life in Music (2012) [FLAC] {4CD Boxset}\Disc 1of4\09 - Dirty Harry - Main Title.wav

Peak level 86.8 %
Extraction speed 3.4 X
Track quality 100.0 %
Test CRC 1CA11154
Copy CRC 1CA11154
Accurately ripped (confidence 5) [02EDE812] (AR v2)
Copy OK

Track 10

Filename Z:\#Torrents\Eigene\#EAC default\Lalo Schifrin - My Life in Music (2012) [FLAC] {4CD Boxset}\Disc 1of4\10 - New Orleans Procession (from The Cincinnaty Kid).wav

Peak level 84.4 %
Extraction speed 3.5 X
Track quality 100.0 %
Test CRC A67A8900
Copy CRC A67A8900
Accurately ripped (confidence 4) [C56FEDFD] (AR v2)
Copy OK

Track 11

Filename Z:\#Torrents\Eigene\#EAC default\Lalo Schifrin - My Life in Music (2012) [FLAC] {4CD Boxset}\Disc 1of4\11 - Caveman - End Title.wav

Peak level 87.6 %
Extraction speed 3.5 X
Track quality 100.0 %
Test CRC B6D96010
Copy CRC B6D96010
Accurately ripped (confidence 4) [9B0D6D2A] (AR v2)
Copy OK

Track 12

Filename Z:\#Torrents\Eigene\#EAC default\Lalo Schifrin - My Life in Music (2012) [FLAC] {4CD Boxset}\Disc 1of4\12 - There is Something Out There (from Abominable).wav

Peak level 98.8 %
Extraction speed 3.8 X
Track quality 100.0 %
Test CRC B95FB668
Copy CRC B95FB668
Accurately ripped (confidence 5) [35BF4C85] (AR v2)
Copy OK

Track 13

Filename Z:\#Torrents\Eigene\#EAC default\Lalo Schifrin - My Life in Music (2012) [FLAC] {4CD Boxset}\Disc 1of4\13 - Cool Hand Luke - Main Title.wav

Peak level 77.0 %
Extraction speed 2.2 X
Track quality 99.9 %
Test CRC BC51EE40
Copy CRC BC51EE40
Accurately ripped (confidence 5) [150B2CB9] (AR v2)
Copy OK

Track 14

Filename Z:\#Torrents\Eigene\#EAC default\Lalo Schifrin - My Life in Music (2012) [FLAC] {4CD Boxset}\Disc 1of4\14 - Telefon - Main Title.wav

Peak level 98.8 %
Extraction speed 2.6 X
Track quality 99.9 %
Test CRC 4065D65B
Copy CRC 4065D65B
Accurately ripped (confidence 5) [AE9C617D] (AR v2)
Copy OK

Track 15

Filename Z:\#Torrents\Eigene\#EAC default\Lalo Schifrin - My Life in Music (2012) [FLAC] {4CD Boxset}\Disc 1of4\15 - The Pier, the Bridge, and the City (from The Dead Pool).wav

Peak level 95.6 %
Extraction speed 4.0 X
Track quality 100.0 %
Test CRC E8EF1F6C
Copy CRC E8EF1F6C
Accurately ripped (confidence 5) [24DB4DAE] (AR v2)
Copy OK

Track 16

Filename Z:\#Torrents\Eigene\#EAC default\Lalo Schifrin - My Life in Music (2012) [FLAC] {4CD Boxset}\Disc 1of4\16 - Love Poem for Donna (from Ins and Outs).wav

Peak level 82.3 %
Extraction speed 4.3 X
Track quality 100.0 %
Test CRC 9C915069
Copy CRC 9C915069
Accurately ripped (confidence 5) [D4EFA258] (AR v2)
Copy OK

Track 17

Filename Z:\#Torrents\Eigene\#EAC default\Lalo Schifrin - My Life in Music (2012) [FLAC] {4CD Boxset}\Disc 1of4\17 - Bank Robbery (from Charley Varrick - Previously Unreleased).wav

Peak level 98.8 %
Extraction speed 4.1 X
Track quality 100.0 %
Test CRC F68138B5
Copy CRC F68138B5
Accurately ripped (confidence 5) [C65392E1] (AR v2)
Copy OK

Track 18

Filename Z:\#Torrents\Eigene\#EAC default\Lalo Schifrin - My Life in Music (2012) [FLAC] {4CD Boxset}\Disc 1of4\18 - Bullitt - Main Title.wav

Pre-gap length 0:00:01.72

Peak level 90.6 %
Extraction speed 4.2 X
Track quality 100.0 %
Test CRC F6477E3A
Copy CRC F6477E3A
Accurately ripped (confidence 5) [33D33105] (AR v2)
Copy OK

Track 19

Filename Z:\#Torrents\Eigene\#EAC default\Lalo Schifrin - My Life in Music (2012) [FLAC] {4CD Boxset}\Disc 1of4\19 - Coogan's Bluff - Main Title (Previously Unreleased).wav

Peak level 98.8 %
Extraction speed 4.5 X
Track quality 100.0 %
Test CRC B7BBD179
Copy CRC B7BBD179
Accurately ripped (confidence 4) [8E9D22F2] (AR v2)
Copy OK

Track 20

Filename Z:\#Torrents\Eigene\#EAC default\Lalo Schifrin - My Life in Music (2012) [FLAC] {4CD Boxset}\Disc 1of4\20 - Rush Hour - End Title.wav

Pre-gap length 0:00:01.24

Peak level 87.2 %
Extraction speed 4.4 X
Track quality 100.0 %
Test CRC DD07DE36
Copy CRC DD07DE36
Accurately ripped (confidence 4) [4C36D75E] (AR v2)
Copy OK


All tracks accurately ripped

No errors occurred

End of status report

–– CUETools DB Plugin V2.1.3

[CTDB TOCID: iStNA09ho59V4Cpo5CN5425RsDg-] found, Submit result: already submitted
[01b6e7a5] (2/2) Accurately ripped


==== Log checksum 7AD3355F9D78C6F98B71DB51AB029B3F90F87388B772C6EE6B1DE605023F3EFC ====

Exact Audio Copy V1.0 beta 3 from 29. August 2011

EAC extraction logfile from 24. October 2015, 10:57

Lalo Schifrin / My Life in Music - CD 2

Used drive : PLEXTOR BD-R PX-B950SA Adapter: 3 ID: 0

Read mode : Secure
Utilize accurate stream : Yes
Defeat audio cache : Yes
Make use of C2 pointers : No

Read offset correction : 6
Overread into Lead-In and Lead-Out : No
Fill up missing offset samples with silence : Yes
Delete leading and trailing silent blocks : No
Null samples used in CRC calculations : Yes
Used interface : Native Win32 interface for Win NT & 2000
Gap handling : Appended to previous track

Used output format : User Defined Encoder
Selected bitrate : 1024 kBit/s
Quality : High
Add ID3 tag : No
Command line compressor : C:\Program Files (x86)\Exact Audio Copy\Flac\flac.exe
Additional command line options : -8 -V -T "ARTIST=%artist%" -T "TITLE=%title%" -T "ALBUM=%albumtitle%" -T "DATE=%year%" -T "TRACKNUMBER=%tracknr%" -T "TOTALTRACKS=%numtracks%" -T "GENRE=%genre%" -T "ALBUMARTIST=%albumartist%" -T "ALBUM ARTIST=%albumartist%" -T "COMMENT=EAC Secure Mode, Test & Copy, AccurateRip, FLAC -8" %source%


TOC of the extracted CD

Track | Start | Length | Start sector | End sector
––––––––––––––––––––––––––––-
1 | 0:00.00 | 3:10.41 | 0 | 14290
2 | 3:10.41 | 3:11.67 | 14291 | 28682
3 | 6:22.33 | 3:40.07 | 28683 | 45189
4 | 10:02.40 | 2:06.30 | 45190 | 54669
5 | 12:08.70 | 3:48.37 | 54670 | 71806
6 | 15:57.32 | 2:08.07 | 71807 | 81413
7 | 18:05.39 | 2:35.69 | 81414 | 93107
8 | 20:41.33 | 3:28.38 | 93108 | 108745
9 | 24:09.71 | 3:33.34 | 108746 | 124754
10 | 27:43.30 | 5:25.32 | 124755 | 149161
11 | 33:08.62 | 2:33.05 | 149162 | 160641
12 | 35:41.67 | 4:32.16 | 160642 | 181057
13 | 40:14.08 | 2:20.23 | 181058 | 191580
14 | 42:34.31 | 6:58.17 | 191581 | 222947
15 | 49:32.48 | 2:50.19 | 222948 | 235716
16 | 52:22.67 | 5:32.18 | 235717 | 260634
17 | 57:55.10 | 2:01.04 | 260635 | 269713
18 | 59:56.14 | 2:25.37 | 269714 | 280625
19 | 62:21.51 | 3:35.37 | 280626 | 296787
20 | 65:57.13 | 5:41.44 | 296788 | 322406
21 | 71:38.57 | 2:56.30 | 322407 | 335636


Track 1

Filename Z:\#Torrents\Eigene\#EAC default\Lalo Schifrin - Ma Life in Music (2012) [FLAC] {4CD Boxset}\Disc 2of4\01 - Joe Kidd - Main Title (Previously Unreleased).wav

Pre-gap length 0:00:02.00

Peak level 98.8 %
Extraction speed 3.1 X
Track quality 99.9 %
Test CRC E1E9447E
Copy CRC E1E9447E
Accurately ripped (confidence 4) [39525A25] (AR v2)
Copy OK

Track 2

Filename Z:\#Torrents\Eigene\#EAC default\Lalo Schifrin - Ma Life in Music (2012) [FLAC] {4CD Boxset}\Disc 2of4\02 - Cool Hand Luke - Tar Sequence.wav

Pre-gap length 0:00:01.26

Peak level 77.9 %
Extraction speed 3.2 X
Track quality 99.8 %
Test CRC 5391FA7E
Copy CRC 5391FA7E
Accurately ripped (confidence 4) [FABCD906] (AR v2)
Copy OK

Track 3

Filename Z:\#Torrents\Eigene\#EAC default\Lalo Schifrin - Ma Life in Music (2012) [FLAC] {4CD Boxset}\Disc 2of4\03 - The Osterman Weekend - The Face of Love.wav

Peak level 79.1 %
Extraction speed 4.3 X
Track quality 99.9 %
Test CRC 361AB733
Copy CRC 361AB733
Accurately ripped (confidence 4) [262A07F1] (AR v2)
Copy OK

Track 4

Filename Z:\#Torrents\Eigene\#EAC default\Lalo Schifrin - Ma Life in Music (2012) [FLAC] {4CD Boxset}\Disc 2of4\04 - Rollercoaster - Calliope of Death.wav

Peak level 47.2 %
Extraction speed 5.0 X
Track quality 100.0 %
Test CRC C16C241D
Copy CRC C16C241D
Accurately ripped (confidence 4) [DF805D24] (AR v2)
Copy OK

Track 5

Filename Z:\#Torrents\Eigene\#EAC default\Lalo Schifrin - Ma Life in Music (2012) [FLAC] {4CD Boxset}\Disc 2of4\05 - Kelly's Heroes - All for the Love of Sunshine.wav

Peak level 74.6 %
Extraction speed 5.9 X
Track quality 100.0 %
Test CRC F94F3E55
Copy CRC F94F3E55
Accurately ripped (confidence 4) [CB5B423F] (AR v2)
Copy OK

Track 6

Filename Z:\#Torrents\Eigene\#EAC default\Lalo Schifrin - Ma Life in Music (2012) [FLAC] {4CD Boxset}\Disc 2of4\06 - The Venetian Affair - Venice After Dark.wav

Peak level 86.1 %
Extraction speed 5.5 X
Track quality 100.0 %
Test CRC 25C51ED9
Copy CRC 25C51ED9
Accurately ripped (confidence 3) [198B58B7] (AR v2)
Copy OK

Track 7

Filename Z:\#Torrents\Eigene\#EAC default\Lalo Schifrin - Ma Life in Music (2012) [FLAC] {4CD Boxset}\Disc 2of4\07 - Dirty Harry - Scorpio's View.wav

Peak level 86.9 %
Extraction speed 5.9 X
Track quality 100.0 %
Test CRC B11BE35E
Copy CRC B11BE35E
Accurately ripped (confidence 4) [0A0AB91E] (AR v2)
Copy OK

Track 8

Filename Z:\#Torrents\Eigene\#EAC default\Lalo Schifrin - Ma Life in Music (2012) [FLAC] {4CD Boxset}\Disc 2of4\08 - The Statue of Liberty March (from Those Fabulous Hollywood Marches).wav

Peak level 98.8 %
Extraction speed 5.2 X
Track quality 99.9 %
Test CRC 5A285A07
Copy CRC 5A285A07
Accurately ripped (confidence 4) [7D913AAD] (AR v2)
Copy OK

Track 9

Filename Z:\#Torrents\Eigene\#EAC default\Lalo Schifrin - Ma Life in Music (2012) [FLAC] {4CD Boxset}\Disc 2of4\09 - Brubaker - Theme from Brubaker.wav

Peak level 79.1 %
Extraction speed 5.5 X
Track quality 99.9 %
Test CRC 47F3BA2D
Copy CRC 47F3BA2D
Accurately ripped (confidence 4) [5432A288] (AR v2)
Copy OK

Track 10

Filename Z:\#Torrents\Eigene\#EAC default\Lalo Schifrin - Ma Life in Music (2012) [FLAC] {4CD Boxset}\Disc 2of4\10 - The Cincinnati Kid - Instrumental Version (Lalo Schifrin, piano).wav

Peak level 87.3 %
Extraction speed 7.5 X
Track quality 100.0 %
Test CRC 8C4461FD
Copy CRC 8C4461FD
Accurately ripped (confidence 3) [68C02F90] (AR v2)
Copy OK

Track 11

Filename Z:\#Torrents\Eigene\#EAC default\Lalo Schifrin - Ma Life in Music (2012) [FLAC] {4CD Boxset}\Disc 2of4\11 - Something to Believe in - The Miracle.wav

Peak level 95.3 %
Extraction speed 5.3 X
Track quality 99.9 %
Test CRC B011A1B9
Copy CRC B011A1B9
Accurately ripped (confidence 4) [591EB112] (AR v2)
Copy OK

Track 12

Filename Z:\#Torrents\Eigene\#EAC default\Lalo Schifrin - Ma Life in Music (2012) [FLAC] {4CD Boxset}\Disc 2of4\12 - The Beguiled - Amputation Aftermath.wav

Peak level 91.3 %
Extraction speed 6.6 X
Track quality 99.9 %
Test CRC 7A3F1C60
Copy CRC 7A3F1C60
Accurately ripped (confidence 4) [BC720971] (AR v2)
Copy OK

Track 13

Filename Z:\#Torrents\Eigene\#EAC default\Lalo Schifrin - Ma Life in Music (2012) [FLAC] {4CD Boxset}\Disc 2of4\13 - Che - Che!.wav

Pre-gap length 0:00:01.30

Peak level 92.5 %
Extraction speed 7.2 X
Track quality 100.0 %
Test CRC BB0F7BB0
Copy CRC BB0F7BB0
Accurately ripped (confidence 4) [F15D3A29] (AR v2)
Copy OK

Track 14

Filename Z:\#Torrents\Eigene\#EAC default\Lalo Schifrin - Ma Life in Music (2012) [FLAC] {4CD Boxset}\Disc 2of4\14 - El Dorado (from Firebird - Jazz Meets the Symphony 3).wav

Pre-gap length 0:00:01.08

Peak level 98.8 %
Extraction speed 8.7 X
Track quality 100.0 %
Test CRC A7E6365F
Copy CRC A7E6365F
Accurately ripped (confidence 4) [1669F539] (AR v2)
Copy OK

Track 15

Filename Z:\#Torrents\Eigene\#EAC default\Lalo Schifrin - Ma Life in Music (2012) [FLAC] {4CD Boxset}\Disc 2of4\15 - Sudden Impact - Main Title.wav

Peak level 98.8 %
Extraction speed 8.1 X
Track quality 100.0 %
Test CRC 6FFF3720
Copy CRC 6FFF3720
Accurately ripped (confidence 4) [8F8E99B5] (AR v2)
Copy OK

Track 16

Filename Z:\#Torrents\Eigene\#EAC default\Lalo Schifrin - Ma Life in Music (2012) [FLAC] {4CD Boxset}\Disc 2of4\16 - The Wrath of God - Pablito - Guitarra - Padre Van Horne.wav

Peak level 98.8 %
Extraction speed 9.1 X
Track quality 100.0 %
Test CRC DFB9C8DE
Copy CRC DFB9C8DE
Accurately ripped (confidence 4) [584679DF] (AR v2)
Copy OK

Track 17

Filename Z:\#Torrents\Eigene\#EAC default\Lalo Schifrin - Ma Life in Music (2012) [FLAC] {4CD Boxset}\Disc 2of4\17 - Magnum Force - Magnum Force.wav

Peak level 92.8 %
Extraction speed 7.9 X
Track quality 100.0 %
Test CRC 3A121397
Copy CRC 3A121397
Accurately ripped (confidence 4) [ED561A2D] (AR v2)
Copy OK

Track 18

Filename Z:\#Torrents\Eigene\#EAC default\Lalo Schifrin - Ma Life in Music (2012) [FLAC] {4CD Boxset}\Disc 2of4\18 - The Amityville Horror - Main Title.wav

Pre-gap length 0:00:01.21

Peak level 67.8 %
Extraction speed 8.4 X
Track quality 100.0 %
Test CRC BA3B6F1F
Copy CRC BA3B6F1F
Accurately ripped (confidence 4) [B2A9F8DE] (AR v2)
Copy OK

Track 19

Filename Z:\#Torrents\Eigene\#EAC default\Lalo Schifrin - Ma Life in Music (2012) [FLAC] {4CD Boxset}\Disc 2of4\19 - Coogan's Bluff - Take me to Ringerman (Previously Unreleased).wav

Peak level 94.5 %
Extraction speed 9.0 X
Track quality 100.0 %
Test CRC 8A79E72C
Copy CRC 8A79E72C
Accurately ripped (confidence 4) [9E790754] (AR v2)
Copy OK

Track 20

Filename Z:\#Torrents\Eigene\#EAC default\Lalo Schifrin - Ma Life in Music (2012) [FLAC] {4CD Boxset}\Disc 2of4\20 - Return of the Marquis de Sade - Justine.wav

Pre-gap length 0:00:01.29

Peak level 98.8 %
Extraction speed 8.5 X
Track quality 99.9 %
Test CRC 770010BB
Copy CRC 770010BB
Accurately ripped (confidence 4) [8AB4ED44] (AR v2)
Copy OK

Track 21

Filename Z:\#Torrents\Eigene\#EAC default\Lalo Schifrin - Ma Life in Music (2012) [FLAC] {4CD Boxset}\Disc 2of4\21 - Mission Impossible - The Plot.wav

Peak level 98.8 %
Extraction speed 9.3 X
Track quality 100.0 %
Test CRC AE9AE501
Copy CRC AE9AE501
Accurately ripped (confidence 4) [E45E6D11] (AR v2)
Copy OK


All tracks accurately ripped

No errors occurred

End of status report

–– CUETools DB Plugin V2.1.3

[CTDB TOCID: npnDd9WpXXuT0bXTdLKjQOXN97A-] found, Submit result: npnDd9WpXXuT0bXTdLKjQOXN97A- has been confirmed
[32029d80] (1/1) Accurately ripped


==== Log checksum 08124D301D455B31A05A176BB7D8AC84E08A47ABBAA8E6487F473DBC69AD3118 ====

Exact Audio Copy V1.0 beta 3 from 29. August 2011

EAC extraction logfile from 24. October 2015, 12:30

Lalo Schifrin / My Life in Music - CD 3

Used drive : PLEXTOR BD-R PX-B950SA Adapter: 3 ID: 0

Read mode : Secure
Utilize accurate stream : Yes
Defeat audio cache : Yes
Make use of C2 pointers : No

Read offset correction : 6
Overread into Lead-In and Lead-Out : No
Fill up missing offset samples with silence : Yes
Delete leading and trailing silent blocks : No
Null samples used in CRC calculations : Yes
Used interface : Native Win32 interface for Win NT & 2000
Gap handling : Appended to previous track

Used output format : User Defined Encoder
Selected bitrate : 1024 kBit/s
Quality : High
Add ID3 tag : No
Command line compressor : C:\Program Files (x86)\Exact Audio Copy\Flac\flac.exe
Additional command line options : -8 -V -T "ARTIST=%artist%" -T "TITLE=%title%" -T "ALBUM=%albumtitle%" -T "DATE=%year%" -T "TRACKNUMBER=%tracknr%" -T "TOTALTRACKS=%numtracks%" -T "GENRE=%genre%" -T "ALBUMARTIST=%albumartist%" -T "ALBUM ARTIST=%albumartist%" -T "COMMENT=EAC Secure Mode, Test & Copy, AccurateRip, FLAC -8" %source%


TOC of the extracted CD

Track | Start | Length | Start sector | End sector
––––––––––––––––––––––––––––-
1 | 0:00.00 | 2:10.05 | 0 | 9754
2 | 2:10.05 | 2:53.36 | 9755 | 22765
3 | 5:03.41 | 3:21.11 | 22766 | 37851
4 | 8:24.52 | 3:40.14 | 37852 | 54365
5 | 12:04.66 | 1:56.57 | 54366 | 63122
6 | 14:01.48 | 2:43.71 | 63123 | 75418
7 | 16:45.44 | 4:17.42 | 75419 | 94735
8 | 21:03.11 | 3:09.34 | 94736 | 108944
9 | 24:12.45 | 5:25.67 | 108945 | 133386
10 | 29:38.37 | 2:12.69 | 133387 | 143355
11 | 31:51.31 | 4:52.39 | 143356 | 165294
12 | 36:43.70 | 2:54.11 | 165295 | 178355
13 | 39:38.06 | 2:35.67 | 178356 | 190047
14 | 42:13.73 | 6:27.73 | 190048 | 219145
15 | 48:41.71 | 3:12.23 | 219146 | 233568
16 | 51:54.19 | 3:56.62 | 233569 | 251330
17 | 55:51.06 | 10:16.35 | 251331 | 297565
18 | 66:07.41 | 3:03.29 | 297566 | 311319
19 | 69:10.70 | 2:41.28 | 311320 | 323422
20 | 71:52.23 | 2:11.74 | 323423 | 333321
21 | 74:04.22 | 2:01.51 | 333322 | 342447


Track 1

Filename Z:\#Torrents\Eigene\#EAC default\Lalo Schifrin - My Life in Music (2012) [FLAC] {4CD Boxset}\Disc 3of4\01 - The Cincinnati Kid - (Vocals - Ray Charles).wav

Pre-gap length 0:00:02.00

Peak level 89.5 %
Extraction speed 4.1 X
Track quality 100.0 %
Test CRC FE842590
Copy CRC FE842590
Accurately ripped (confidence 4) [654CE86C] (AR v2)
Copy OK

Track 2

Filename Z:\#Torrents\Eigene\#EAC default\Lalo Schifrin - My Life in Music (2012) [FLAC] {4CD Boxset}\Disc 3of4\02 - Arletta Blues (from Cool Hand Luke).wav

Peak level 55.3 %
Extraction speed 4.7 X
Track quality 100.0 %
Test CRC 24F34A14
Copy CRC 24F34A14
Accurately ripped (confidence 4) [48A85BE2] (AR v2)
Copy OK

Track 3

Filename Z:\#Torrents\Eigene\#EAC default\Lalo Schifrin - My Life in Music (2012) [FLAC] {4CD Boxset}\Disc 3of4\03 - Les Felins - Main Title.wav

Peak level 98.8 %
Extraction speed 4.1 X
Track quality 99.9 %
Test CRC ADB1EF0E
Copy CRC ADB1EF0E
Accurately ripped (confidence 4) [5D51EAA6] (AR v2)
Copy OK

Track 4

Filename Z:\#Torrents\Eigene\#EAC default\Lalo Schifrin - My Life in Music (2012) [FLAC] {4CD Boxset}\Disc 3of4\04 - The Fourth Protocol - Main Title.wav

Peak level 84.0 %
Extraction speed 5.5 X
Track quality 100.0 %
Test CRC 0AC126FE
Copy CRC 0AC126FE
Accurately ripped (confidence 4) [B723B347] (AR v2)
Copy OK

Track 5

Filename Z:\#Torrents\Eigene\#EAC default\Lalo Schifrin - My Life in Music (2012) [FLAC] {4CD Boxset}\Disc 3of4\05 - The Forces Of Darkness (from Spooks).wav

Peak level 85.2 %
Extraction speed 5.2 X
Track quality 100.0 %
Test CRC D8849036
Copy CRC D8849036
Accurately ripped (confidence 4) [D1A016F7] (AR v2)
Copy OK

Track 6

Filename Z:\#Torrents\Eigene\#EAC default\Lalo Schifrin - My Life in Music (2012) [FLAC] {4CD Boxset}\Disc 3of4\06 - Finding McB (from The Beguilded - Previously Unreleased).wav

Pre-gap length 0:00:02.12

Peak level 98.8 %
Extraction speed 5.8 X
Track quality 100.0 %
Test CRC 2CE80D81
Copy CRC 2CE80D81
Accurately ripped (confidence 4) [DE061308] (AR v2)
Copy OK

Track 7

Filename Z:\#Torrents\Eigene\#EAC default\Lalo Schifrin - My Life in Music (2012) [FLAC] {4CD Boxset}\Disc 3of4\07 - Theme from Mannix.wav

Pre-gap length 0:00:01.63

Peak level 98.2 %
Extraction speed 6.5 X
Track quality 100.0 %
Test CRC 67862BDD
Copy CRC 67862BDD
Accurately ripped (confidence 4) [26EA1D0B] (AR v2)
Copy OK

Track 8

Filename Z:\#Torrents\Eigene\#EAC default\Lalo Schifrin - My Life in Music (2012) [FLAC] {4CD Boxset}\Disc 3of4\08 - Ice Pick Mike (from Bullitt).wav

Peak level 90.3 %
Extraction speed 6.5 X
Track quality 100.0 %
Test CRC F7192CC7
Copy CRC F7192CC7
Accurately ripped (confidence 4) [064D6FC2] (AR v2)
Copy OK

Track 9

Filename Z:\#Torrents\Eigene\#EAC default\Lalo Schifrin - My Life in Music (2012) [FLAC] {4CD Boxset}\Disc 3of4\09 - Bach to the Blues (from Return of the Marquis de Sade).wav

Peak level 91.0 %
Extraction speed 7.3 X
Track quality 100.0 %
Test CRC A462DC3D
Copy CRC A462DC3D
Accurately ripped (confidence 4) [0832E207] (AR v2)
Copy OK

Track 10

Filename Z:\#Torrents\Eigene\#EAC default\Lalo Schifrin - My Life in Music (2012) [FLAC] {4CD Boxset}\Disc 3of4\10 - Magnum Force - Main Title.wav

Peak level 98.8 %
Extraction speed 6.7 X
Track quality 100.0 %
Test CRC 9A920946
Copy CRC 9A920946
Accurately ripped (confidence 4) [310130B0] (AR v2)
Copy OK

Track 11

Filename Z:\#Torrents\Eigene\#EAC default\Lalo Schifrin - My Life in Music (2012) [FLAC] {4CD Boxset}\Disc 3of4\11 - Tango del Atardecer (from Letters from Argentina).wav

Pre-gap length 0:00:01.13

Peak level 83.6 %
Extraction speed 6.6 X
Track quality 99.9 %
Test CRC 0041ACE4
Copy CRC 0041ACE4
Accurately ripped (confidence 3) [EAC6DFB7] (AR v2)
Copy OK

Track 12

Filename Z:\#Torrents\Eigene\#EAC default\Lalo Schifrin - My Life in Music (2012) [FLAC] {4CD Boxset}\Disc 3of4\12 - Chama (fom Joe Kidd - Previously Unreleased).wav

Pre-gap length 0:00:01.06

Peak level 97.6 %
Extraction speed 7.4 X
Track quality 100.0 %
Test CRC 8C27B98D
Copy CRC 8C27B98D
Accurately ripped (confidence 3) [65B27F6C] (AR v2)
Copy OK

Track 13

Filename Z:\#Torrents\Eigene\#EAC default\Lalo Schifrin - My Life in Music (2012) [FLAC] {4CD Boxset}\Disc 3of4\13 - Movement from String Quartette (from Rollercoaster).wav

Pre-gap length 0:00:01.34

Peak level 52.8 %
Extraction speed 7.4 X
Track quality 100.0 %
Test CRC 3B17751E
Copy CRC 3B17751E
Accurately ripped (confidence 3) [FE9B433F] (AR v2)
Copy OK

Track 14

Filename Z:\#Torrents\Eigene\#EAC default\Lalo Schifrin - My Life in Music (2012) [FLAC] {4CD Boxset}\Disc 3of4\14 - Summer Dance (from Invocations - Jazz Meets The Symphony 7).wav

Pre-gap length 0:00:01.10

Peak level 98.8 %
Extraction speed 8.7 X
Track quality 100.0 %
Test CRC 9EA59F4E
Copy CRC 9EA59F4E
Accurately ripped (confidence 4) [433A6754] (AR v2)
Copy OK

Track 15

Filename Z:\#Torrents\Eigene\#EAC default\Lalo Schifrin - My Life in Music (2012) [FLAC] {4CD Boxset}\Disc 3of4\15 - My Lord Don Quixote - End Title (Don Quixote).wav

Pre-gap length 0:00:01.66

Peak level 98.8 %
Extraction speed 8.3 X
Track quality 100.0 %
Test CRC C6392F8F
Copy CRC C6392F8F
Accurately ripped (confidence 4) [B2B7CD0B] (AR v2)
Copy OK

Track 16

Filename Z:\#Torrents\Eigene\#EAC default\Lalo Schifrin - My Life in Music (2012) [FLAC] {4CD Boxset}\Disc 3of4\16 - Rage - Main Title (Previously Unreleased).wav

Peak level 98.8 %
Extraction speed 8.8 X
Track quality 100.0 %
Test CRC D5254DE3
Copy CRC D5254DE3
Accurately ripped (confidence 4) [92DBB0A3] (AR v2)
Copy OK

Track 17

Filename Z:\#Torrents\Eigene\#EAC default\Lalo Schifrin - My Life in Music (2012) [FLAC] {4CD Boxset}\Disc 3of4\17 - Let Us Leave Some Songs (from Cantos Aztecas).wav

Pre-gap length 0:00:01.59

Peak level 96.2 %
Extraction speed 10.0 X
Track quality 100.0 %
Test CRC 21642873
Copy CRC 21642873
Accurately ripped (confidence 4) [52F27E6B] (AR v2)
Copy OK

Track 18

Filename Z:\#Torrents\Eigene\#EAC default\Lalo Schifrin - My Life in Music (2012) [FLAC] {4CD Boxset}\Disc 3of4\18 - Tema D'Amore (from La Pelle).wav

Pre-gap length 0:00:01.03

Peak level 91.7 %
Extraction speed 9.1 X
Track quality 100.0 %
Test CRC 3609CFFB
Copy CRC 3609CFFB
Accurately ripped (confidence 4) [AAE966C2] (AR v2)
Copy OK

Track 19

Filename Z:\#Torrents\Eigene\#EAC default\Lalo Schifrin - My Life in Music (2012) [FLAC] {4CD Boxset}\Disc 3of4\19 - Last of the Independents (from Charley Varrick - Previously Unreleased).wav

Peak level 84.9 %
Extraction speed 9.0 X
Track quality 100.0 %
Test CRC 203B8600
Copy CRC 203B8600
Accurately ripped (confidence 4) [0727B6D6] (AR v2)
Copy OK

Track 20

Filename Z:\#Torrents\Eigene\#EAC default\Lalo Schifrin - My Life in Music (2012) [FLAC] {4CD Boxset}\Disc 3of4\20 - Robbery Suspect (from Sudden Impact).wav

Peak level 78.5 %
Extraction speed 8.9 X
Track quality 100.0 %
Test CRC 468C48B2
Copy CRC 468C48B2
Accurately ripped (confidence 4) [51A1788C] (AR v2)
Copy OK

Track 21

Filename Z:\#Torrents\Eigene\#EAC default\Lalo Schifrin - My Life in Music (2012) [FLAC] {4CD Boxset}\Disc 3of4\21 - Rush Hour - Main Title.wav

Peak level 82.6 %
Extraction speed 8.7 X
Track quality 100.0 %
Test CRC A1618289
Copy CRC A1618289
Accurately ripped (confidence 4) [ED44FD9E] (AR v2)
Copy OK


All tracks accurately ripped

No errors occurred

End of status report

–– CUETools DB Plugin V2.1.3

[CTDB TOCID: z8ym.UqbItLqMlxqQ.tAn2Ch3U8-] found, Submit result: z8ym.UqbItLqMlxqQ.tAn2Ch3U8- has been confirmed
[ae04b5f6] (1/1) Accurately ripped


==== Log checksum 0B6E6A091D5A6B83DC70E032CB8AB9931D7259283FFC84CE425315A96EF9E0B8 ====

Exact Audio Copy V1.0 beta 3 from 29. August 2011

EAC extraction logfile from 24. October 2015, 13:21

Lalo Schifrin / My Life in Music - CD 4

Used drive : PLEXTOR BD-R PX-B950SA Adapter: 3 ID: 0

Read mode : Secure
Utilize accurate stream : Yes
Defeat audio cache : Yes
Make use of C2 pointers : No

Read offset correction : 6
Overread into Lead-In and Lead-Out : No
Fill up missing offset samples with silence : Yes
Delete leading and trailing silent blocks : No
Null samples used in CRC calculations : Yes
Used interface : Native Win32 interface for Win NT & 2000
Gap handling : Appended to previous track

Used output format : User Defined Encoder
Selected bitrate : 1024 kBit/s
Quality : High
Add ID3 tag : No
Command line compressor : C:\Program Files (x86)\Exact Audio Copy\Flac\flac.exe
Additional command line options : -8 -V -T "ARTIST=%artist%" -T "TITLE=%title%" -T "ALBUM=%albumtitle%" -T "DATE=%year%" -T "TRACKNUMBER=%tracknr%" -T "TOTALTRACKS=%numtracks%" -T "GENRE=%genre%" -T "ALBUMARTIST=%albumartist%" -T "ALBUM ARTIST=%albumartist%" -T "COMMENT=EAC Secure Mode, Test & Copy, AccurateRip, FLAC -8" %source%


TOC of the extracted CD

Track | Start | Length | Start sector | End sector
––––––––––––––––––––––––––––-
1 | 0:00.00 | 5:53.70 | 0 | 26544
2 | 5:53.70 | 5:12.59 | 26545 | 50003
3 | 11:06.54 | 5:22.48 | 50004 | 74201
4 | 16:29.27 | 6:28.67 | 74202 | 103368
5 | 22:58.19 | 10:51.25 | 103369 | 152218
6 | 33:49.44 | 7:27.26 | 152219 | 185769
7 | 41:16.70 | 3:19.63 | 185770 | 200757
8 | 44:36.58 | 4:51.30 | 200758 | 222612
9 | 49:28.13 | 5:15.41 | 222613 | 246278
10 | 54:43.54 | 14:37.12 | 246279 | 312065
11 | 69:20.66 | 4:22.20 | 312066 | 331735


Track 1

Filename Z:\#Torrents\Eigene\#EAC default\Lalo Schifrin - My Life in Music (2012) [FLAC] {4CD Boxset}\Disc 4of4\01 - Concorde - Airport 79 (Suite from Le Concert a Paris).wav

Pre-gap length 0:00:02.00

Peak level 98.8 %
Extraction speed 2.2 X
Track quality 100.0 %
Test CRC ED9B6D83
Copy CRC ED9B6D83
Accurately ripped (confidence 4) [539C7884] (AR v2)
Copy OK

Track 2

Filename Z:\#Torrents\Eigene\#EAC default\Lalo Schifrin - My Life in Music (2012) [FLAC] {4CD Boxset}\Disc 4of4\02 - Paraphrase (from Kaleidoscope - Jazz Meets the Symphony 6).wav

Peak level 97.0 %
Extraction speed 2.5 X
Track quality 100.0 %
Test CRC 1F71A85D
Copy CRC 1F71A85D
Accurately ripped (confidence 4) [E6B146D5] (AR v2)
Copy OK

Track 3

Filename Z:\#Torrents\Eigene\#EAC default\Lalo Schifrin - My Life in Music (2012) [FLAC] {4CD Boxset}\Disc 4of4\03 - Panamericana (from Gillespiana).wav

Peak level 82.4 %
Extraction speed 2.6 X
Track quality 100.0 %
Test CRC B0E57524
Copy CRC B0E57524
Accurately ripped (confidence 4) [AD233307] (AR v2)
Copy OK

Track 4

Filename Z:\#Torrents\Eigene\#EAC default\Lalo Schifrin - My Life in Music (2012) [FLAC] {4CD Boxset}\Disc 4of4\04 - Once a Thief (from Jazz Goes to Hollywood).wav

Peak level 94.6 %
Extraction speed 3.0 X
Track quality 100.0 %
Test CRC ED93FAB8
Copy CRC ED93FAB8
Accurately ripped (confidence 4) [16C52D82] (AR v2)
Copy OK

Track 5

Filename Z:\#Torrents\Eigene\#EAC default\Lalo Schifrin - My Life in Music (2012) [FLAC] {4CD Boxset}\Disc 4of4\05 - Resonances (from Esperanto).wav

Peak level 95.0 %
Extraction speed 3.1 X
Track quality 99.9 %
Test CRC C9065C50
Copy CRC C9065C50
Accurately ripped (confidence 3) [0B1EFA4F] (AR v2)
Copy OK

Track 6

Filename Z:\#Torrents\Eigene\#EAC default\Lalo Schifrin - My Life in Music (2012) [FLAC] {4CD Boxset}\Disc 4of4\06 - Montuno (from Latin Jazz Suite).wav

Peak level 92.0 %
Extraction speed 3.7 X
Track quality 100.0 %
Test CRC 4B7EC2F5
Copy CRC 4B7EC2F5
Accurately ripped (confidence 3) [80C8ECFD] (AR v2)
Copy OK

Track 7

Filename Z:\#Torrents\Eigene\#EAC default\Lalo Schifrin - My Life in Music (2012) [FLAC] {4CD Boxset}\Disc 4of4\07 - People Alone - The Competition (from Jazz Goes to Hollywood).wav

Peak level 87.2 %
Extraction speed 2.5 X
Track quality 99.9 %
Test CRC 6557EBDB
Copy CRC 6557EBDB
Accurately ripped (confidence 4) [24E007E2] (AR v2)
Copy OK

Track 8

Filename Z:\#Torrents\Eigene\#EAC default\Lalo Schifrin - My Life in Music (2012) [FLAC] {4CD Boxset}\Disc 4of4\08 - Intersections (from Intersections - Jazz Meets the Symphony 5).wav

Peak level 73.7 %
Extraction speed 3.9 X
Track quality 100.0 %
Test CRC 5137393C
Copy CRC 5137393C
Accurately ripped (confidence 4) [62DEA8B9] (AR v2)
Copy OK

Track 9

Filename Z:\#Torrents\Eigene\#EAC default\Lalo Schifrin - My Life in Music (2012) [FLAC] {4CD Boxset}\Disc 4of4\09 - Agnus Dei (from Jazz Mass).wav

Pre-gap length 0:00:01.04

Peak level 52.4 %
Extraction speed 4.1 X
Track quality 100.0 %
Test CRC 2350F8A1
Copy CRC 2350F8A1
Accurately ripped (confidence 3) [3FFADD21] (AR v2)
Copy OK

Track 10

Filename Z:\#Torrents\Eigene\#EAC default\Lalo Schifrin - My Life in Music (2012) [FLAC] {4CD Boxset}\Disc 4of4\10 - Toccata (from Gillespiana).wav

Pre-gap length 0:00:03.33

Peak level 87.3 %
Extraction speed 4.6 X
Track quality 100.0 %
Test CRC 89B784E1
Copy CRC 89B784E1
Accurately ripped (confidence 4) [6C157072] (AR v2)
Copy OK

Track 11

Filename Z:\#Torrents\Eigene\#EAC default\Lalo Schifrin - My Life in Music (2012) [FLAC] {4CD Boxset}\Disc 4of4\11 - Mission Impossible (from Jazz Goes to Hollywood).wav

Peak level 89.2 %
Extraction speed 3.3 X
Track quality 99.9 %
Test CRC D70F5F5C
Copy CRC D70F5F5C
Accurately ripped (confidence 3) [481F7FE4] (AR v2)
Copy OK


All tracks accurately ripped

No errors occurred

End of status report

–– CUETools DB Plugin V2.1.3

[CTDB TOCID: w2K3or3ROoiUQit0MvQgrwJfMf0-] found, Submit result: w2K3or3ROoiUQit0MvQgrwJfMf0- has been confirmed
[5add39b9] (1/1) Accurately ripped


==== Log checksum 14DCF84604DF124830D5D318C89C69C34C5C103F135808EE258242DAA4534177 ====


Lalo Schifrin - My Life in Music (2012) {4CD Boxset Aleph Records 047}


All thanks goes to the original releaser!

see also:
Lalo Schifrin - The Bossa Nova & Latin Albums (2015) {2CDs Malanga Music MM828}