Subcategories
Tags
Language
Tags

Layla Zoe - Retrospective Tour 2019 (2020)

Posted By: delpotro
Layla Zoe - Retrospective Tour 2019 (2020)

Layla Zoe - Retrospective Tour 2019 (2020)
EAC Rip | FLAC (tracks+log+.cue) - 703 Mb | MP3 CBR 320 kbps - 263 Mb | Covers included | 01:47:32
Blues Rock, Female Vocal | Label: Self-Released

With a new sound, a new band, a songlist spanning her discography, and that huge fiery “award-winning” voice Layla Zoe hit the road in November of 2019 on her long awaited “Retrospective Tour.” Performing 18 concerts in 6 different European countries in 24 days, Layla won the hearts of blues, rock and gospel fans young and old, with her tender and raw vocal stylings. This new double live album recorded in Bremen, Germany during the “Retrospective Tour 2019” takes you on a musical journey and reminds you of why Layla Zoe is considered one of the best in the business.
Tracklist:
1. She Didn't Believe (Live) (05:42)
2. Leave You for Good (Live) (07:52)
3. Someday (Live) (06:34)
4. Don't Wanna Hurt Nobody (Live) (06:46)
5. Never Met a Man Like You (Live) (11:23)
6. Little Sister (Live) (08:52)
7. Black Oil (Live) (08:20)
8. Backstage Queen (Live) (05:52)
9. Weakness (Live) (06:20)
10. Bitch with the Head of Red (Live) (08:07)
11. Ghost Train (Live) (06:48)
12. Hippie Chick (Live) (12:34)
13. I Shall Be Released (Live) (12:19)

Exact Audio Copy V1.3 from 2. September 2016

EAC extraction logfile from 15. June 2020, 17:01

Layla Zoe / Retrospective Tour 2019

Used drive : PLEXTOR PX-891SAF Adapter: 1 ID: 0

Read mode : Secure
Utilize accurate stream : Yes
Defeat audio cache : Yes
Make use of C2 pointers : No

Read offset correction : 6
Overread into Lead-In and Lead-Out : No
Fill up missing offset samples with silence : Yes
Delete leading and trailing silent blocks : No
Null samples used in CRC calculations : Yes
Used interface : Native Win32 interface for Win NT & 2000
Gap handling : Appended to previous track

Used output format : User Defined Encoder
Selected bitrate : 1024 kBit/s
Quality : High
Add ID3 tag : No
Command line compressor : C:\Program Files (x86)\Exact Audio Copy\Flac\flac.exe
Additional command line options : -8 -V -T "ARTIST=%artist%" -T "TITLE=%title%" -T "ALBUM=%albumtitle%" -T "DATE=%year%" -T "TRACKNUMBER=%tracknr%" -T "GENRE=%genre%" -T "PERFORMER=%albuminterpret%" -T "COMPOSER=%composer%" %haslyrics%–tag-from-file=LYRICS="%lyricsfile%"%haslyrics% -T "ALBUMARTIST=%albumartist%" -T "DISCNUMBER=%cdnumber%" -T "TOTALDISCS=%totalcds%" -T "TOTALTRACKS=%numtracks%" -T "COMMENT=%comment%" %source% -o %dest%


TOC of the extracted CD

Track | Start | Length | Start sector | End sector
––––––––––––––––––––––––––––-
1 | 0:00.00 | 5:40.07 | 0 | 25506
2 | 5:40.07 | 7:52.67 | 25507 | 60973
3 | 13:32.74 | 6:34.02 | 60974 | 90525
4 | 20:07.01 | 6:46.08 | 90526 | 120983
5 | 26:53.09 | 11:23.73 | 120984 | 172281
6 | 38:17.07 | 8:52.36 | 172282 | 212217
7 | 47:09.43 | 8:20.69 | 212218 | 249786


Track 1

Filename D:\#cdr\#wav+flac\#new\Layla Zoe - Retrospective Tour 2019\cd 1\01. Layla Zoe - She Didn't Believe.wav

Pre-gap length 0:00:02.00

Peak level 83.6 %
Extraction speed 5.4 X
Track quality 100.0 %
Test CRC 0C6D4741
Copy CRC 0C6D4741
Accurately ripped (confidence 1) [28F13412] (AR v1)
Copy OK

Track 2

Filename D:\#cdr\#wav+flac\#new\Layla Zoe - Retrospective Tour 2019\cd 1\02. Layla Zoe - Leave You For Good.wav

Peak level 95.0 %
Extraction speed 6.5 X
Track quality 100.0 %
Test CRC 12B9F566
Copy CRC 12B9F566
Accurately ripped (confidence 1) [12CE84AF] (AR v1)
Copy OK

Track 3

Filename D:\#cdr\#wav+flac\#new\Layla Zoe - Retrospective Tour 2019\cd 1\03. Layla Zoe - Someday.wav

Peak level 100.0 %
Extraction speed 7.2 X
Track quality 100.0 %
Test CRC 6DB0E225
Copy CRC 6DB0E225
Accurately ripped (confidence 1) [F6F4485A] (AR v1)
Copy OK

Track 4

Filename D:\#cdr\#wav+flac\#new\Layla Zoe - Retrospective Tour 2019\cd 1\04. Layla Zoe - Don't Wanna Hurt Nobody.wav

Peak level 86.6 %
Extraction speed 7.9 X
Track quality 100.0 %
Test CRC 0648A21E
Copy CRC 0648A21E
Accurately ripped (confidence 1) [FD0105A7] (AR v1)
Copy OK

Track 5

Filename D:\#cdr\#wav+flac\#new\Layla Zoe - Retrospective Tour 2019\cd 1\05. Layla Zoe - Never Met A Man Like You.wav

Peak level 99.6 %
Extraction speed 9.0 X
Track quality 100.0 %
Test CRC D6263EBC
Copy CRC D6263EBC
Accurately ripped (confidence 1) [B070BF81] (AR v1)
Copy OK

Track 6

Filename D:\#cdr\#wav+flac\#new\Layla Zoe - Retrospective Tour 2019\cd 1\06. Layla Zoe - Little Sister.wav

Peak level 100.0 %
Extraction speed 8.8 X
Track quality 99.9 %
Test CRC 861F2CD7
Copy CRC 861F2CD7
Accurately ripped (confidence 1) [2F6A888E] (AR v1)
Copy OK

Track 7

Filename D:\#cdr\#wav+flac\#new\Layla Zoe - Retrospective Tour 2019\cd 1\07. Layla Zoe - Black Oil.wav

Peak level 93.7 %
Extraction speed 10.2 X
Track quality 100.0 %
Test CRC 247B758A
Copy CRC 247B758A
Cannot be verified as accurate (confidence 1) [2D882998], AccurateRip returned [4BDAE59C] (AR v2)
Copy OK


6 track(s) accurately ripped
1 track(s) could not be verified as accurate

Some tracks could not be verified as accurate

No errors occurred

End of status report

–– CUETools DB Plugin V2.1.6

[CTDB TOCID: EBlpd8V2IEo_eF2GeialWFeCIqY-] found
Submit result: EBlpd8V2IEo_eF2GeialWFeCIqY- has been confirmed
Track | CTDB Status
1 | (6/6) Accurately ripped
2 | (6/6) Accurately ripped
3 | (6/6) Accurately ripped
4 | (6/6) Accurately ripped
5 | (6/6) Accurately ripped
6 | (6/6) Accurately ripped
7 | (6/6) Accurately ripped


==== Log checksum 470F633AE92D07B3F22632E2EE44E8DD90C6933A8D1C3AFDBDAE82829B3930A4 ====

––––––––––––––––––––––––––––––

Exact Audio Copy V1.3 from 2. September 2016

EAC extraction logfile from 15. June 2020, 17:01

Layla Zoe / Retrospective Tour 2019

Used drive : PLEXTOR PX-891SAF Adapter: 1 ID: 0

Read mode : Secure
Utilize accurate stream : Yes
Defeat audio cache : Yes
Make use of C2 pointers : No

Read offset correction : 6
Overread into Lead-In and Lead-Out : No
Fill up missing offset samples with silence : Yes
Delete leading and trailing silent blocks : No
Null samples used in CRC calculations : Yes
Used interface : Native Win32 interface for Win NT & 2000
Gap handling : Appended to previous track

Used output format : User Defined Encoder
Selected bitrate : 1024 kBit/s
Quality : High
Add ID3 tag : No
Command line compressor : C:\Program Files (x86)\Exact Audio Copy\Flac\flac.exe
Additional command line options : -8 -V -T "ARTIST=%artist%" -T "TITLE=%title%" -T "ALBUM=%albumtitle%" -T "DATE=%year%" -T "TRACKNUMBER=%tracknr%" -T "GENRE=%genre%" -T "PERFORMER=%albuminterpret%" -T "COMPOSER=%composer%" %haslyrics%–tag-from-file=LYRICS="%lyricsfile%"%haslyrics% -T "ALBUMARTIST=%albumartist%" -T "DISCNUMBER=%cdnumber%" -T "TOTALDISCS=%totalcds%" -T "TOTALTRACKS=%numtracks%" -T "COMMENT=%comment%" %source% -o %dest%


TOC of the extracted CD

Track | Start | Length | Start sector | End sector
––––––––––––––––––––––––––––-
1 | 0:00.00 | 5:40.07 | 0 | 25506
2 | 5:40.07 | 7:52.67 | 25507 | 60973
3 | 13:32.74 | 6:34.02 | 60974 | 90525
4 | 20:07.01 | 6:46.08 | 90526 | 120983
5 | 26:53.09 | 11:23.73 | 120984 | 172281
6 | 38:17.07 | 8:52.36 | 172282 | 212217
7 | 47:09.43 | 8:20.69 | 212218 | 249786


Track 1

Filename D:\#cdr\#wav+flac\#new\Layla Zoe - Retrospective Tour 2019\cd 1\01. Layla Zoe - She Didn't Believe.wav

Pre-gap length 0:00:02.00

Peak level 83.6 %
Extraction speed 5.4 X
Track quality 100.0 %
Test CRC 0C6D4741
Copy CRC 0C6D4741
Accurately ripped (confidence 1) [28F13412] (AR v1)
Copy OK

Track 2

Filename D:\#cdr\#wav+flac\#new\Layla Zoe - Retrospective Tour 2019\cd 1\02. Layla Zoe - Leave You For Good.wav

Peak level 95.0 %
Extraction speed 6.5 X
Track quality 100.0 %
Test CRC 12B9F566
Copy CRC 12B9F566
Accurately ripped (confidence 1) [12CE84AF] (AR v1)
Copy OK

Track 3

Filename D:\#cdr\#wav+flac\#new\Layla Zoe - Retrospective Tour 2019\cd 1\03. Layla Zoe - Someday.wav

Peak level 100.0 %
Extraction speed 7.2 X
Track quality 100.0 %
Test CRC 6DB0E225
Copy CRC 6DB0E225
Accurately ripped (confidence 1) [F6F4485A] (AR v1)
Copy OK

Track 4

Filename D:\#cdr\#wav+flac\#new\Layla Zoe - Retrospective Tour 2019\cd 1\04. Layla Zoe - Don't Wanna Hurt Nobody.wav

Peak level 86.6 %
Extraction speed 7.9 X
Track quality 100.0 %
Test CRC 0648A21E
Copy CRC 0648A21E
Accurately ripped (confidence 1) [FD0105A7] (AR v1)
Copy OK

Track 5

Filename D:\#cdr\#wav+flac\#new\Layla Zoe - Retrospective Tour 2019\cd 1\05. Layla Zoe - Never Met A Man Like You.wav

Peak level 99.6 %
Extraction speed 9.0 X
Track quality 100.0 %
Test CRC D6263EBC
Copy CRC D6263EBC
Accurately ripped (confidence 1) [B070BF81] (AR v1)
Copy OK

Track 6

Filename D:\#cdr\#wav+flac\#new\Layla Zoe - Retrospective Tour 2019\cd 1\06. Layla Zoe - Little Sister.wav

Peak level 100.0 %
Extraction speed 8.8 X
Track quality 99.9 %
Test CRC 861F2CD7
Copy CRC 861F2CD7
Accurately ripped (confidence 1) [2F6A888E] (AR v1)
Copy OK

Track 7

Filename D:\#cdr\#wav+flac\#new\Layla Zoe - Retrospective Tour 2019\cd 1\07. Layla Zoe - Black Oil.wav

Peak level 93.7 %
Extraction speed 10.2 X
Track quality 100.0 %
Test CRC 247B758A
Copy CRC 247B758A
Cannot be verified as accurate (confidence 1) [2D882998], AccurateRip returned [4BDAE59C] (AR v2)
Copy OK


6 track(s) accurately ripped
1 track(s) could not be verified as accurate

Some tracks could not be verified as accurate

No errors occurred

End of status report

–– CUETools DB Plugin V2.1.6

[CTDB TOCID: EBlpd8V2IEo_eF2GeialWFeCIqY-] found
Submit result: EBlpd8V2IEo_eF2GeialWFeCIqY- has been confirmed
Track | CTDB Status
1 | (6/6) Accurately ripped
2 | (6/6) Accurately ripped
3 | (6/6) Accurately ripped
4 | (6/6) Accurately ripped
5 | (6/6) Accurately ripped
6 | (6/6) Accurately ripped
7 | (6/6) Accurately ripped


==== Log checksum 470F633AE92D07B3F22632E2EE44E8DD90C6933A8D1C3AFDBDAE82829B3930A4 ====
Exact Audio Copy V1.3 from 2. September 2016

EAC extraction logfile from 15. June 2020, 17:36

Layla Zoe / Retrospective Tour 2019

Used drive : PLEXTOR PX-891SAF Adapter: 1 ID: 0

Read mode : Secure
Utilize accurate stream : Yes
Defeat audio cache : Yes
Make use of C2 pointers : No

Read offset correction : 6
Overread into Lead-In and Lead-Out : No
Fill up missing offset samples with silence : Yes
Delete leading and trailing silent blocks : No
Null samples used in CRC calculations : Yes
Used interface : Native Win32 interface for Win NT & 2000
Gap handling : Appended to previous track

Used output format : User Defined Encoder
Selected bitrate : 1024 kBit/s
Quality : High
Add ID3 tag : No
Command line compressor : C:\Program Files (x86)\Exact Audio Copy\Flac\flac.exe
Additional command line options : -8 -V -T "ARTIST=%artist%" -T "TITLE=%title%" -T "ALBUM=%albumtitle%" -T "DATE=%year%" -T "TRACKNUMBER=%tracknr%" -T "GENRE=%genre%" -T "PERFORMER=%albuminterpret%" -T "COMPOSER=%composer%" %haslyrics%–tag-from-file=LYRICS="%lyricsfile%"%haslyrics% -T "ALBUMARTIST=%albumartist%" -T "DISCNUMBER=%cdnumber%" -T "TOTALDISCS=%totalcds%" -T "TOTALTRACKS=%numtracks%" -T "COMMENT=%comment%" %source% -o %dest%


TOC of the extracted CD

Track | Start | Length | Start sector | End sector
––––––––––––––––––––––––––––-
1 | 0:00.00 | 5:50.68 | 0 | 26317
2 | 5:50.68 | 6:20.26 | 26318 | 54843
3 | 12:11.19 | 8:07.56 | 54844 | 91424
4 | 20:19.00 | 6:48.10 | 91425 | 122034
5 | 27:07.10 | 12:34.53 | 122035 | 178637
6 | 39:41.63 | 12:19.52 | 178638 | 234114


Track 1

Filename D:\#cdr\#wav+flac\#new\Layla Zoe - Retrospective Tour 2019\cd 2\01. Layla Zoe - Backstage Queen.wav

Pre-gap length 0:00:02.00

Peak level 98.5 %
Extraction speed 4.9 X
Track quality 99.9 %
Test CRC 8F9BC5C8
Copy CRC 8F9BC5C8
Accurately ripped (confidence 1) [59EAA9DD] (AR v1)
Copy OK

Track 2

Filename D:\#cdr\#wav+flac\#new\Layla Zoe - Retrospective Tour 2019\cd 2\02. Layla Zoe - Weakness.wav

Peak level 99.9 %
Extraction speed 6.3 X
Track quality 100.0 %
Test CRC 55A11B95
Copy CRC 55A11B95
Accurately ripped (confidence 1) [78018B2B] (AR v1)
Copy OK

Track 3

Filename D:\#cdr\#wav+flac\#new\Layla Zoe - Retrospective Tour 2019\cd 2\03. Layla Zoe - Bitch With The Head Of Red.wav

Peak level 95.2 %
Extraction speed 7.3 X
Track quality 100.0 %
Test CRC 1E082FD2
Copy CRC 1E082FD2
Accurately ripped (confidence 1) [622B0CFE] (AR v1)
Copy OK

Track 4

Filename D:\#cdr\#wav+flac\#new\Layla Zoe - Retrospective Tour 2019\cd 2\04. Layla Zoe - Ghost Train.wav

Peak level 100.0 %
Extraction speed 8.0 X
Track quality 100.0 %
Test CRC 44A6D341
Copy CRC 44A6D341
Accurately ripped (confidence 1) [2FEE8B04] (AR v1)
Copy OK

Track 5

Filename D:\#cdr\#wav+flac\#new\Layla Zoe - Retrospective Tour 2019\cd 2\05. Layla Zoe - Hippie Chick.wav

Peak level 96.1 %
Extraction speed 9.1 X
Track quality 100.0 %
Test CRC C1BE5E32
Copy CRC C1BE5E32
Accurately ripped (confidence 1) [D128DB3C] (AR v1)
Copy OK

Track 6

Filename D:\#cdr\#wav+flac\#new\Layla Zoe - Retrospective Tour 2019\cd 2\06. Layla Zoe - I Shall Be Released.wav

Peak level 90.7 %
Extraction speed 9.3 X
Track quality 99.9 %
Test CRC FC686ED9
Copy CRC FC686ED9
Cannot be verified as accurate (confidence 1) [59C52646], AccurateRip returned [D5D842F2] (AR v2)
Copy OK


5 track(s) accurately ripped
1 track(s) could not be verified as accurate

Some tracks could not be verified as accurate

No errors occurred

End of status report

–– CUETools DB Plugin V2.1.6

[CTDB TOCID: PS.tqwWDFSFDvAioML69I8x3KoM-] found
Submit result: already submitted
Track | CTDB Status
1 | (7/7) Accurately ripped
2 | (7/7) Accurately ripped
3 | (7/7) Accurately ripped
4 | (7/7) Accurately ripped
5 | (7/7) Accurately ripped
6 | (7/7) Accurately ripped


==== Log checksum 909B756C7EEAFF1764327B8A042D8DC625779538F2340A3C2B2D84266985851C ====

––––––––––––––––––––––––––––––

Exact Audio Copy V1.3 from 2. September 2016

EAC extraction logfile from 15. June 2020, 17:36

Layla Zoe / Retrospective Tour 2019

Used drive : PLEXTOR PX-891SAF Adapter: 1 ID: 0

Read mode : Secure
Utilize accurate stream : Yes
Defeat audio cache : Yes
Make use of C2 pointers : No

Read offset correction : 6
Overread into Lead-In and Lead-Out : No
Fill up missing offset samples with silence : Yes
Delete leading and trailing silent blocks : No
Null samples used in CRC calculations : Yes
Used interface : Native Win32 interface for Win NT & 2000
Gap handling : Appended to previous track

Used output format : User Defined Encoder
Selected bitrate : 1024 kBit/s
Quality : High
Add ID3 tag : No
Command line compressor : C:\Program Files (x86)\Exact Audio Copy\Flac\flac.exe
Additional command line options : -8 -V -T "ARTIST=%artist%" -T "TITLE=%title%" -T "ALBUM=%albumtitle%" -T "DATE=%year%" -T "TRACKNUMBER=%tracknr%" -T "GENRE=%genre%" -T "PERFORMER=%albuminterpret%" -T "COMPOSER=%composer%" %haslyrics%–tag-from-file=LYRICS="%lyricsfile%"%haslyrics% -T "ALBUMARTIST=%albumartist%" -T "DISCNUMBER=%cdnumber%" -T "TOTALDISCS=%totalcds%" -T "TOTALTRACKS=%numtracks%" -T "COMMENT=%comment%" %source% -o %dest%


TOC of the extracted CD

Track | Start | Length | Start sector | End sector
––––––––––––––––––––––––––––-
1 | 0:00.00 | 5:50.68 | 0 | 26317
2 | 5:50.68 | 6:20.26 | 26318 | 54843
3 | 12:11.19 | 8:07.56 | 54844 | 91424
4 | 20:19.00 | 6:48.10 | 91425 | 122034
5 | 27:07.10 | 12:34.53 | 122035 | 178637
6 | 39:41.63 | 12:19.52 | 178638 | 234114


Track 1

Filename D:\#cdr\#wav+flac\#new\Layla Zoe - Retrospective Tour 2019\cd 2\01. Layla Zoe - Backstage Queen.wav

Pre-gap length 0:00:02.00

Peak level 98.5 %
Extraction speed 4.9 X
Track quality 99.9 %
Test CRC 8F9BC5C8
Copy CRC 8F9BC5C8
Accurately ripped (confidence 1) [59EAA9DD] (AR v1)
Copy OK

Track 2

Filename D:\#cdr\#wav+flac\#new\Layla Zoe - Retrospective Tour 2019\cd 2\02. Layla Zoe - Weakness.wav

Peak level 99.9 %
Extraction speed 6.3 X
Track quality 100.0 %
Test CRC 55A11B95
Copy CRC 55A11B95
Accurately ripped (confidence 1) [78018B2B] (AR v1)
Copy OK

Track 3

Filename D:\#cdr\#wav+flac\#new\Layla Zoe - Retrospective Tour 2019\cd 2\03. Layla Zoe - Bitch With The Head Of Red.wav

Peak level 95.2 %
Extraction speed 7.3 X
Track quality 100.0 %
Test CRC 1E082FD2
Copy CRC 1E082FD2
Accurately ripped (confidence 1) [622B0CFE] (AR v1)
Copy OK

Track 4

Filename D:\#cdr\#wav+flac\#new\Layla Zoe - Retrospective Tour 2019\cd 2\04. Layla Zoe - Ghost Train.wav

Peak level 100.0 %
Extraction speed 8.0 X
Track quality 100.0 %
Test CRC 44A6D341
Copy CRC 44A6D341
Accurately ripped (confidence 1) [2FEE8B04] (AR v1)
Copy OK

Track 5

Filename D:\#cdr\#wav+flac\#new\Layla Zoe - Retrospective Tour 2019\cd 2\05. Layla Zoe - Hippie Chick.wav

Peak level 96.1 %
Extraction speed 9.1 X
Track quality 100.0 %
Test CRC C1BE5E32
Copy CRC C1BE5E32
Accurately ripped (confidence 1) [D128DB3C] (AR v1)
Copy OK

Track 6

Filename D:\#cdr\#wav+flac\#new\Layla Zoe - Retrospective Tour 2019\cd 2\06. Layla Zoe - I Shall Be Released.wav

Peak level 90.7 %
Extraction speed 9.3 X
Track quality 99.9 %
Test CRC FC686ED9
Copy CRC FC686ED9
Cannot be verified as accurate (confidence 1) [59C52646], AccurateRip returned [D5D842F2] (AR v2)
Copy OK


5 track(s) accurately ripped
1 track(s) could not be verified as accurate

Some tracks could not be verified as accurate

No errors occurred

End of status report

–– CUETools DB Plugin V2.1.6

[CTDB TOCID: PS.tqwWDFSFDvAioML69I8x3KoM-] found
Submit result: already submitted
Track | CTDB Status
1 | (7/7) Accurately ripped
2 | (7/7) Accurately ripped
3 | (7/7) Accurately ripped
4 | (7/7) Accurately ripped
5 | (7/7) Accurately ripped
6 | (7/7) Accurately ripped


==== Log checksum 909B756C7EEAFF1764327B8A042D8DC625779538F2340A3C2B2D84266985851C ====

Thanks to the Original ripper !