Subcategories
Please register here if you want to download anything!

If domain in your address bar is different from the list below
PLEASE LEAVE THAT SITE IMMEDIATELY
❗IT'S A DANGEROUS FAKE❗



Spicy Magazines for Men! ;-)

Liza Minnelli - Results (2017 Expanded Edition) (3CD)

Posted By: shamanicus
Liza Minnelli - Results (2017 Expanded Edition) (3CD)

Liza Minnelli - Results (2017 Expanded Edition) (3CD)
EAC Rip | FLAC (tracks+.cue, log) | Front cover only | 1106 mb | MP3 CBR 320kbps | RAR | 376 mb
Pop, Vocal, Electronic, Synth-Pop | Label: Cherry Red

The combination of Broadway theatricality and pop sensibility has, perhaps, never been combined so flawlessly than in the 1989 collaboration of Liza Minnelli and the Pet Shop Boys on this her 9th studio album, Results, re-issued herewith as a fully expanded 3-disc collectable box set edition!

Tracklist:

Disc 1 - The Original Album
01. I Want You Now
02. Losing My Mind
03. If There Was Love
04. So Sorry, I Said
05. Don't Drop Bombs
06. Twist In My Sobriety
07. Rent
08. Love Pains
09. Tonight Is Forever
10. I Can't Say Goodnight

Disc 2 - Remixes: Losing My Mind / Love Pains

01. Losing My Mind (7" Mix)
02. Losing My Mind (Extended Remix)
03. Losing My Mind (Full Length Ultimix)
04. Losing My Mind (Ultimix Dub)
05. Losing My Mind (Almighty Club Mix)
06. Losing My Mind (Almighty Dub)
07. Losing My Mind (Almighty Transensual Mix)
08. Love Pains (Steve Hurley's Radio Edit)
09. Love Pains (Steve Hurley's Remix)
10. Love Pains (Deep House Pains)
11. Love Pains (Deep Dub)
12. Love Pains (Steve Hurley's Instrumental)

Disc 3 - Remixes: Don't Drop Bombs

01. Don't Drop Bombs (New 7" Mix)
02. Don't Drop Bombs (Extended Remix)
03. Don't Drop Bombs (Disconet Remix)
04. Don't Drop Bombs (Exterminator Remix)
05. Don't Drop Bombs (Peace And Love Remix)
06. Don't Drop Bombs (Dub Mix)
07. Don't Drop Bombs (Percapella)
08. Don't Drop Bombs (Acapella)
09. Don't Drop Bombs (Instrumental)

Exact Audio Copy V1.3 from 2. September 2016

EAC extraction logfile from 10. September 2017, 14:19

Liza Minnelli / Results (Expanded Edition) (Disc 1)

Used Drive : HL-DT-STBD-RE WH14NS40 Adapter: 1 ID: 2 (not found in database)

Read mode : Secure
Utilize accurate stream : Yes
Defeat audio cache : Yes
Make use of C2 pointers : No

Read offset correction : 6
Overread into Lead-In and Lead-Out : No
Fill up missing offset samples with silence : Yes
Delete leading and trailing silent blocks : No
Null samples used in CRC calculations : Yes
Used interface : Native Win32 interface for Win NT & 2000
Gap handling : Appended to previous track

Used output format : User Defined Encoder
Selected bitrate : 896 kBit/s
Quality : High
Add ID3 tag : No
Command line compressor : C:\Program Files (x86)\Exact Audio Copy\Flac\flac.exe
Additional command line options : -8 -V -T "artist=%artist%" -T "title=%title%" -T "album=%albumtitle%" -T
"date=%year%" -T "tracknumber=%tracknr%" -T "genre=%genre%" %source%


TOC of the extracted CD

Track | Start | Length | Start sector | End sector
––––––––––––––––––––––––––––-
1 | 0:00.00 | 4:41.31 | 0 | 21105
2 | 4:41.31 | 4:11.32 | 21106 | 39962
3 | 8:52.63 | 6:44.49 | 39963 | 70311
4 | 15:37.37 | 3:15.30 | 70312 | 84966
5 | 18:52.67 | 3:38.50 | 84967 | 101366
6 | 22:31.42 | 4:51.43 | 101367 | 123234
7 | 27:23.10 | 3:56.30 | 123235 | 140964
8 | 31:19.40 | 4:12.72 | 140965 | 159936
9 | 35:32.37 | 5:06.20 | 159937 | 182906
10 | 40:38.57 | 4:54.38 | 182907 | 204994


Track 1

Filename D:\burn\Liza Minnelli - Results (Expanded Edition) (2017) (flac)\Disc 1\01 - Liza Minnelli - I Want You Now.wav

Pre-gap length 0:00:02.00

Peak level 100.0 %
Extraction speed 2.4 X
Track quality 100.0 %
Test CRC 750877B6
Copy CRC 750877B6
Track not present in AccurateRip database
Copy OK

Track 2

Filename D:\burn\Liza Minnelli - Results (Expanded Edition) (2017) (flac)\Disc 1\02 - Liza Minnelli - Losing My Mind.wav

Pre-gap length 0:00:01.57

Peak level 94.3 %
Extraction speed 1.2 X
Track quality 100.0 %
Test CRC DE666627
Copy CRC DE666627
Track not present in AccurateRip database
Copy OK

Track 3

Filename D:\burn\Liza Minnelli - Results (Expanded Edition) (2017) (flac)\Disc 1\03 - Liza Minnelli - If There Was Love.wav

Peak level 100.0 %
Extraction speed 1.4 X
Track quality 100.0 %
Test CRC 5C6825EA
Copy CRC 5C6825EA
Track not present in AccurateRip database
Copy OK

Track 4

Filename D:\burn\Liza Minnelli - Results (Expanded Edition) (2017) (flac)\Disc 1\04 - Liza Minnelli - So Sorry, I Said.wav

Pre-gap length 0:00:02.03

Peak level 100.0 %
Extraction speed 1.4 X
Track quality 100.0 %
Test CRC 489F9C72
Copy CRC 489F9C72
Track not present in AccurateRip database
Copy OK

Track 5

Filename D:\burn\Liza Minnelli - Results (Expanded Edition) (2017) (flac)\Disc 1\05 - Liza Minnelli - Don't Drop Bombs.wav

Pre-gap length 0:00:01.57

Peak level 99.9 %
Extraction speed 1.5 X
Track quality 100.0 %
Test CRC 36C6887D
Copy CRC 36C6887D
Track not present in AccurateRip database
Copy OK

Track 6

Filename D:\burn\Liza Minnelli - Results (Expanded Edition) (2017) (flac)\Disc 1\06 - Liza Minnelli - Twist In My Sobriety.wav

Pre-gap length 0:00:01.57

Peak level 63.0 %
Extraction speed 1.6 X
Track quality 100.0 %
Test CRC 902CBB8D
Copy CRC 902CBB8D
Track not present in AccurateRip database
Copy OK

Track 7

Filename D:\burn\Liza Minnelli - Results (Expanded Edition) (2017) (flac)\Disc 1\07 - Liza Minnelli - Rent.wav

Peak level 100.0 %
Extraction speed 1.4 X
Track quality 99.9 %
Test CRC 7E35E720
Copy CRC 7E35E720
Track not present in AccurateRip database
Copy OK

Track 8

Filename D:\burn\Liza Minnelli - Results (Expanded Edition) (2017) (flac)\Disc 1\08 - Liza Minnelli - Love Pains.wav

Pre-gap length 0:00:01.58

Peak level 100.0 %
Extraction speed 1.5 X
Track quality 99.9 %
Test CRC 124BB754
Copy CRC 124BB754
Track not present in AccurateRip database
Copy OK

Track 9

Filename D:\burn\Liza Minnelli - Results (Expanded Edition) (2017) (flac)\Disc 1\09 - Liza Minnelli - Tonight Is Forever.wav

Pre-gap length 0:00:01.57

Peak level 99.9 %
Extraction speed 1.9 X
Track quality 100.0 %
Test CRC 1DFE8A56
Copy CRC 1DFE8A56
Track not present in AccurateRip database
Copy OK

Track 10

Filename D:\burn\Liza Minnelli - Results (Expanded Edition) (2017) (flac)\Disc 1\10 - Liza Minnelli - I Can't Say Goodnight.wav

Pre-gap length 0:00:01.57

Peak level 100.0 %
Extraction speed 1.7 X
Track quality 99.9 %
Test CRC BB0C1032
Copy CRC BB0C1032
Track not present in AccurateRip database
Copy OK


None of the tracks are present in the AccurateRip database

No errors occurred

End of status report

–– CUETools DB Plugin V2.1.6

[CTDB TOCID: OxJ6jHpwY9IC6tPnIcoZSayjcX4-] found
Submit result: OxJ6jHpwY9IC6tPnIcoZSayjcX4- has been confirmed
Track | CTDB Status
1 | (5/5) Accurately ripped
2 | (5/5) Accurately ripped
3 | (5/5) Accurately ripped
4 | (5/5) Accurately ripped
5 | (5/5) Accurately ripped
6 | (5/5) Accurately ripped
7 | (5/5) Accurately ripped
8 | (5/5) Accurately ripped
9 | (5/5) Accurately ripped
10 | (5/5) Accurately ripped


==== Log checksum 954C72595C3931DB295D155D212BC1CFAF6457EF9F8120313808B58E6115E0D9 ====

Exact Audio Copy V1.3 from 2. September 2016

EAC extraction logfile from 11. September 2017, 16:35

Liza Minnelli / Results (Expanded Edition) (Disc 2)

Used Drive : HL-DT-STBD-RE WH14NS40 Adapter: 1 ID: 2 (not found in database)

Read mode : Secure
Utilize accurate stream : Yes
Defeat audio cache : Yes
Make use of C2 pointers : No

Read offset correction : 6
Overread into Lead-In and Lead-Out : No
Fill up missing offset samples with silence : Yes
Delete leading and trailing silent blocks : No
Null samples used in CRC calculations : Yes
Used interface : Native Win32 interface for Win NT & 2000
Gap handling : Appended to previous track

Used output format : User Defined Encoder
Selected bitrate : 896 kBit/s
Quality : High
Add ID3 tag : No
Command line compressor : C:\Program Files (x86)\Exact Audio Copy\Flac\flac.exe
Additional command line options : -8 -V -T "artist=%artist%" -T "title=%title%" -T "album=%albumtitle%" -T
"date=%year%" -T "tracknumber=%tracknr%" -T "genre=%genre%" %source%


TOC of the extracted CD

Track | Start | Length | Start sector | End sector
––––––––––––––––––––––––––––-
1 | 0:00.00 | 4:08.19 | 0 | 18618
2 | 4:08.19 | 7:02.70 | 18619 | 50338
3 | 11:11.14 | 7:35.40 | 50339 | 84503
4 | 18:46.54 | 5:11.01 | 84504 | 107829
5 | 23:57.55 | 8:30.42 | 107830 | 146121
6 | 32:28.22 | 8:29.44 | 146122 | 184340
7 | 40:57.66 | 7:17.59 | 184341 | 217174
8 | 48:15.50 | 3:59.44 | 217175 | 235143
9 | 52:15.19 | 5:39.68 | 235144 | 260636
10 | 57:55.12 | 5:08.37 | 260637 | 283773
11 | 63:03.49 | 4:44.48 | 283774 | 305121
12 | 67:48.22 | 4:14.63 | 305122 | 324234


Track 1

Filename D:\burn\Liza Minnelli - Results (Expanded Edition) (2017) (flac)\Disc 2\01 - Liza Minnelli - Losing My Mind (7'' Mix).wav

Pre-gap length 0:00:02.00

Peak level 100.0 %
Extraction speed 1.9 X
Track quality 100.0 %
Test CRC 6B23F9FE
Copy CRC 6B23F9FE
Track not present in AccurateRip database
Copy OK

Track 2

Filename D:\burn\Liza Minnelli - Results (Expanded Edition) (2017) (flac)\Disc 2\02 - Liza Minnelli - Losing My Mind (Extended Remix).wav

Pre-gap length 0:00:01.57

Peak level 100.0 %
Extraction speed 1.2 X
Track quality 99.9 %
Test CRC DE04E56C
Copy CRC DE04E56C
Track not present in AccurateRip database
Copy OK

Track 3

Filename D:\burn\Liza Minnelli - Results (Expanded Edition) (2017) (flac)\Disc 2\03 - Liza Minnelli - Losing My Mind (Full Length Ultimix).wav

Pre-gap length 0:00:01.57

Peak level 100.0 %
Extraction speed 1.5 X
Track quality 100.0 %
Test CRC 3AAEE2C6
Copy CRC 3AAEE2C6
Track not present in AccurateRip database
Copy OK

Track 4

Filename D:\burn\Liza Minnelli - Results (Expanded Edition) (2017) (flac)\Disc 2\04 - Liza Minnelli - Losing My Mind (Ultimix Dub).wav

Pre-gap length 0:00:01.57

Peak level 100.0 %
Extraction speed 1.6 X
Track quality 100.0 %
Test CRC 5D061D06
Copy CRC 5D061D06
Track not present in AccurateRip database
Copy OK

Track 5

Filename D:\burn\Liza Minnelli - Results (Expanded Edition) (2017) (flac)\Disc 2\05 - Liza Minnelli - Losing My Mind (Almighty Club Mix).wav

Pre-gap length 0:00:01.57

Peak level 79.4 %
Extraction speed 1.8 X
Track quality 100.0 %
Test CRC EB83A044
Copy CRC EB83A044
Track not present in AccurateRip database
Copy OK

Track 6

Filename D:\burn\Liza Minnelli - Results (Expanded Edition) (2017) (flac)\Disc 2\06 - Liza Minnelli - Losing My Mind (Almighty Dub).wav

Pre-gap length 0:00:01.57

Peak level 79.4 %
Extraction speed 1.8 X
Track quality 99.9 %
Test CRC 35A6A81D
Copy CRC 35A6A81D
Track not present in AccurateRip database
Copy OK

Track 7

Filename D:\burn\Liza Minnelli - Results (Expanded Edition) (2017) (flac)\Disc 2\07 - Liza Minnelli - Losing My Mind (Almighty Transensual Mix).wav

Pre-gap length 0:00:01.57

Peak level 70.7 %
Extraction speed 2.0 X
Track quality 100.0 %
Test CRC AB5139AE
Copy CRC AB5139AE
Track not present in AccurateRip database
Copy OK

Track 8

Filename D:\burn\Liza Minnelli - Results (Expanded Edition) (2017) (flac)\Disc 2\08 - Liza Minnelli - Love Pains (Steve Hurley's Radio Edit).wav

Pre-gap length 0:00:01.57

Peak level 89.1 %
Extraction speed 2.0 X
Track quality 100.0 %
Test CRC 92B379F9
Copy CRC 92B379F9
Track not present in AccurateRip database
Copy OK

Track 9

Filename D:\burn\Liza Minnelli - Results (Expanded Edition) (2017) (flac)\Disc 2\09 - Liza Minnelli - Love Pains (Steve Hurley's Remix).wav

Pre-gap length 0:00:01.57

Peak level 100.0 %
Extraction speed 2.2 X
Track quality 100.0 %
Test CRC FF73CA64
Copy CRC FF73CA64
Track not present in AccurateRip database
Copy OK

Track 10

Filename D:\burn\Liza Minnelli - Results (Expanded Edition) (2017) (flac)\Disc 2\10 - Liza Minnelli - Love Pains (Deep House Pains).wav

Pre-gap length 0:00:01.57

Peak level 100.0 %
Extraction speed 2.2 X
Track quality 100.0 %
Test CRC 6F69C0F8
Copy CRC 6F69C0F8
Track not present in AccurateRip database
Copy OK

Track 11

Filename D:\burn\Liza Minnelli - Results (Expanded Edition) (2017) (flac)\Disc 2\11 - Liza Minnelli - Love Pains (Deep Dub).wav

Pre-gap length 0:00:01.57

Peak level 100.0 %
Extraction speed 2.3 X
Track quality 100.0 %
Test CRC EA79F170
Copy CRC EA79F170
Track not present in AccurateRip database
Copy OK

Track 12

Filename D:\burn\Liza Minnelli - Results (Expanded Edition) (2017) (flac)\Disc 2\12 - Liza Minnelli - Love Pains (Steve Hurley's Instrumental).wav

Pre-gap length 0:00:01.57

Peak level 100.0 %
Extraction speed 2.3 X
Track quality 100.0 %
Test CRC 39D2B388
Copy CRC 39D2B388
Track not present in AccurateRip database
Copy OK


None of the tracks are present in the AccurateRip database

No errors occurred

End of status report

–– CUETools DB Plugin V2.1.6

[CTDB TOCID: svMXIXxlwXcEITHzk9MgLTDBe4A-] found
Submit result: svMXIXxlwXcEITHzk9MgLTDBe4A- has been confirmed
Track | CTDB Status
1 | (6/6) Accurately ripped
2 | (6/6) Accurately ripped
3 | (6/6) Accurately ripped
4 | (6/6) Accurately ripped
5 | (6/6) Accurately ripped
6 | (6/6) Accurately ripped
7 | (6/6) Accurately ripped
8 | (6/6) Accurately ripped
9 | (6/6) Accurately ripped
10 | (6/6) Accurately ripped
11 | (6/6) Accurately ripped
12 | (6/6) Accurately ripped


==== Log checksum AB99FAFB33618952445EEFCBF4B521A1880D3AD1D50A0ABFAE01E4C52B57E0D5 ====

Exact Audio Copy V1.3 from 2. September 2016

EAC extraction logfile from 12. September 2017, 9:06

Liza Minnelli / Results (Expanded Edition) (Disc 3 - Remixes)

Used Drive : HL-DT-STBD-RE WH14NS40 Adapter: 1 ID: 2 (not found in database)

Read mode : Secure
Utilize accurate stream : Yes
Defeat audio cache : Yes
Make use of C2 pointers : No

Read offset correction : 6
Overread into Lead-In and Lead-Out : No
Fill up missing offset samples with silence : Yes
Delete leading and trailing silent blocks : No
Null samples used in CRC calculations : Yes
Used interface : Native Win32 interface for Win NT & 2000
Gap handling : Appended to previous track

Used output format : User Defined Encoder
Selected bitrate : 896 kBit/s
Quality : High
Add ID3 tag : No
Command line compressor : C:\Program Files (x86)\Exact Audio Copy\Flac\flac.exe
Additional command line options : -8 -V -T "artist=%artist%" -T "title=%title%" -T "album=%albumtitle%" -T
"date=%year%" -T "tracknumber=%tracknr%" -T "genre=%genre%" %source%


TOC of the extracted CD

Track | Start | Length | Start sector | End sector
––––––––––––––––––––––––––––-
1 | 0:00.00 | 3:45.03 | 0 | 16877
2 | 3:45.03 | 5:58.14 | 16878 | 43741
3 | 9:43.17 | 7:16.72 | 43742 | 76513
4 | 17:00.14 | 9:02.57 | 76514 | 117220
5 | 26:02.71 | 5:01.42 | 117221 | 139837
6 | 31:04.38 | 5:47.22 | 139838 | 165884
7 | 36:51.60 | 3:44.62 | 165885 | 182746
8 | 40:36.47 | 3:44.33 | 182747 | 199579
9 | 44:21.05 | 3:42.55 | 199580 | 216284


Track 1

Filename D:\burn\Liza Minnelli - Results (Expanded Edition) (2017) (flac)\Disc 3\01 - Liza Minnelli - Don't Drop Bombs (New 7'' Mix).wav

Pre-gap length 0:00:02.00

Peak level 100.0 %
Extraction speed 1.9 X
Track quality 100.0 %
Test CRC 53483968
Copy CRC 53483968
Track not present in AccurateRip database
Copy OK

Track 2

Filename D:\burn\Liza Minnelli - Results (Expanded Edition) (2017) (flac)\Disc 3\02 - Liza Minnelli - Don't Drop Bombs (Extended Remix).wav

Pre-gap length 0:00:01.57

Peak level 100.0 %
Extraction speed 1.2 X
Track quality 100.0 %
Test CRC F3646D38
Copy CRC F3646D38
Track not present in AccurateRip database
Copy OK

Track 3

Filename D:\burn\Liza Minnelli - Results (Expanded Edition) (2017) (flac)\Disc 3\03 - Liza Minnelli - Don't Drop Bombs (Disconet Remix).wav

Pre-gap length 0:00:01.57

Peak level 100.0 %
Extraction speed 1.4 X
Track quality 100.0 %
Test CRC 217D501C
Copy CRC 217D501C
Track not present in AccurateRip database
Copy OK

Track 4

Filename D:\burn\Liza Minnelli - Results (Expanded Edition) (2017) (flac)\Disc 3\04 - Liza Minnelli - Don't Drop Bombs (Exterminator Remix).wav

Pre-gap length 0:00:01.57

Peak level 100.0 %
Extraction speed 1.6 X
Track quality 100.0 %
Test CRC 6D0DFE63
Copy CRC 6D0DFE63
Track not present in AccurateRip database
Copy OK

Track 5

Filename D:\burn\Liza Minnelli - Results (Expanded Edition) (2017) (flac)\Disc 3\05 - Liza Minnelli - Don't Drop Bombs (Peace And Love Remix).wav

Pre-gap length 0:00:01.57

Peak level 100.0 %
Extraction speed 1.7 X
Track quality 100.0 %
Test CRC CFACA800
Copy CRC CFACA800
Track not present in AccurateRip database
Copy OK

Track 6

Filename D:\burn\Liza Minnelli - Results (Expanded Edition) (2017) (flac)\Disc 3\06 - Liza Minnelli - Don't Drop Bombs (Dub Mix).wav

Pre-gap length 0:00:01.57

Peak level 100.0 %
Extraction speed 1.8 X
Track quality 100.0 %
Test CRC F746CF0E
Copy CRC F746CF0E
Track not present in AccurateRip database
Copy OK

Track 7

Filename D:\burn\Liza Minnelli - Results (Expanded Edition) (2017) (flac)\Disc 3\07 - Liza Minnelli - Don't Drop Bombs (Percapella).wav

Pre-gap length 0:00:01.57

Peak level 100.0 %
Extraction speed 1.8 X
Track quality 100.0 %
Test CRC 177EC854
Copy CRC 177EC854
Track not present in AccurateRip database
Copy OK

Track 8

Filename D:\burn\Liza Minnelli - Results (Expanded Edition) (2017) (flac)\Disc 3\08 - Liza Minnelli - Don't Drop Bombs (Accapella).wav

Pre-gap length 0:00:01.57

Peak level 100.0 %
Extraction speed 1.6 X
Track quality 99.9 %
Test CRC 40EC856E
Copy CRC 40EC856E
Track not present in AccurateRip database
Copy OK

Track 9

Filename D:\burn\Liza Minnelli - Results (Expanded Edition) (2017) (flac)\Disc 3\09 - Liza Minnelli - Don't Drop Bombs (Instrumental).wav

Pre-gap length 0:00:01.57

Peak level 100.0 %
Extraction speed 1.9 X
Track quality 100.0 %
Test CRC F288B06E
Copy CRC F288B06E
Track not present in AccurateRip database
Copy OK


None of the tracks are present in the AccurateRip database

No errors occurred

End of status report

–– CUETools DB Plugin V2.1.6

[CTDB TOCID: 0RE.4SdHsoo1vI_P35o6rlR4NQY-] found
Submit result: 0RE.4SdHsoo1vI_P35o6rlR4NQY- has been confirmed
Track | CTDB Status
1 | (7/7) Accurately ripped
2 | (7/7) Accurately ripped
3 | (7/7) Accurately ripped
4 | (7/7) Accurately ripped
5 | (7/7) Accurately ripped
6 | (7/7) Accurately ripped
7 | (7/7) Accurately ripped
8 | (7/7) Accurately ripped
9 | (7/7) Accurately ripped


==== Log checksum E6B805CF7FC6293C0B958D3FC14A8C76560D5FD2139A8D2FF2945D67107D43D1 ====


Thanks to the Original customer.