Subcategories

The Long Ryders - Final Wild Songs (2016) {4CD Box Set, Cherry Red ‎Records CRCDBOX21 rec 1983-1986}

Posted By: ruskaval
The Long Ryders - Final Wild Songs (2016) {4CD Box Set, Cherry Red ‎Records CRCDBOX21 rec 1983-1986}

The Long Ryders - Final Wild Songs (2016) {4CD Box Set, Cherry Red ‎Records CRCDBOX21 rec 1983-1986}
EAC rip (secure mode) | FLAC (tracks)+CUE+LOG -> 1.96 Gb | MP3 @320 -> 651 Mb
Full Artwork @ 600 dpi (jpg) -> 372 Mb | 5% repair rar
© 1983-86, 2016 Cherry Red ‎Records / Sid Griffin / Universal | CRCDBOX21
Rock / Alternative Country / Americana / Alternative Rock / Country Rock

The Long Ryders were formed by several American musicians influenced by Gram Parsons and the Byrds, with country and punk rock influences. The band featured Sid Griffin on guitar, autoharp, and bugle, Stephen McCarthy, guitar, steel guitar, mandolin, and banjo, Des Brewer, as bassist, (later replaced by Tom Stevens) and Greg Sowders, playing drums and percussion. With a sound reminiscent of Gram Parsons, Buffalo Springfield and The Flying Burrito Brothers, but with a harder edge, they anticipated the alternative country music of the 1990s by a decade. This 4-CD career overview has been compiled with both Sid Griffin and Tom Stevens from original tapes (where they exist) - Sid has contributed a track by track breakdown for the set. The set features all the original albums as well as demos, singles and rare live recordings. Re-mastered by Andy Pearce the recordings and in Sid's opinion have never sounded so good. A new booklet designed by Phil Smee contains many rare photos and memorabilia.
The Long Ryders - Final Wild Songs (2016) {4CD Box Set, Cherry Red ‎Records CRCDBOX21 rec 1983-1986}

The Long Ryders were the Odd Men Out in the Paisley Underground scene that briefly held sway over Los Angeles in the '80s. Like their peers, they felt a very personal connection with the music of the '60s, but instead of embracing psychedelia, they flew the flag for folk-rock and country-rock, putting Gram Parsons, Chris Hillman, Roger McGuinn, and Doug Sahm on their personal Mt. Rushmore. The Long Ryders were proud traditionalists, but they didn't live in the past. Their music was also informed by early punk and power pop in its hooky energy and sense of commitment, and if they sang of the lessons to be taken from history, they did so as progressives who knew the stories of Harriet Tubman, WDIA-AM, the Dust Bowl, and the Mason-Dixon Line had as much to say about the present as the past. If they fell short of genuine stardom, the Long Ryders more than made a difference during their 1981-1987 lifetime, particularly in their influence on the alt-country movement, which would spread like wildfire not long after they broke up.

The Long Ryders - Final Wild Songs (2016) {4CD Box Set, Cherry Red ‎Records CRCDBOX21 rec 1983-1986}


Nearly everything you need to know about the band can be found on Final Wild Songs, a four-CD box set that collects their debut EP, 1983's 10-5-60, and their three studio albums, 1984's Native Sons, 1985's State of Our Union, and 1987's Two Fisted Tales, as well as a number of rare and unreleased tracks, including a full live set recorded for radio broadcast in the Netherlands. The Long Ryders were a band that wore their beliefs – personal, political, and musical – on their sleeves, and in their heyday they were celebrated for what they had to say as much as the music they made. But Final Wild Songs makes it clear this combo's music has endured because they were a truly great rock & roll band, full of snap and fervent energy. The guitar interplay between Sid Griffin and Stephen McCarthy was pure jangly bliss, and bassist Tom Stevens and drummer Greg Sowders held the tunes together with fire, precision, and outsized personality. The Long Ryders knew when to play moody and subtle, but they could also rock out with ferocious joy, and "Looking for Lewis and Clark" still sounds like an anthem worth marching to 30 years after the fact. Final Wild Songs includes song-by-song notes from the group's members, and their often witty remarks point to how much the Long Ryders cared about music as well as the world around them.

The Long Ryders - Final Wild Songs (2016) {4CD Box Set, Cherry Red ‎Records CRCDBOX21 rec 1983-1986}


And anyone who questions the group's sense of humor should check out the previously flexi-disc only "Christmas in New Zealand" and "Encore from Hell" (the latter featuring the band jamming on stage while Griffin reads profoundly negative reviews of State of Our Union with no small enthusiasm). The Long Ryders mattered then, and still matter today, and Final Wild Songs has enough fire and fun to convince any doubters.
The Long Ryders - Final Wild Songs (2016) {4CD Box Set, Cherry Red ‎Records CRCDBOX21 rec 1983-1986}


PopMatters INFO

Track Listing:

DISC ONE
1983-1984
ORIGINAL 10/5/60 EP

01. JOIN MY GANG
02. YOU DON'T KNOW WHAT’S RIGHT…
03. 10/5/60
04. AND SHE RIDES
05. BORN TO BELIEVE IN YOU
NATIVE SONS
06. FINAL WILD
07. IVORY TOWER
08. RUN DUSTY RUN
09. (SWEET) MENTAL REVENGE
10. FAIR GAME
11. TELL IT TO THE JUDGE ON SUNDAY
12. WRECK OF THE 809
13. TOO CLOSE TO THE LIGHT
14. NEVER GOT TO MEET THE MOM
15. I HAD A DREAM
16. MASTERS OF WAR
17. BLACK GIRL - acoustic May-June 1984
18. WRECK OF THE 809 - acoustic May-June 1984
19. FURTHER ALONG - acoustic May-June 1984
20. THE RAINS CAME - CBGBs April 1984
21. YOU CAN'T JUDGE A BOOK BY THE COVER - West End, Chicago Nov 1984

The Long Ryders - Final Wild Songs (2016) {4CD Box Set, Cherry Red ‎Records CRCDBOX21 rec 1983-1986}


DISC TWO
1985
STATE OF OUR UNION

01. LOOKING FOR LEWIS AND CLARK
02. LIGHTS OF DOWNTOWN
03. WDIA
04. MASON-DIXON LINE
05. HERE COMES THAT TRAIN AGAIN
06. YEARS LONG AGO
07. GOOD TIMES TOMORROW, HARD TIMES TODAY
08. TWO KINDS OF LOVE
09. YOU CAN'T RIDE THE BOXCARS ANYMORE
10. CAPTURING THE FLAG
11. STATE OF MY UNION
12. SOUTHSIDE OF THE STORY
13. CHILD BRIDE
14. IF I WERE A BRAMBLE AND YOU WERE A ROSE
15. LOOKING FOR LEWIS AND CLARK - OGWT
16. LIGHTS OF DOWNTOWN - Captain's mix, Island Studios
17. CAPTURING THE FLAG - Captain's mix, Island Studios
18. CHRISTMAS IN NEW ZEALAND - State of Our Union
19. ENCORE FROM HELL

The Long Ryders - Final Wild Songs (2016) {4CD Box Set, Cherry Red ‎Records CRCDBOX21 rec 1983-1986}


DISC THREE
1986
TWO FISTED TALES

01. GUNSLINGER MAN
02. I WANT YOU BAD
03. A STITCH IN TIME
04. THE LIGHT GETS IN THE WAY
05. PRAIRIE FIRE
06. BABY’S IN TOYLAND
07. LONG STORY SHORT
08. MAN OF MISERY
09. HARRIET TUBMAN'S GONNA CARRY ME HOME
10. FOR THE REST OF MY DAYS
11. SPECTACULAR FALL
12. RING BELLS
DEMOS
13. 17 WAYS
14. BASIC BLACK
15. PUSHIN' UPHILL
16. HOW DO WE FEEL WHAT'S REAL
17. HE'S GOT HIMSELF A YOUNG GIRL (AND HE CAN'T KEEP UP)
18. HE CAN HEAR HIS BROTHER CALLING
19. SAD SAD SONGS
20. FLAK JACKET
21. BLUES THEME

The Long Ryders - Final Wild Songs (2016) {4CD Box Set, Cherry Red ‎Records CRCDBOX21 rec 1983-1986}


DISC FOUR
LIVE 'T BEEST, GOES, THE NETHERLANDS

01. MASON DIXON LINE
02. TIME KEEPS TRAVELING
03. (SWEET) MENTAL REVENGE
04. RUN DUSTY RUN
05. YOU DON'T KNOW WHAT'S RIGHT…
06. AS GOD IS MY WITNESS
07. IVORY TOWER
08. I CAN’T HIDE
09. MASTERS OF WAR
10. WRECK OF THE 809
11. GOOD TIMES TOMORROW, HARD TIMES TODAY
12. SIX DAYS ON THE ROAD
13. SOUTHSIDE OF THE STORY
14. STILL GET BY
15. TELL IT TO THE JUDGE ON SUNDAY

The Long Ryders - Final Wild Songs (2016) {4CD Box Set, Cherry Red ‎Records CRCDBOX21 rec 1983-1986}


Exact Audio Copy V1.0 beta 3 from 29. August 2011

EAC extraction logfile from 19. February 2016, 20:02

The Long Ryders / Final Wild Songs (Disc 1)

Used drive : PLEXTOR DVDR PX-L890SA Adapter: 5 ID: 1

Read mode : Secure
Utilize accurate stream : Yes
Defeat audio cache : Yes
Make use of C2 pointers : No

Read offset correction : 6
Overread into Lead-In and Lead-Out : No
Fill up missing offset samples with silence : Yes
Delete leading and trailing silent blocks : No
Null samples used in CRC calculations : Yes
Used interface : Native Win32 interface for Win NT & 2000
Gap handling : Appended to previous track

Used output format : User Defined Encoder
Selected bitrate : 128 kBit/s
Quality : High
Add ID3 tag : No
Command line compressor : C:\Program Files (x86)\Exact Audio Copy\FLAC\FLAC.EXE
Additional command line options : -8 -V -T "ARTIST=%artist%" -T "TITLE=%title%" -T "ALBUM=%albumtitle%" -T "DATE=%year%" -T "TRACKNUMBER=%tracknr%" -T "TOTALTRACKS=%numtracks%" -T "GENRE=%genre%" -T "ALBUMARTIST=%albumartist%" -T "ALBUM ARTIST=%albumartist%" -T "COMMENT=EAC Secure Mode, Test & Copy, AccurateRip, FLAC -8" %source%


TOC of the extracted CD

Track | Start | Length | Start sector | End sector
––––––––––––––––––––––––––––-
1 | 0:00.00 | 2:48.22 | 0 | 12621
2 | 2:48.22 | 4:01.39 | 12622 | 30735
3 | 6:49.61 | 3:11.14 | 30736 | 45074
4 | 10:01.00 | 4:30.62 | 45075 | 65386
5 | 14:31.62 | 3:06.63 | 65387 | 79399
6 | 17:38.50 | 2:36.33 | 79400 | 91132
7 | 20:15.08 | 2:59.66 | 91133 | 104623
8 | 23:14.74 | 2:25.72 | 104624 | 115570
9 | 25:40.71 | 2:50.05 | 115571 | 128325
10 | 28:31.01 | 2:37.46 | 128326 | 140146
11 | 31:08.47 | 3:08.17 | 140147 | 154263
12 | 34:16.64 | 3:56.40 | 154264 | 172003
13 | 38:13.29 | 4:11.27 | 172004 | 190855
14 | 42:24.56 | 2:15.63 | 190856 | 201043
15 | 44:40.44 | 3:51.03 | 201044 | 218371
16 | 48:31.47 | 4:34.07 | 218372 | 238928
17 | 53:05.54 | 2:51.55 | 238929 | 251808
18 | 55:57.34 | 3:35.00 | 251809 | 267933
19 | 59:32.34 | 4:53.07 | 267934 | 289915
20 | 64:25.41 | 2:36.31 | 289916 | 301646
21 | 67:01.72 | 5:48.64 | 301647 | 327810


Track 1

Filename E:\01 - Join My Gang.wav

Pre-gap length 0:00:02.00

Peak level 97.0 %
Extraction speed 1.2 X
Track quality 99.9 %
Test CRC 19139182
Copy CRC 19139182
Track not present in AccurateRip database
Copy OK

Track 2

Filename E:\02 - You Don't Know What's Right, You Don't Know What's Wrong.wav

Pre-gap length 0:00:00.58

Peak level 97.0 %
Extraction speed 2.1 X
Track quality 100.0 %
Test CRC D6B617F0
Copy CRC D6B617F0
Track not present in AccurateRip database
Copy OK

Track 3

Filename E:\03 - 10,5,60.wav

Pre-gap length 0:00:00.58

Peak level 97.0 %
Extraction speed 2.1 X
Track quality 100.0 %
Test CRC 44A87278
Copy CRC 44A87278
Track not present in AccurateRip database
Copy OK

Track 4

Filename E:\04 - And She Rides.wav

Pre-gap length 0:00:00.58

Peak level 97.0 %
Extraction speed 2.4 X
Track quality 100.0 %
Test CRC F42C9ADD
Copy CRC F42C9ADD
Track not present in AccurateRip database
Copy OK

Track 5

Filename E:\05 - Born To Believe In You.wav

Pre-gap length 0:00:00.58

Peak level 97.0 %
Extraction speed 2.4 X
Track quality 100.0 %
Test CRC 43250375
Copy CRC 43250375
Track not present in AccurateRip database
Copy OK

Track 6

Filename E:\06 - Final Wild Son.wav

Pre-gap length 0:00:00.58

Peak level 97.0 %
Extraction speed 2.5 X
Track quality 100.0 %
Test CRC 61077561
Copy CRC 61077561
Track not present in AccurateRip database
Copy OK

Track 7

Filename E:\07 - Ivory Tower.wav

Pre-gap length 0:00:00.73

Peak level 97.0 %
Extraction speed 2.6 X
Track quality 100.0 %
Test CRC 1DFAB090
Copy CRC 1DFAB090
Track not present in AccurateRip database
Copy OK

Track 8

Filename E:\08 - Run Dusty Run.wav

Pre-gap length 0:00:00.16

Peak level 97.0 %
Extraction speed 2.6 X
Track quality 100.0 %
Test CRC AD07A29A
Copy CRC AD07A29A
Track not present in AccurateRip database
Copy OK

Track 9

Filename E:\09 - (Sweet) Mental Revenge.wav

Pre-gap length 0:00:00.61

Peak level 97.0 %
Extraction speed 2.8 X
Track quality 100.0 %
Test CRC 881CBBE0
Copy CRC 881CBBE0
Track not present in AccurateRip database
Copy OK

Track 10

Filename E:\10 - Fair Game.wav

Pre-gap length 0:00:00.58

Peak level 97.0 %
Extraction speed 2.8 X
Track quality 100.0 %
Test CRC 364A3F8E
Copy CRC 364A3F8E
Track not present in AccurateRip database
Copy OK

Track 11

Filename E:\11 - Tell It To The Judge On Sunday.wav

Pre-gap length 0:00:00.58

Peak level 97.0 %
Extraction speed 2.0 X
Track quality 99.9 %
Test CRC 36E28AE4
Copy CRC 36E28AE4
Track not present in AccurateRip database
Copy OK

Track 12

Filename E:\12 - Wreck Of The 809.wav

Pre-gap length 0:00:01.28

Peak level 97.0 %
Extraction speed 3.2 X
Track quality 100.0 %
Test CRC 6FDC925A
Copy CRC 6FDC925A
Track not present in AccurateRip database
Copy OK

Track 13

Filename E:\13 - Too Close To The Light.wav

Pre-gap length 0:00:00.58

Peak level 97.0 %
Extraction speed 3.4 X
Track quality 100.0 %
Test CRC 7C23E1F0
Copy CRC 7C23E1F0
Track not present in AccurateRip database
Copy OK

Track 14

Filename E:\14 - Never Got To Meet The Mom.wav

Pre-gap length 0:00:00.58

Peak level 97.0 %
Extraction speed 3.1 X
Track quality 100.0 %
Test CRC D4D1450A
Copy CRC D4D1450A
Track not present in AccurateRip database
Copy OK

Track 15

Filename E:\15 - I Had A Dream.wav

Pre-gap length 0:00:01.01

Peak level 97.0 %
Extraction speed 2.5 X
Track quality 99.9 %
Test CRC F32337B4
Copy CRC F32337B4
Track not present in AccurateRip database
Copy OK

Track 16

Filename E:\16 - Masters Of War.wav

Pre-gap length 0:00:01.58

Peak level 97.0 %
Extraction speed 3.6 X
Track quality 100.0 %
Test CRC 6DBA3634
Copy CRC 6DBA3634
Track not present in AccurateRip database
Copy OK

Track 17

Filename E:\17 - Black Girl (Live).wav

Pre-gap length 0:00:01.56

Peak level 97.0 %
Extraction speed 3.6 X
Track quality 100.0 %
Test CRC 7239ED2B
Copy CRC 7239ED2B
Track not present in AccurateRip database
Copy OK

Track 18

Filename E:\18 - Wreck Of The 809 (Live).wav

Pre-gap length 0:00:01.58

Peak level 97.0 %
Extraction speed 3.7 X
Track quality 100.0 %
Test CRC D2BA19B1
Copy CRC D2BA19B1
Track not present in AccurateRip database
Copy OK

Track 19

Filename E:\19 - Further Along (Live).wav

Pre-gap length 0:00:01.58

Peak level 97.0 %
Extraction speed 3.9 X
Track quality 100.0 %
Test CRC 6DA4E87C
Copy CRC 6DA4E87C
Track not present in AccurateRip database
Copy OK

Track 20

Filename E:\20 - The Rains Came (Live).wav

Pre-gap length 0:00:01.56

Peak level 97.0 %
Extraction speed 3.7 X
Track quality 100.0 %
Test CRC AEE38D19
Copy CRC AEE38D19
Track not present in AccurateRip database
Copy OK

Track 21

Filename E:\21 - You Can't Judge A Book By The Cover (Live).wav

Pre-gap length 0:00:01.57

Peak level 97.0 %
Extraction speed 4.2 X
Track quality 100.0 %
Test CRC 04CAC13F
Copy CRC 04CAC13F
Track not present in AccurateRip database
Copy OK


None of the tracks are present in the AccurateRip database

No errors occurred

End of status report

==== Log checksum 032CD73FF5AF561D6E8765C523E8C61EF7864403019D77382F9FB687ACD6A4B8 ====

Exact Audio Copy V1.0 beta 3 from 29. August 2011

EAC extraction logfile from 19. February 2016, 21:08

The Long Ryders / Final Wild Songs (Disc 2)

Used drive : PLEXTOR DVDR PX-L890SA Adapter: 5 ID: 1

Read mode : Secure
Utilize accurate stream : Yes
Defeat audio cache : Yes
Make use of C2 pointers : No

Read offset correction : 6
Overread into Lead-In and Lead-Out : No
Fill up missing offset samples with silence : Yes
Delete leading and trailing silent blocks : No
Null samples used in CRC calculations : Yes
Used interface : Native Win32 interface for Win NT & 2000
Gap handling : Appended to previous track

Used output format : User Defined Encoder
Selected bitrate : 128 kBit/s
Quality : High
Add ID3 tag : No
Command line compressor : C:\Program Files (x86)\Exact Audio Copy\FLAC\FLAC.EXE
Additional command line options : -8 -V -T "ARTIST=%artist%" -T "TITLE=%title%" -T "ALBUM=%albumtitle%" -T "DATE=%year%" -T "TRACKNUMBER=%tracknr%" -T "TOTALTRACKS=%numtracks%" -T "GENRE=%genre%" -T "ALBUMARTIST=%albumartist%" -T "ALBUM ARTIST=%albumartist%" -T "COMMENT=EAC Secure Mode, Test & Copy, AccurateRip, FLAC -8" %source%


TOC of the extracted CD

Track | Start | Length | Start sector | End sector
––––––––––––––––––––––––––––-
1 | 0:00.00 | 3:11.21 | 0 | 14345
2 | 3:11.21 | 3:08.37 | 14346 | 28482
3 | 6:19.58 | 3:43.52 | 28483 | 45259
4 | 10:03.35 | 4:23.40 | 45260 | 65024
5 | 14:27.00 | 3:23.37 | 65025 | 80286
6 | 17:50.37 | 3:33.74 | 80287 | 96335
7 | 21:24.36 | 3:58.63 | 96336 | 114248
8 | 25:23.24 | 4:18.22 | 114249 | 133620
9 | 29:41.46 | 2:59.60 | 133621 | 147105
10 | 32:41.31 | 3:50.28 | 147106 | 164383
11 | 36:31.59 | 4:50.02 | 164384 | 186135
12 | 41:21.61 | 2:49.48 | 186136 | 198858
13 | 44:11.34 | 3:34.03 | 198859 | 214911
14 | 47:45.37 | 3:19.34 | 214912 | 229870
15 | 51:04.71 | 3:25.06 | 229871 | 245251
16 | 54:30.02 | 3:09.16 | 245252 | 259442
17 | 57:39.18 | 3:26.62 | 259443 | 274954
18 | 61:06.05 | 4:38.72 | 274955 | 295876
19 | 65:45.02 | 3:30.33 | 295877 | 311659


Track 1

Filename E:\01 - Looking For Lewis And Clark.wav

Pre-gap length 0:00:02.00

Peak level 97.0 %
Extraction speed 1.7 X
Track quality 100.0 %
Test CRC 5008C0AC
Copy CRC 5008C0AC
Track not present in AccurateRip database
Copy OK

Track 2

Filename E:\02 - Lights Of Downtown.wav

Pre-gap length 0:00:01.41

Peak level 97.0 %
Extraction speed 1.9 X
Track quality 100.0 %
Test CRC DF431389
Copy CRC DF431389
Track not present in AccurateRip database
Copy OK

Track 3

Filename E:\03 - WDIA.wav

Pre-gap length 0:00:00.49

Peak level 97.0 %
Extraction speed 2.1 X
Track quality 100.0 %
Test CRC 5FE457A1
Copy CRC 5FE457A1
Track not present in AccurateRip database
Copy OK

Track 4

Filename E:\04 - Mason-Dixon Line.wav

Pre-gap length 0:00:01.55

Peak level 97.0 %
Extraction speed 2.3 X
Track quality 100.0 %
Test CRC E28AF707
Copy CRC E28AF707
Track not present in AccurateRip database
Copy OK

Track 5

Filename E:\05 - Here Come's That Train Again.wav

Pre-gap length 0:00:01.61

Peak level 97.0 %
Extraction speed 1.7 X
Track quality 99.9 %
Test CRC 095E2346
Copy CRC 095E2346
Track not present in AccurateRip database
Copy OK

Track 6

Filename E:\06 - Years Long Ago.wav

Pre-gap length 0:00:00.17

Peak level 97.0 %
Extraction speed 2.5 X
Track quality 100.0 %
Test CRC 16EDE9D5
Copy CRC 16EDE9D5
Track not present in AccurateRip database
Copy OK

Track 7

Filename E:\07 - Good Times Tomorrow, Hard Times Today.wav

Pre-gap length 0:00:00.01

Peak level 97.0 %
Extraction speed 2.7 X
Track quality 100.0 %
Test CRC 7FC13BA0
Copy CRC 7FC13BA0
Track not present in AccurateRip database
Copy OK

Track 8

Filename E:\08 - Two Kinds Of Love.wav

Pre-gap length 0:00:00.01

Peak level 97.0 %
Extraction speed 2.1 X
Track quality 99.9 %
Test CRC 05109955
Copy CRC 05109955
Track not present in AccurateRip database
Copy OK

Track 9

Filename E:\09 - You Just Can't Ride The Boxcars Anymore.wav

Pre-gap length 0:00:00.01

Peak level 97.0 %
Extraction speed 2.8 X
Track quality 100.0 %
Test CRC 6391A37C
Copy CRC 6391A37C
Track not present in AccurateRip database
Copy OK

Track 10

Filename E:\10 - Capturing The Flag.wav

Pre-gap length 0:00:00.01

Peak level 97.0 %
Extraction speed 2.2 X
Track quality 99.9 %
Test CRC E334A988
Copy CRC E334A988
Track not present in AccurateRip database
Copy OK

Track 11

Filename E:\11 - State Of My Union.wav

Pre-gap length 0:00:00.42

Peak level 97.0 %
Extraction speed 3.3 X
Track quality 100.0 %
Test CRC 679D7A27
Copy CRC 679D7A27
Track not present in AccurateRip database
Copy OK

Track 12

Filename E:\12 - Southside Of The Story.wav

Pre-gap length 0:00:03.00

Peak level 97.0 %
Extraction speed 2.1 X
Track quality 99.9 %
Test CRC 37AC9233
Copy CRC 37AC9233
Track not present in AccurateRip database
Copy OK

Track 13

Filename E:\13 - Child Bride.wav

Pre-gap length 0:00:01.72

Peak level 97.0 %
Extraction speed 3.3 X
Track quality 100.0 %
Test CRC 59849731
Copy CRC 59849731
Track not present in AccurateRip database
Copy OK

Track 14

Filename E:\14 - If I Were A Bramble And You Were A Rose.wav

Pre-gap length 0:00:01.74

Peak level 97.0 %
Extraction speed 3.4 X
Track quality 100.0 %
Test CRC F59E2246
Copy CRC F59E2246
Track not present in AccurateRip database
Copy OK

Track 15

Filename E:\15 - Looking For Lewis And Clark (BBC TV Whistle Test).wav

Pre-gap length 0:00:02.00

Peak level 97.0 %
Extraction speed 3.5 X
Track quality 100.0 %
Test CRC C2E8EB12
Copy CRC C2E8EB12
Track not present in AccurateRip database
Copy OK

Track 16

Filename E:\16 - Lights Of Downtown (Captain's Mix).wav

Pre-gap length 0:00:03.62

Peak level 97.0 %
Extraction speed 2.4 X
Track quality 99.9 %
Test CRC 91BFA533
Copy CRC 91BFA533
Track not present in AccurateRip database
Copy OK

Track 17

Filename E:\17 - Capturing The Flag (Captain's Mix).wav

Pre-gap length 0:00:02.00

Peak level 97.0 %
Extraction speed 2.5 X
Track quality 99.9 %
Test CRC 245E4356
Copy CRC 245E4356
Track not present in AccurateRip database
Copy OK

Track 18

Filename E:\18 - Christmas In New Zealand.wav

Pre-gap length 0:00:02.00

Peak level 97.0 %
Extraction speed 3.9 X
Track quality 100.0 %
Test CRC 885843F6
Copy CRC 885843F6
Track not present in AccurateRip database
Copy OK

Track 19

Filename E:\19 - Encore From Hell (Live).wav

Peak level 97.0 %
Extraction speed 3.8 X
Track quality 100.0 %
Test CRC 32F03559
Copy CRC 32F03559
Track not present in AccurateRip database
Copy OK


None of the tracks are present in the AccurateRip database

No errors occurred

End of status report

==== Log checksum 7EB46FCBAAB0B53CC27EA4253B41F3AD24C6B2F16EB79C113F9EFA2E4CE5BBDA ====

Exact Audio Copy V1.0 beta 3 from 29. August 2011

EAC extraction logfile from 19. February 2016, 21:39

The Long Ryders / Final Wild Songs (Disc 3)

Used drive : PLEXTOR DVDR PX-L890SA Adapter: 5 ID: 1

Read mode : Secure
Utilize accurate stream : Yes
Defeat audio cache : Yes
Make use of C2 pointers : No

Read offset correction : 6
Overread into Lead-In and Lead-Out : No
Fill up missing offset samples with silence : Yes
Delete leading and trailing silent blocks : No
Null samples used in CRC calculations : Yes
Used interface : Native Win32 interface for Win NT & 2000
Gap handling : Appended to previous track

Used output format : User Defined Encoder
Selected bitrate : 128 kBit/s
Quality : High
Add ID3 tag : No
Command line compressor : C:\Program Files (x86)\Exact Audio Copy\FLAC\FLAC.EXE
Additional command line options : -8 -V -T "ARTIST=%artist%" -T "TITLE=%title%" -T "ALBUM=%albumtitle%" -T "DATE=%year%" -T "TRACKNUMBER=%tracknr%" -T "TOTALTRACKS=%numtracks%" -T "GENRE=%genre%" -T "ALBUMARTIST=%albumartist%" -T "ALBUM ARTIST=%albumartist%" -T "COMMENT=EAC Secure Mode, Test & Copy, AccurateRip, FLAC -8" %source%


TOC of the extracted CD

Track | Start | Length | Start sector | End sector
––––––––––––––––––––––––––––-
1 | 0:00.00 | 3:20.46 | 0 | 15045
2 | 3:20.46 | 2:40.71 | 15046 | 27116
3 | 6:01.42 | 4:06.29 | 27117 | 45595
4 | 10:07.71 | 3:56.21 | 45596 | 63316
5 | 14:04.17 | 2:54.34 | 63317 | 76400
6 | 16:58.51 | 4:14.23 | 76401 | 95473
7 | 21:12.74 | 3:47.49 | 95474 | 112547
8 | 25:00.48 | 3:32.73 | 112548 | 128520
9 | 28:33.46 | 3:35.01 | 128521 | 144646
10 | 32:08.47 | 4:45.46 | 144647 | 166067
11 | 36:54.18 | 4:45.48 | 166068 | 187490
12 | 41:39.66 | 2:18.47 | 187491 | 197887
13 | 43:58.38 | 3:05.23 | 197888 | 211785
14 | 47:03.61 | 3:10.56 | 211786 | 226091
15 | 50:14.42 | 3:15.65 | 226092 | 240781
16 | 53:30.32 | 3:11.22 | 240782 | 255128
17 | 56:41.54 | 3:01.14 | 255129 | 268717
18 | 59:42.68 | 5:10.74 | 268718 | 292041
19 | 64:53.67 | 2:29.37 | 292042 | 303253
20 | 67:23.29 | 5:22.19 | 303254 | 327422
21 | 72:45.48 | 3:28.48 | 327423 | 343070


Track 1

Filename E:\01 - Gunslinger Man.wav

Pre-gap length 0:00:02.00

Peak level 97.0 %
Extraction speed 3.6 X
Track quality 100.0 %
Test CRC 5E904F12
Copy CRC 5E904F12
Track not present in AccurateRip database
Copy OK

Track 2

Filename E:\02 - I Want You Bad.wav

Pre-gap length 0:00:00.08

Peak level 97.0 %
Extraction speed 3.7 X
Track quality 100.0 %
Test CRC A2414A34
Copy CRC A2414A34
Track not present in AccurateRip database
Copy OK

Track 3

Filename E:\03 - A Stitch In Time.wav

Pre-gap length 0:00:00.16

Peak level 97.0 %
Extraction speed 4.3 X
Track quality 100.0 %
Test CRC E7ECAE06
Copy CRC E7ECAE06
Track not present in AccurateRip database
Copy OK

Track 4

Filename E:\04 - The Light Gets In The Way.wav

Pre-gap length 0:00:00.06

Peak level 97.0 %
Extraction speed 4.6 X
Track quality 100.0 %
Test CRC 9333E15D
Copy CRC 9333E15D
Track not present in AccurateRip database
Copy OK

Track 5

Filename E:\05 - Prairie Fire.wav

Peak level 97.0 %
Extraction speed 4.6 X
Track quality 100.0 %
Test CRC 940A5D06
Copy CRC 940A5D06
Track not present in AccurateRip database
Copy OK

Track 6

Filename E:\06 - Baby's In Toyland.wav

Pre-gap length 0:00:01.05

Peak level 97.0 %
Extraction speed 4.1 X
Track quality 99.9 %
Test CRC 903B4A99
Copy CRC 903B4A99
Track not present in AccurateRip database
Copy OK

Track 7

Filename E:\07 - Long Story Short.wav

Pre-gap length 0:00:00.17

Peak level 97.0 %
Extraction speed 5.3 X
Track quality 100.0 %
Test CRC 599A4CA7
Copy CRC 599A4CA7
Track not present in AccurateRip database
Copy OK

Track 8

Filename E:\08 - Man Of Misery.wav

Pre-gap length 0:00:00.29

Peak level 97.0 %
Extraction speed 5.4 X
Track quality 100.0 %
Test CRC C5482B34
Copy CRC C5482B34
Track not present in AccurateRip database
Copy OK

Track 9

Filename E:\09 - Harriet Tubman's Gonna Carry Me Home.wav

Pre-gap length 0:00:01.19

Peak level 97.0 %
Extraction speed 5.7 X
Track quality 100.0 %
Test CRC 8A2FF796
Copy CRC 8A2FF796
Track not present in AccurateRip database
Copy OK

Track 10

Filename E:\10 - The Rest Of My Days.wav

Pre-gap length 0:00:00.40

Peak level 97.0 %
Extraction speed 6.2 X
Track quality 100.0 %
Test CRC A8E2BB12
Copy CRC A8E2BB12
Track not present in AccurateRip database
Copy OK

Track 11

Filename E:\11 - Spectacular Fall.wav

Pre-gap length 0:00:00.73

Peak level 97.0 %
Extraction speed 6.4 X
Track quality 100.0 %
Test CRC 1F3218E8
Copy CRC 1F3218E8
Track not present in AccurateRip database
Copy OK

Track 12

Filename E:\12 - Ring Bells.wav

Pre-gap length 0:00:02.74

Peak level 97.0 %
Extraction speed 5.9 X
Track quality 100.0 %
Test CRC 0FB0E561
Copy CRC 0FB0E561
Track not present in AccurateRip database
Copy OK

Track 13

Filename E:\13 - 17 Ways.wav

Pre-gap length 0:00:01.35

Peak level 97.0 %
Extraction speed 6.4 X
Track quality 100.0 %
Test CRC 53C56B42
Copy CRC 53C56B42
Track not present in AccurateRip database
Copy OK

Track 14

Filename E:\14 - Basic Black.wav

Pre-gap length 0:00:00.18

Peak level 97.0 %
Extraction speed 6.5 X
Track quality 100.0 %
Test CRC CA9305AA
Copy CRC CA9305AA
Track not present in AccurateRip database
Copy OK

Track 15

Filename E:\15 - Pushin' Uphill.wav

Pre-gap length 0:00:00.64

Peak level 97.0 %
Extraction speed 5.1 X
Track quality 99.9 %
Test CRC 9E902DFB
Copy CRC 9E902DFB
Track not present in AccurateRip database
Copy OK

Track 16

Filename E:\16 - How Do We Feel What's Real.wav

Pre-gap length 0:00:00.74

Peak level 97.0 %
Extraction speed 6.9 X
Track quality 100.0 %
Test CRC BFA296BA
Copy CRC BFA296BA
Track not present in AccurateRip database
Copy OK

Track 17

Filename E:\17 - He's Got Himself A Young Girl (And He Can't Keep Up).wav

Pre-gap length 0:00:01.14

Peak level 97.0 %
Extraction speed 6.9 X
Track quality 100.0 %
Test CRC B4FF5739
Copy CRC B4FF5739
Track not present in AccurateRip database
Copy OK

Track 18

Filename E:\18 - He Can Hear His Brother Calling.wav

Pre-gap length 0:00:07.34

Peak level 97.0 %
Extraction speed 7.6 X
Track quality 100.0 %
Test CRC 0D70E4C1
Copy CRC 0D70E4C1
Track not present in AccurateRip database
Copy OK

Track 19

Filename E:\19 - Sad Sad Songs.wav

Pre-gap length 0:00:00.08

Peak level 97.0 %
Extraction speed 6.9 X
Track quality 100.0 %
Test CRC 39389DB2
Copy CRC 39389DB2
Track not present in AccurateRip database
Copy OK

Track 20

Filename E:\20 - Flak Jacket.wav

Pre-gap length 0:00:01.06

Peak level 97.0 %
Extraction speed 8.0 X
Track quality 100.0 %
Test CRC 0559714D
Copy CRC 0559714D
Track not present in AccurateRip database
Copy OK

Track 21

Filename E:\21 - Blues Theme.wav

Pre-gap length 0:00:01.00

Peak level 97.0 %
Extraction speed 7.6 X
Track quality 100.0 %
Test CRC B9E4B5D1
Copy CRC B9E4B5D1
Track not present in AccurateRip database
Copy OK


None of the tracks are present in the AccurateRip database

No errors occurred

End of status report

==== Log checksum 00FB6644F55701F662BCB9C4488236D3B79DB57FE01E0025CB5A17F1CF4D974D ====

Exact Audio Copy V1.0 beta 3 from 29. August 2011

EAC extraction logfile from 19. February 2016, 22:53

The Long Ryders / Final Wild Songs (Disc 4)

Used drive : PLEXTOR DVDR PX-L890SA Adapter: 5 ID: 1

Read mode : Secure
Utilize accurate stream : Yes
Defeat audio cache : Yes
Make use of C2 pointers : No

Read offset correction : 6
Overread into Lead-In and Lead-Out : No
Fill up missing offset samples with silence : Yes
Delete leading and trailing silent blocks : No
Null samples used in CRC calculations : Yes
Used interface : Native Win32 interface for Win NT & 2000
Gap handling : Appended to previous track

Used output format : User Defined Encoder
Selected bitrate : 128 kBit/s
Quality : High
Add ID3 tag : No
Command line compressor : C:\Program Files (x86)\Exact Audio Copy\FLAC\FLAC.EXE
Additional command line options : -8 -V -T "ARTIST=%artist%" -T "TITLE=%title%" -T "ALBUM=%albumtitle%" -T "DATE=%year%" -T "TRACKNUMBER=%tracknr%" -T "TOTALTRACKS=%numtracks%" -T "GENRE=%genre%" -T "ALBUMARTIST=%albumartist%" -T "ALBUM ARTIST=%albumartist%" -T "COMMENT=EAC Secure Mode, Test & Copy, AccurateRip, FLAC -8" %source%


TOC of the extracted CD

Track | Start | Length | Start sector | End sector
––––––––––––––––––––––––––––-
1 | 0:00.00 | 4:19.72 | 0 | 19496
2 | 4:19.72 | 3:38.13 | 19497 | 35859
3 | 7:58.10 | 2:54.64 | 35860 | 48973
4 | 10:52.74 | 2:25.71 | 48974 | 59919
5 | 13:18.70 | 3:56.33 | 59920 | 77652
6 | 17:15.28 | 4:07.56 | 77653 | 96233
7 | 21:23.09 | 3:03.11 | 96234 | 109969
8 | 24:26.20 | 3:00.66 | 109970 | 123535
9 | 27:27.11 | 4:22.11 | 123536 | 143196
10 | 31:49.22 | 4:16.68 | 143197 | 162464
11 | 36:06.15 | 4:09.46 | 162465 | 181185
12 | 40:15.61 | 4:13.64 | 181186 | 200224
13 | 44:29.50 | 2:47.14 | 200225 | 212763
14 | 47:16.64 | 2:43.47 | 212764 | 225035
15 | 50:00.36 | 3:25.59 | 225036 | 240469


Track 1

Filename E:\01 - Mason-Dixon Line.wav

Pre-gap length 0:00:02.00

Peak level 97.0 %
Extraction speed 2.9 X
Track quality 99.9 %
Test CRC FE852B09
Copy CRC FE852B09
Track not present in AccurateRip database
Copy OK

Track 2

Filename E:\02 - Time Keeps Traveling.wav

Peak level 97.0 %
Extraction speed 3.8 X
Track quality 100.0 %
Test CRC C1F31008
Copy CRC C1F31008
Track not present in AccurateRip database
Copy OK

Track 3

Filename E:\03 - (Sweet) Mental Revenge.wav

Peak level 97.0 %
Extraction speed 3.9 X
Track quality 100.0 %
Test CRC 73E3A66A
Copy CRC 73E3A66A
Track not present in AccurateRip database
Copy OK

Track 4

Filename E:\04 - Run Dusty Run.wav

Peak level 97.0 %
Extraction speed 4.0 X
Track quality 100.0 %
Test CRC E0991544
Copy CRC E0991544
Track not present in AccurateRip database
Copy OK

Track 5

Filename E:\05 - You Don't Know What's Right, You Don't Know What's Wrong.wav

Peak level 97.0 %
Extraction speed 4.6 X
Track quality 100.0 %
Test CRC 44BDC695
Copy CRC 44BDC695
Track not present in AccurateRip database
Copy OK

Track 6

Filename E:\06 - As God Is My Witness.wav

Peak level 97.0 %
Extraction speed 4.9 X
Track quality 100.0 %
Test CRC A8E90037
Copy CRC A8E90037
Track not present in AccurateRip database
Copy OK

Track 7

Filename E:\07 - Ivory Tower.wav

Peak level 97.0 %
Extraction speed 4.9 X
Track quality 100.0 %
Test CRC E77885FD
Copy CRC E77885FD
Track not present in AccurateRip database
Copy OK

Track 8

Filename E:\08 - I Can't Hide.wav

Peak level 97.0 %
Extraction speed 5.0 X
Track quality 100.0 %
Test CRC 544E3A41
Copy CRC 544E3A41
Track not present in AccurateRip database
Copy OK

Track 9

Filename E:\09 - Masters Of War.wav

Pre-gap length 0:00:02.10

Peak level 97.0 %
Extraction speed 5.6 X
Track quality 100.0 %
Test CRC B10CDA77
Copy CRC B10CDA77
Track not present in AccurateRip database
Copy OK

Track 10

Filename E:\10 - Wreck Of The 809.wav

Peak level 97.0 %
Extraction speed 5.8 X
Track quality 100.0 %
Test CRC EF5840AC
Copy CRC EF5840AC
Track not present in AccurateRip database
Copy OK

Track 11

Filename E:\11 - Good Times Tomorrow, Hard Times Today.wav

Peak level 97.0 %
Extraction speed 6.0 X
Track quality 100.0 %
Test CRC 280583DA
Copy CRC 280583DA
Track not present in AccurateRip database
Copy OK

Track 12

Filename E:\12 - Six Days On The Road.wav

Peak level 97.0 %
Extraction speed 6.2 X
Track quality 100.0 %
Test CRC E0764B13
Copy CRC E0764B13
Track not present in AccurateRip database
Copy OK

Track 13

Filename E:\13 - Southside Of The Story.wav

Peak level 97.0 %
Extraction speed 6.0 X
Track quality 100.0 %
Test CRC 20191483
Copy CRC 20191483
Track not present in AccurateRip database
Copy OK

Track 14

Filename E:\14 - Still Get By.wav

Peak level 97.0 %
Extraction speed 6.1 X
Track quality 100.0 %
Test CRC 7A948B65
Copy CRC 7A948B65
Track not present in AccurateRip database
Copy OK

Track 15

Filename E:\15 - Tell It To The Judge On Sunday.wav

Peak level 97.0 %
Extraction speed 6.5 X
Track quality 100.0 %
Test CRC 4E001B5A
Copy CRC 4E001B5A
Track not present in AccurateRip database
Copy OK


None of the tracks are present in the AccurateRip database

No errors occurred

End of status report

==== Log checksum BC9C6A089B76F342FFFC7583F47E45DF53A1B462BBB835D38003D58D4F5F83FD ====


The Long Ryders - Final Wild Songs (2016) {4CD Box Set, Cherry Red ‎Records CRCDBOX21 rec 1983-1986}



===