Tags
Language
Tags
April 2024
Su Mo Tu We Th Fr Sa
31 1 2 3 4 5 6
7 8 9 10 11 12 13
14 15 16 17 18 19 20
21 22 23 24 25 26 27
28 29 30 1 2 3 4

Loredana Bertè - LiBertè (Sanremo Edition) (2018/2019)

Posted By: delpotro
Loredana Bertè - LiBertè (Sanremo Edition) (2018/2019)

Loredana Bertè - LiBertè (Sanremo Edition) (2018/2019)
EAC Rip | FLAC (tracks+log+.cue) - 378 Mb | MP3 CBR 320 kbps - 137 Mb | Covers included | 00:50:59
Pop Rock, Female Vocal | Label: Warner Bros. Records

LiBerté is the sixteenth studio album of the Italian singer Loredana Bertè, released on September 28, 2018.

Anticipato il 21 settembre dai singoli Maledetto luna-park e Babilonia (brano originariamente scartato dal Festival di Sanremo 2018), l'album rappresenta il primo dai tempi di Babybertè a contenere esclusivamente inediti. La produzione del disco è affidata a Luca Chiaravalli, mentre tra gli autori dei brani, oltre alla stessa Bertè, figurano i nomi di Ivano Fossati, Maurizio Piccoli, Fabio Ilacqua e Gerardo Pulli. Nella lista tracce dell'album appare inoltre il brano Non ti dico no, inciso in collaborazione con i Boomdabash e pubblicato nel loro album Barracuda.

In varie interviste la stessa Loredana ha dichiarato che il titolo dell'album rappresenta un manifesto della sua vita: vissuta in assoluta libertà e senza rimpianti.

Per la copertina è stato scelto uno scatto del fotografo italiano Giovanni Squatriti in cui la Bertè è ritratta mentre indossa una camicia di forza da cui si libera con fierezza, enfatizzando il concetto creativo legato al titolo. Infatti l'artista ha citato l'immagine come un "Ricordo di una disavventura psichiatrica di qualche anno fa". Una serie di immagini inedite di Squatriti sono presenti anche nel libretto interno al disco, che diventa interattivo grazie alla "realtà aumentata": attraverso un'app che si scarica gratuitamente, inquadrando con lo smartphone alcuni punti del nuovo album si attiveranno video e contenuti speciali firmati dalla stessa artista.
Tracklist:
1. Loredana Bertè – Intro (00:16)
2. Loredana Bertè – LiBerté (03:11)
3. Loredana Bertè – Cosa ti aspetti da me (03:44)
4. Loredana Bertè – Maledetto Luna-Park (03:10)
5. Loredana Bertè – Babilonia (03:17)
6. Loredana Bertè – Una donna come me (03:52)
7. Loredana Bertè – Messaggio dalla luna (03:37)
8. Loredana Bertè – Anima carbone (03:33)
9. Loredana Bertè – Tutti in paradiso (03:12)
10. Loredana Bertè – Davvero (03:19)
11. Loredana Bertè – Gira ancora (03:01)
12. Loredana Bertè & BoomDaBash – Non ti dico no (03:09)
13. Loredana Bertè – Outro (00:52)
14. Loredana Bertè – Petala / Esquinas / Jazz (Live) (05:47)
15. Loredana Bertè – Stare fuori / Madre metropoli / Indocina (Live) (06:50)

Exact Audio Copy V1.3 from 2. September 2016

EAC extraction logfile from 9. February 2019, 14:50

Loredana Bertè / LiBertè (Sanremo Edition)

Used drive : ASUS BC-12D2HT Adapter: 0 ID: 0

Read mode : Secure
Utilize accurate stream : Yes
Defeat audio cache : Yes
Make use of C2 pointers : No

Read offset correction : 6
Overread into Lead-In and Lead-Out : No
Fill up missing offset samples with silence : Yes
Delete leading and trailing silent blocks : No
Null samples used in CRC calculations : Yes
Used interface : Installed external ASPI interface
Gap handling : Appended to previous track

Used output format : User Defined Encoder
Selected bitrate : 1024 kBit/s
Quality : High
Add ID3 tag : No
Command line compressor : C:\Program Files (x86)\Exact Audio Copy\FLAC\FLAC.EXE
Additional command line options : -8 -V -T "Artist=%artist%" -T "Title=%title%" -T "Album=%albumtitle%" -T "DATE=%year%" -T "TRACKNUMBER=%tracknr%" -T "Genre=%genre%" -T "ALBUMARTIST=%albumartist%" -T "ALBUM ARTIST=%albumartist%" -T "COMMENT=EAC Secure Mode, Test & Copy, AccurateRip, FLAC -8" %source%


TOC of the extracted CD

Track | Start | Length | Start sector | End sector
––––––––––––––––––––––––––––-
1 | 0:00.00 | 0:17.21 | 0 | 1295
2 | 0:17.21 | 3:11.09 | 1296 | 15629
3 | 3:28.30 | 3:44.13 | 15630 | 32442
4 | 7:12.43 | 3:10.08 | 32443 | 46700
5 | 10:22.51 | 3:17.62 | 46701 | 61537
6 | 13:40.38 | 3:52.60 | 61538 | 78997
7 | 17:33.23 | 3:37.22 | 78998 | 95294
8 | 21:10.45 | 3:33.26 | 95295 | 111295
9 | 24:43.71 | 3:12.33 | 111296 | 125728
10 | 27:56.29 | 3:19.47 | 125729 | 140700
11 | 31:16.01 | 3:01.18 | 140701 | 154293
12 | 34:17.19 | 3:09.74 | 154294 | 168542
13 | 37:27.18 | 0:52.17 | 168543 | 172459
14 | 38:19.35 | 5:47.47 | 172460 | 198531
15 | 44:07.07 | 6:52.57 | 198532 | 229488


Track 1

Filename C:\EAC\01. Loredana Bertè - Intro.wav

Pre-gap length 0:00:02.00

Peak level 35.6 %
Extraction speed 0.8 X
Track quality 99.3 %
Test CRC 12F72656
Copy CRC 12F72656
Track not present in AccurateRip database
Copy OK

Track 2

Filename C:\EAC\02. Loredana Bertè - LiBertè.wav

Peak level 96.6 %
Extraction speed 4.3 X
Track quality 100.0 %
Test CRC 98CA1E91
Copy CRC 98CA1E91
Track not present in AccurateRip database
Copy OK

Track 3

Filename C:\EAC\03. Loredana Bertè - Cosa ti aspetti da me.wav

Pre-gap length 0:00:00.77

Peak level 96.6 %
Extraction speed 4.8 X
Track quality 100.0 %
Test CRC 0E0952E0
Copy CRC 0E0952E0
Track not present in AccurateRip database
Copy OK

Track 4

Filename C:\EAC\04. Loredana Bertè - Maledetto Luna-Park.wav

Peak level 96.6 %
Extraction speed 5.0 X
Track quality 100.0 %
Test CRC B94C90A9
Copy CRC B94C90A9
Track not present in AccurateRip database
Copy OK

Track 5

Filename C:\EAC\05. Loredana Bertè - Babilonia.wav

Pre-gap length 0:00:00.81

Peak level 96.3 %
Extraction speed 5.4 X
Track quality 100.0 %
Test CRC 1CD5553D
Copy CRC 1CD5553D
Track not present in AccurateRip database
Copy OK

Track 6

Filename C:\EAC\06. Loredana Bertè - Una donna come me.wav

Pre-gap length 0:00:01.06

Peak level 96.6 %
Extraction speed 5.8 X
Track quality 100.0 %
Test CRC 8EC3DA80
Copy CRC 8EC3DA80
Track not present in AccurateRip database
Copy OK

Track 7

Filename C:\EAC\07. Loredana Bertè - Messaggio dalla luna.wav

Pre-gap length 0:00:00.81

Peak level 100.0 %
Extraction speed 6.1 X
Track quality 100.0 %
Test CRC 04494C0D
Copy CRC 04494C0D
Track not present in AccurateRip database
Copy OK

Track 8

Filename C:\EAC\08. Loredana Bertè - Anima carbone.wav

Pre-gap length 0:00:01.12

Peak level 96.6 %
Extraction speed 6.4 X
Track quality 100.0 %
Test CRC 59D6B230
Copy CRC 59D6B230
Track not present in AccurateRip database
Copy OK

Track 9

Filename C:\EAC\09. Loredana Bertè - Tutti in paradiso.wav

Pre-gap length 0:00:00.96

Peak level 96.9 %
Extraction speed 6.6 X
Track quality 100.0 %
Test CRC AFF51D80
Copy CRC AFF51D80
Track not present in AccurateRip database
Copy OK

Track 10

Filename C:\EAC\10. Loredana Bertè - Davvero.wav

Pre-gap length 0:00:00.08

Peak level 96.6 %
Extraction speed 6.8 X
Track quality 100.0 %
Test CRC DF95E28D
Copy CRC DF95E28D
Track not present in AccurateRip database
Copy OK

Track 11

Filename C:\EAC\11. Loredana Bertè - Gira ancora.wav

Pre-gap length 0:00:00.76

Peak level 100.0 %
Extraction speed 5.6 X
Track quality 99.9 %
Test CRC 6499DBC8
Copy CRC 6499DBC8
Track not present in AccurateRip database
Copy OK

Track 12

Filename C:\EAC\12. BoomDaBash & Loredana Bertè - Non ti dico no.wav

Pre-gap length 0:00:00.97

Peak level 94.6 %
Extraction speed 7.2 X
Track quality 100.0 %
Test CRC 6371AEC0
Copy CRC 6371AEC0
Track not present in AccurateRip database
Copy OK

Track 13

Filename C:\EAC\13. Loredana Bertè - Outro.wav

Pre-gap length 0:00:00.42

Peak level 68.3 %
Extraction speed 5.2 X
Track quality 100.0 %
Test CRC 94C446B4
Copy CRC 94C446B4
Track not present in AccurateRip database
Copy OK

Track 14

Filename C:\EAC\14. Loredana Bertè - Petala - Esquinas - Jazz (Live).wav

Pre-gap length 0:00:01.97

Peak level 99.6 %
Extraction speed 8.1 X
Track quality 100.0 %
Test CRC 33706FF9
Copy CRC 33706FF9
Track not present in AccurateRip database
Copy OK

Track 15

Filename C:\EAC\15. Loredana Bertè - Stare fuori - Madre metropoli - Indocina (Live).wav

Pre-gap length 0:00:00.88

Peak level 100.0 %
Extraction speed 8.7 X
Track quality 100.0 %
Test CRC 0B82DDC0
Copy CRC 0B82DDC0
Track not present in AccurateRip database
Copy OK


None of the tracks are present in the AccurateRip database

No errors occurred

End of status report

–– CUETools DB Plugin V2.1.6

[CTDB TOCID: Cczsp5sRP1BZuDXxpRQkKXe4egk-] disk not present in database
Submit result: Cczsp5sRP1BZuDXxpRQkKXe4egk- has been uploaded


==== Log checksum 32312AB6A08EF11344249ECA3719DD15D5A8277D882AD8D4230ADCF439359653 ====

Thanks to the Original ripper marcorocca !