Tags
Language
Tags

Magnum Band - Pike Devan

Posted By: inconu
Magnum Band - Pike Devan

Magnum Band - Pike Devan
Haitian Band | 282 MB | EAC Rip | FLAC + CUE | Separate Track | Cover | 1981 | 5% Recovery rar | RS.com

Already 30 years since this group burst on the Haitian musical. And it is still going as strong as ever.There are many Haitian bands, of course, but there aren’t too many which have such a distinct sound and identity as the Magnum Band.
Band leader/lead & background vocals guitar: Dadou Pasquet
Drums: Tico Pasquet
Bass guitar: Nasser Chery
Lead & background vocals percussion: Yvon Mondesir
Tom& cow bell: Ernest Gabriel
Congas: Pierre Varnel
Keyboards: Chris Fletcher
Guests: Rom Warfel (trombone) - Bob Curtiss (Sax) - G. Veilleux (trumpet) - Carlos Pasquet (background vocals)

01 - Pike Devan (zouke)
02 - Way To Heaven (gran chimin)
03 - Ki Mele'M
04 - Courage
05 - Pa Pale La

V0.99 prebeta 4 from 23. January 2008
Journal d'extraction EAC depuis 28. Juillet 2009, 20:55
Magnum Band / La Seule Difference
Lecteur utilisé : TSSTcorpCDDVDW SH-S203B Adapter: 0 ID: 0
Mode lecture : :
: Oui
: Non
: Non
Correction offset écriture : : 6
Lecture étendue en lead-in et lead-out : Non
Remplacer les samples manquants par du silence : Oui
Effacer les blocs silencieux situés en début et fin : Non
: Non
: Interface native Win32 pour Win NT & 2000
Format de sortie utilisé : : Encodeur défini par l'utilisateur
: 1024 kBit/s
: Haut
: Non
: C:\Program Files\FLAC\flac.exe
| | | |
––––––––––––––––––––––
1 | 0:00.37 | 8:25.10 | 37 | 37921
2 | 8:25.47 | 4:23.38 | 37922 | 57684
3 | 12:49.10 | 8:03.02 | 57685 | 93911
4 | 20:52.12 | 9:39.20 | 93912 | 137356
5 | 30:31.32 | 8:57.15 | 137357 | 177646

Propriétés États et Erreurs
Gammes sélectionnées
Nom fichier C:\Documents and Settings\Administrateur\Mes documents\Magnum Band - La Seule Difference.wav
Niveau max 100.0 %
qualité intervalle 99.9 %
Copie CRC CB019D86
Copie Ok
Pas d'erreur apparue
Piste 1
Piste 2
Piste 3
Piste 4
Piste 5

Fin du rapport d'état