Tags
Language
Tags
June 2024
Su Mo Tu We Th Fr Sa
26 27 28 29 30 31 1
2 3 4 5 6 7 8
9 10 11 12 13 14 15
16 17 18 19 20 21 22
23 24 25 26 27 28 29
30 1 2 3 4 5 6

Mick Chillage - Variants Of Perception (2022)

Posted By: delpotro
Mick Chillage - Variants Of Perception (2022)

Mick Chillage - Variants Of Perception (2022)
XLD Rip | FLAC (tracks+log+.cue) - 367 Mb | MP3 CBR 320 kbps - 178 Mb | 01:17:22
Electronic, Ambient, Downtempo, IDM | Label: Carpe Sonum Records

Variants of Perception was originally released on Carpe Sonum Records in Spring of 2022. Comprising of tracks recorded between 2019 & 2020 the album sees me returning to my trademark mixture of deep Ambient tones & atmospheres with a mix of various electronic music influences with moments of Intricate IDM beats, Dub & downtempo breakbeat etc but with a generous sprinkling of improvised leads and emotive melodic flourishes. Resulting in a rather personal exploration of what it is to be human and triggers memories, feelings & emotions through contemporary & sometimes experimental electronic sound.

A man of prolific means and invention to match, Mick Chillage is one of those names virtually synonymous with deep, high-quality, far-reaching electronic music, an artist who easily glides between modes of ambience and rhythmic facility with a finely-honed, agile grace. His return to the Carpe Sonum fold is no less dramatic. The lengthy pieces adorning this latest work allow the artist’s usual stately pace to run free and allow his gradually dawning motifs room to pulse and breathe; ten minutes of a typical Chillage piece often exposes more ideas per second than other artist’s whole volumes. The dramatis analogae of “Echoes of Perception” takes in a veritable smorgasbord of synths, modules, pads, sequencers, bass, and perambulating ghost-voices that together paint a unearthly picture teeming with all sorts of wonderfully devised gossamer and broad, electronic gimcrackery. His many collaborations with Lee Norris as Autumn of Communion seemed to have rubbed off on this one, as Chillage fairly revels in a bubbling tableau of starshine beats, spaced-out shimmer, and supple beds of pillowly-soft rhythmatix. “A Recollection of Distant Environments” finds him channelling the ever-present (and reverential) Namlookisms of yore but skewed through a Berlin school filter of chocolate-coated sequencers, and the kind of beat structure so beloved of IDMers from Boards of Canada to Black Dog, further reincarnated from late 90s imprints such as n5MD, De:focus, and Rephlex. Sweet licorice labyrinths of sonic perambula to get all twisty in.
Tracklist:
1. Echoes Of Perception (10:16)
2. Every Reaction (09:26)
3. The Specious Present (13:09)
4. A Recollection Of Distant Environments (14:26)
5. Idealisation (15:05)
6. Memories Of 1978 (06:52)
7. The Good in People (08:09)

X Lossless Decoder version 20211018 (154.0)

XLD extraction logfile from 2022-07-11 14:01:00 -0600

Mick Chillage / Variants of Perception

Used drive : Apple SuperDrive (revision 2.03)
Media type : Pressed CD

Ripper mode : XLD Secure Ripper
Disable audio cache : OK for the drive with a cache less than 1375KiB
Make use of C2 pointers : NO
Read offset correction : 6
Max retry count : 20
Gap status : Analyzed, Appended (except HTOA)

TOC of the extracted CD
Track | Start | Length | Start sector | End sector
––––––––––––––––––––––––––––-
1 | 00:00:00 | 10:15:53 | 0 | 46177
2 | 10:15:53 | 09:26:22 | 46178 | 88649
3 | 19:42:00 | 13:09:00 | 88650 | 147824
4 | 32:51:00 | 14:26:00 | 147825 | 212774
5 | 47:17:00 | 15:05:00 | 212775 | 280649
6 | 62:22:00 | 06:52:00 | 280650 | 311549
7 | 69:14:00 | 08:08:62 | 311550 | 348211

AccurateRip Summary
Disc not found in AccurateRip DB.

All Tracks
Album gain : -3.55 dB
Peak : 0.977448
Statistics
Read error : 0
Jitter error (maybe fixed) : 0
Retry sector count : 0
Damaged sector count : 0

Track 01
Filename : /Users/Shared/rips/ Mick Chillage - Variants of Perception (2022) [FLAC]/01 - Echoes of Perception.flac
Pre-gap length : 00:02:00

Track gain : -2.59 dB
Peak : 0.953339
CRC32 hash (test run) : B45CDC2F
CRC32 hash : B45CDC2F
CRC32 hash (skip zero) : 093D94CD
AccurateRip v1 signature : FB552C5E
AccurateRip v2 signature : A8360C6F
->Track not present in AccurateRip database.
Statistics
Read error : 0
Jitter error (maybe fixed) : 0
Retry sector count : 0
Damaged sector count : 0

Track 02
Filename : /Users/Shared/rips/ Mick Chillage - Variants of Perception (2022) [FLAC]/02 - Every Reaction.flac

Track gain : -3.29 dB
Peak : 0.961365
CRC32 hash (test run) : BCD99D3F
CRC32 hash : BCD99D3F
CRC32 hash (skip zero) : 62C11AF3
AccurateRip v1 signature : ACD666B7
AccurateRip v2 signature : CCB1DB4C
->Track not present in AccurateRip database.
Statistics
Read error : 0
Jitter error (maybe fixed) : 0
Retry sector count : 0
Damaged sector count : 0

Track 03
Filename : /Users/Shared/rips/ Mick Chillage - Variants of Perception (2022) [FLAC]/03 - The Specious Present.flac

Track gain : -4.32 dB
Peak : 0.947662
CRC32 hash (test run) : 6B722FBB
CRC32 hash : 6B722FBB
CRC32 hash (skip zero) : ED39C0D5
AccurateRip v1 signature : 7873EDD4
AccurateRip v2 signature : 09E663F1
->Track not present in AccurateRip database.
Statistics
Read error : 0
Jitter error (maybe fixed) : 0
Retry sector count : 0
Damaged sector count : 0

Track 04
Filename : /Users/Shared/rips/ Mick Chillage - Variants of Perception (2022) [FLAC]/04 - A Recollection of Distant Environments.flac

Track gain : -3.42 dB
Peak : 0.962555
CRC32 hash (test run) : 70C9ED1B
CRC32 hash : 70C9ED1B
CRC32 hash (skip zero) : 7581D680
AccurateRip v1 signature : BD47E484
AccurateRip v2 signature : 09A53F8B
->Track not present in AccurateRip database.
Statistics
Read error : 0
Jitter error (maybe fixed) : 0
Retry sector count : 0
Damaged sector count : 0

Track 05
Filename : /Users/Shared/rips/ Mick Chillage - Variants of Perception (2022) [FLAC]/05 - Idealisation.flac

Track gain : -0.38 dB
Peak : 0.977448
CRC32 hash (test run) : 776BA77E
CRC32 hash : 776BA77E
CRC32 hash (skip zero) : F0A7054F
AccurateRip v1 signature : 6B41E385
AccurateRip v2 signature : 2FE0B72D
->Track not present in AccurateRip database.
Statistics
Read error : 0
Jitter error (maybe fixed) : 0
Retry sector count : 0
Damaged sector count : 0

Track 06
Filename : /Users/Shared/rips/ Mick Chillage - Variants of Perception (2022) [FLAC]/06 - Mermories of 1978.flac

Track gain : -5.10 dB
Peak : 0.949799
CRC32 hash (test run) : A9A033B2
CRC32 hash : A9A033B2
CRC32 hash (skip zero) : 4D9596F7
AccurateRip v1 signature : 9489650C
AccurateRip v2 signature : 87EA35E7
->Track not present in AccurateRip database.
Statistics
Read error : 0
Jitter error (maybe fixed) : 0
Retry sector count : 0
Damaged sector count : 0

Track 07
Filename : /Users/Shared/rips/ Mick Chillage - Variants of Perception (2022) [FLAC]/07 - The Good in People.flac

Track gain : -5.02 dB
Peak : 0.946014
CRC32 hash (test run) : E4D594D3
CRC32 hash : E4D594D3
CRC32 hash (skip zero) : 8BD233B9
AccurateRip v1 signature : C640546A
AccurateRip v2 signature : 22C33E43
->Track not present in AccurateRip database.
Statistics
Read error : 0
Jitter error (maybe fixed) : 0
Retry sector count : 0
Damaged sector count : 0

No errors occurred

End of status report

––-BEGIN XLD SIGNATURE––-
6ka1Gtqg0LbW4mo7rE6Q2MRM8l7BT0gApkANi8n0dj.6ce3N7ohmiPM_71Xp.DjOKPjVp.Rio9R4vA1ROxFeytEjQQH2NXCHrsozBzm
––-END XLD SIGNATURE––-

Thanks to the Original ripper !