Tags
Language
Tags

Miles Davis - On The Crest Of The Airwaves (2011) {4CD Set Rock Melon Music RMBOX3 rec 1970, 1988}

Posted By: ruskaval
Miles Davis - On The Crest Of The Airwaves (2011) {4CD Set Rock Melon Music RMBOX3 rec 1970, 1988}

Miles Davis - On The Crest Of The Airwaves (2011) {4CD Set Rock Melon Music RMBOX3 rec 1970, 1988}
EAC rip (secure mode) | FLAC (tracks)+CUE+LOG -> 1.30 Gb | MP3 @320 -> 617 Mb
Full Artwork @ 600 dpi (png) -> 111 Mb | 5% repair rar
© 1970, 1988, 2011 Rock Melon Music | RMBOX3
Jazz / Jazz Funk / Fusion / Trumpet

4 x CD in book/DVD-style tall packaging. Containing 3 rare and previously unreleased concerts from San Francisco 1970, England 1970 and Melbourne Australia 1988. These concerts highlight the genius that was Miles Davies and are also an important piece of jazz history. All discs have been digitally remastered for superior sound quality .The iconic artwork and in dept sleeve notes make this a must have release for all true jazz fans.

Personnel: Miles Davis (tp); Gary Bartz (ss, as); Chick Corea (el-p); Keith Jarrett (org); Dave Holland (b, el-b); Jack DeJohnette (d); Airto Moreira (perc); Michael Henderson (el-b); Jumma Santos [Jim Riley] (perc); Robert Irving III, Adam Holzman (synth); Joe "Foley" McCreary (lead-b); Benny Rietveld (el-b); Ricky Wellman (d); Marilyn Mazur (perc).

tracklist:
Disc 1: Live At The Berkshire Music Center Tanglewood (18.8.1970)


Directions
Bitches Brew
It's All About That Time
Sanctuary
Spanish Key/The Theme
Miles Runs The Voodoo Down

Disc 2: Live At The Fillmore West, San Francisco, (15.10.1970)

Honky Tonk
What I Say
Sanctuary
Yesternow
Bitches Brew
Funky Tonk/The Theme

Disc 3: Live At The Concert Hall, Melbourne, (2.5.1988)

In A Silent Way - Intruder
New Blues (Star People)
Perfect Way
The Senate - You And Me
Human Nature
Wrinkle
Tutu
Movie Star
Splatch

Disc 4: Live At The Concert Hall , Melborne (Cont)

Time After Time
Heavy Metal
Don't Stop Me Now
Carnival Time
Tomaas
Burn
Portia

Exact Audio Copy V1.0 beta 3 from 29. August 2011

EAC extraction logfile from 24. December 2011, 23:54

Miles Davis / On The Crest Of The Airwaves (CD1)

Used drive : PIONEER DVD-RW DVR-111L Adapter: 0 ID: 0

Read mode : Secure
Utilize accurate stream : Yes
Defeat audio cache : Yes
Make use of C2 pointers : No

Read offset correction : 48
Overread into Lead-In and Lead-Out : No
Fill up missing offset samples with silence : Yes
Delete leading and trailing silent blocks : No
Null samples used in CRC calculations : Yes
Used interface : Native Win32 interface for Win NT & 2000
Gap handling : Appended to previous track

Used output format : User Defined Encoder
Selected bitrate : 1024 kBit/s
Quality : High
Add ID3 tag : No
Command line compressor : C:\Program Files\Exact Audio Copy\Flac\flac.exe
Additional command line options : -8 -V -T "ARTIST=%artist%" -T "TITLE=%title%" -T "ALBUM=%albumtitle%" -T "DATE=%year%" -T "TRACKNUMBER=%tracknr%" -T "GENRE=%genre%" -T "PERFORMER=%albuminterpret%" -T "COMPOSER=%composer%" %haslyrics%–tag-from-file=LYRICS="%lyricsfile%"%haslyrics% -T "ALBUMARTIST=%albumartist%" -T "DISCNUMBER=%cdnumber%" -T "TOTALDISCS=%totalcds%" -T "TOTALTRACKS=%numtracks%" -T "COMMENT=%comment%" %source% -o %dest%


TOC of the extracted CD

Track | Start | Length | Start sector | End sector
––––––––––––––––––––––––––––-
1 | 0:00.00 | 8:13.61 | 0 | 37035
2 | 8:13.61 | 13:33.09 | 37036 | 98019
3 | 21:46.70 | 7:10.08 | 98020 | 130277
4 | 28:57.03 | 1:36.32 | 130278 | 137509
5 | 30:33.35 | 6:26.74 | 137510 | 166533
6 | 37:00.34 | 4:50.52 | 166534 | 188335


Track 1

Filename E:\EAC\Miles Davis - On The Crest Of The Airwaves (2011) [4CD] {Rock Melon}\CD1\01 - Directions.wav

Pre-gap length 0:00:02.00

Peak level 97.2 %
Extraction speed 1.7 X
Track quality 100.0 %
Test CRC D23852B1
Copy CRC D23852B1
Track not present in AccurateRip database
Copy OK

Track 2

Filename E:\EAC\Miles Davis - On The Crest Of The Airwaves (2011) [4CD] {Rock Melon}\CD1\02 - Bitches Brew.wav

Peak level 98.3 %
Extraction speed 2.2 X
Track quality 100.0 %
Test CRC 3B22F453
Copy CRC 3B22F453
Track not present in AccurateRip database
Copy OK

Track 3

Filename E:\EAC\Miles Davis - On The Crest Of The Airwaves (2011) [4CD] {Rock Melon}\CD1\03 - It's All About That Time.wav

Peak level 98.6 %
Extraction speed 2.4 X
Track quality 100.0 %
Test CRC 0BD039A9
Copy CRC 0BD039A9
Track not present in AccurateRip database
Copy OK

Track 4

Filename E:\EAC\Miles Davis - On The Crest Of The Airwaves (2011) [4CD] {Rock Melon}\CD1\04 - Sanctuary.wav

Peak level 97.4 %
Extraction speed 2.0 X
Track quality 100.0 %
Test CRC 62AAB013
Copy CRC 62AAB013
Track not present in AccurateRip database
Copy OK

Track 5

Filename E:\EAC\Miles Davis - On The Crest Of The Airwaves (2011) [4CD] {Rock Melon}\CD1\05 - Spanish Key , The Theme.wav

Peak level 98.1 %
Extraction speed 2.6 X
Track quality 100.0 %
Test CRC C69D4F5C
Copy CRC C69D4F5C
Track not present in AccurateRip database
Copy OK

Track 6

Filename E:\EAC\Miles Davis - On The Crest Of The Airwaves (2011) [4CD] {Rock Melon}\CD1\06 - Miles Runs The Voodoo Down.wav

Peak level 97.4 %
Extraction speed 2.7 X
Track quality 100.0 %
Test CRC 5B16EE07
Copy CRC 5B16EE07
Track not present in AccurateRip database
Copy OK


None of the tracks are present in the AccurateRip database

No errors occurred

End of status report

–– CUETools DB Plugin V2.1.3

[CTDB TOCID: rmcRVF53BNTjIpm0xXUCKOcADa4-] disk not present in database, Submit result: rmcRVF53BNTjIpm0xXUCKOcADa4- has been uploaded


==== Log checksum 216D5F0EE83AD81B11B35EF930F19BF32231027796E7DD3FD65B961D9A7726F2 ====

Exact Audio Copy V1.0 beta 3 from 29. August 2011

EAC extraction logfile from 25. December 2011, 1:19

Miles Davis / On The Crest Of The Airwaves (CD2)

Used drive : PIONEER DVD-RW DVR-111L Adapter: 0 ID: 0

Read mode : Secure
Utilize accurate stream : Yes
Defeat audio cache : Yes
Make use of C2 pointers : No

Read offset correction : 48
Overread into Lead-In and Lead-Out : No
Fill up missing offset samples with silence : Yes
Delete leading and trailing silent blocks : No
Null samples used in CRC calculations : Yes
Used interface : Native Win32 interface for Win NT & 2000
Gap handling : Appended to previous track

Used output format : User Defined Encoder
Selected bitrate : 1024 kBit/s
Quality : High
Add ID3 tag : No
Command line compressor : C:\Program Files\Exact Audio Copy\Flac\flac.exe
Additional command line options : -8 -V -T "ARTIST=%artist%" -T "TITLE=%title%" -T "ALBUM=%albumtitle%" -T "DATE=%year%" -T "TRACKNUMBER=%tracknr%" -T "GENRE=%genre%" -T "PERFORMER=%albuminterpret%" -T "COMPOSER=%composer%" %haslyrics%–tag-from-file=LYRICS="%lyricsfile%"%haslyrics% -T "ALBUMARTIST=%albumartist%" -T "DISCNUMBER=%cdnumber%" -T "TOTALDISCS=%totalcds%" -T "TOTALTRACKS=%numtracks%" -T "COMMENT=%comment%" %source% -o %dest%


TOC of the extracted CD

Track | Start | Length | Start sector | End sector
––––––––––––––––––––––––––––-
1 | 0:00.00 | 12:47.07 | 0 | 57531
2 | 12:47.07 | 11:02.05 | 57532 | 107186
3 | 23:49.12 | 3:19.16 | 107187 | 122127
4 | 27:08.28 | 14:11.50 | 122128 | 186002
5 | 41:20.03 | 8:44.26 | 186003 | 225328
6 | 50:04.29 | 12:59.40 | 225329 | 283793


Track 1

Filename E:\EAC\Miles Davis - On The Crest Of The Airwaves (2011) [4CD] {Rock Melon}\CD2\01 - Honky Tonk.wav

Pre-gap length 0:00:02.00

Peak level 100.0 %
Extraction speed 1.2 X
Track quality 100.0 %
Test CRC 3D1C056C
Copy CRC 3D1C056C
Track not present in AccurateRip database
Copy OK

Track 2

Filename E:\EAC\Miles Davis - On The Crest Of The Airwaves (2011) [4CD] {Rock Melon}\CD2\02 - What I Say.wav

Peak level 100.0 %
Extraction speed 1.5 X
Track quality 100.0 %
Test CRC 61A2AC70
Copy CRC 61A2AC70
Track not present in AccurateRip database
Copy OK

Track 3

Filename E:\EAC\Miles Davis - On The Crest Of The Airwaves (2011) [4CD] {Rock Melon}\CD2\03 - Sanctuary.wav

Peak level 90.3 %
Extraction speed 1.3 X
Track quality 99.9 %
Test CRC F34B9176
Copy CRC F34B9176
Track not present in AccurateRip database
Copy OK

Track 4

Filename E:\EAC\Miles Davis - On The Crest Of The Airwaves (2011) [4CD] {Rock Melon}\CD2\04 - Yesternow.wav

Peak level 95.2 %
Extraction speed 1.8 X
Track quality 100.0 %
Test CRC 3FAC02ED
Copy CRC 3FAC02ED
Track not present in AccurateRip database
Copy OK

Track 5

Filename E:\EAC\Miles Davis - On The Crest Of The Airwaves (2011) [4CD] {Rock Melon}\CD2\05 - Bitches Brew.wav

Peak level 94.8 %
Extraction speed 2.0 X
Track quality 100.0 %
Test CRC 6A537370
Copy CRC 6A537370
Track not present in AccurateRip database
Copy OK

Track 6

Filename E:\EAC\Miles Davis - On The Crest Of The Airwaves (2011) [4CD] {Rock Melon}\CD2\06 - Funky Tonk , The Theme.wav

Peak level 98.4 %
Extraction speed 2.1 X
Track quality 99.9 %
Test CRC 7587C661
Copy CRC 7587C661
Track not present in AccurateRip database
Copy OK


None of the tracks are present in the AccurateRip database

No errors occurred

End of status report

–– CUETools DB Plugin V2.1.3

[CTDB TOCID: 0lcLlu0E3JA6WXMPeNpEyXTOEOg-] disk not present in database, Submit result: 0lcLlu0E3JA6WXMPeNpEyXTOEOg- has been uploaded


==== Log checksum 7F2C8234EA4511A11789F780C164109EB28744670EB8ACE76D56EC06911EC810 ====

Exact Audio Copy V1.0 beta 3 from 29. August 2011

EAC extraction logfile from 25. December 2011, 1:48

Miles Davis / On The Crest Of The Airwaves (CD3)

Used drive : PIONEER DVD-RW DVR-111L Adapter: 0 ID: 0

Read mode : Secure
Utilize accurate stream : Yes
Defeat audio cache : Yes
Make use of C2 pointers : No

Read offset correction : 48
Overread into Lead-In and Lead-Out : No
Fill up missing offset samples with silence : Yes
Delete leading and trailing silent blocks : No
Null samples used in CRC calculations : Yes
Used interface : Native Win32 interface for Win NT & 2000
Gap handling : Appended to previous track

Used output format : User Defined Encoder
Selected bitrate : 1024 kBit/s
Quality : High
Add ID3 tag : No
Command line compressor : C:\Program Files\Exact Audio Copy\Flac\flac.exe
Additional command line options : -8 -V -T "ARTIST=%artist%" -T "TITLE=%title%" -T "ALBUM=%albumtitle%" -T "DATE=%year%" -T "TRACKNUMBER=%tracknr%" -T "GENRE=%genre%" -T "PERFORMER=%albuminterpret%" -T "COMPOSER=%composer%" %haslyrics%–tag-from-file=LYRICS="%lyricsfile%"%haslyrics% -T "ALBUMARTIST=%albumartist%" -T "DISCNUMBER=%cdnumber%" -T "TOTALDISCS=%totalcds%" -T "TOTALTRACKS=%numtracks%" -T "COMMENT=%comment%" %source% -o %dest%


TOC of the extracted CD

Track | Start | Length | Start sector | End sector
––––––––––––––––––––––––––––-
1 | 0:00.00 | 6:17.00 | 0 | 28274
2 | 6:17.00 | 7:55.33 | 28275 | 63932
3 | 14:12.33 | 4:38.00 | 63933 | 84782
4 | 18:50.33 | 10:31.52 | 84783 | 132159
5 | 29:22.10 | 13:41.26 | 132160 | 193760
6 | 43:03.36 | 4:54.16 | 193761 | 215826
7 | 47:57.52 | 13:23.27 | 215827 | 276078
8 | 61:21.04 | 3:52.70 | 276079 | 293548
9 | 65:13.74 | 9:27.43 | 293549 | 336116


Track 1

Filename E:\EAC\Miles Davis - On The Crest Of The Airwaves (2011) [4CD] {Rock Melon}\CD3\01 - In A Silent Way - Intruder.wav

Pre-gap length 0:00:02.00

Peak level 89.9 %
Extraction speed 4.9 X
Track quality 100.0 %
Test CRC 016D1F11
Copy CRC 016D1F11
Track not present in AccurateRip database
Copy OK

Track 2

Filename E:\EAC\Miles Davis - On The Crest Of The Airwaves (2011) [4CD] {Rock Melon}\CD3\02 - New Blues (Star People).wav

Peak level 93.2 %
Extraction speed 5.4 X
Track quality 99.9 %
Test CRC D637D3F2
Copy CRC D637D3F2
Track not present in AccurateRip database
Copy OK

Track 3

Filename E:\EAC\Miles Davis - On The Crest Of The Airwaves (2011) [4CD] {Rock Melon}\CD3\03 - Perfect Way.wav

Peak level 100.0 %
Extraction speed 5.7 X
Track quality 100.0 %
Test CRC 8D10A16F
Copy CRC 8D10A16F
Track not present in AccurateRip database
Copy OK

Track 4

Filename E:\EAC\Miles Davis - On The Crest Of The Airwaves (2011) [4CD] {Rock Melon}\CD3\04 - The Senate - You And Me.wav

Peak level 89.9 %
Extraction speed 7.0 X
Track quality 100.0 %
Test CRC E71D7669
Copy CRC E71D7669
Track not present in AccurateRip database
Copy OK

Track 5

Filename E:\EAC\Miles Davis - On The Crest Of The Airwaves (2011) [4CD] {Rock Melon}\CD3\05 - Human Nature.wav

Peak level 95.9 %
Extraction speed 7.7 X
Track quality 99.9 %
Test CRC 81A2D4F2
Copy CRC 81A2D4F2
Track not present in AccurateRip database
Copy OK

Track 6

Filename E:\EAC\Miles Davis - On The Crest Of The Airwaves (2011) [4CD] {Rock Melon}\CD3\06 - Wrinkle.wav

Peak level 98.7 %
Extraction speed 7.8 X
Track quality 100.0 %
Test CRC A24BF5E8
Copy CRC A24BF5E8
Track not present in AccurateRip database
Copy OK

Track 7

Filename E:\EAC\Miles Davis - On The Crest Of The Airwaves (2011) [4CD] {Rock Melon}\CD3\07 - Tutu.wav

Peak level 95.1 %
Extraction speed 8.3 X
Track quality 100.0 %
Test CRC AB3CF5A5
Copy CRC AB3CF5A5
Track not present in AccurateRip database
Copy OK

Track 8

Filename E:\EAC\Miles Davis - On The Crest Of The Airwaves (2011) [4CD] {Rock Melon}\CD3\08 - Movie Star.wav

Peak level 100.0 %
Extraction speed 8.3 X
Track quality 100.0 %
Test CRC C7198EFB
Copy CRC C7198EFB
Track not present in AccurateRip database
Copy OK

Track 9

Filename E:\EAC\Miles Davis - On The Crest Of The Airwaves (2011) [4CD] {Rock Melon}\CD3\09 - Splatch.wav

Peak level 89.0 %
Extraction speed 9.5 X
Track quality 100.0 %
Test CRC BA751B5A
Copy CRC BA751B5A
Track not present in AccurateRip database
Copy OK


None of the tracks are present in the AccurateRip database

No errors occurred

End of status report

–– CUETools DB Plugin V2.1.3

[CTDB TOCID: 0XFtWgyg7rQ8jr9gKsI7huLgZTI-] disk not present in database, Submit result: 0XFtWgyg7rQ8jr9gKsI7huLgZTI- has been uploaded


==== Log checksum 9C3673F759FB40443BFB3CAD22B3999E87BA63867B6FD24B477AEE06EC845501 ====

Exact Audio Copy V1.0 beta 3 from 29. August 2011

EAC extraction logfile from 25. December 2011, 2:16

Miles Davis / On The Crest Of The Airwaves (CD4)

Used drive : PIONEER DVD-RW DVR-111L Adapter: 0 ID: 0

Read mode : Secure
Utilize accurate stream : Yes
Defeat audio cache : Yes
Make use of C2 pointers : No

Read offset correction : 48
Overread into Lead-In and Lead-Out : No
Fill up missing offset samples with silence : Yes
Delete leading and trailing silent blocks : No
Null samples used in CRC calculations : Yes
Used interface : Native Win32 interface for Win NT & 2000
Gap handling : Appended to previous track

Used output format : User Defined Encoder
Selected bitrate : 1024 kBit/s
Quality : High
Add ID3 tag : No
Command line compressor : C:\Program Files\Exact Audio Copy\Flac\flac.exe
Additional command line options : -8 -V -T "ARTIST=%artist%" -T "TITLE=%title%" -T "ALBUM=%albumtitle%" -T "DATE=%year%" -T "TRACKNUMBER=%tracknr%" -T "GENRE=%genre%" -T "PERFORMER=%albuminterpret%" -T "COMPOSER=%composer%" %haslyrics%–tag-from-file=LYRICS="%lyricsfile%"%haslyrics% -T "ALBUMARTIST=%albumartist%" -T "DISCNUMBER=%cdnumber%" -T "TOTALDISCS=%totalcds%" -T "TOTALTRACKS=%numtracks%" -T "COMMENT=%comment%" %source% -o %dest%


TOC of the extracted CD

Track | Start | Length | Start sector | End sector
––––––––––––––––––––––––––––-
1 | 0:00.00 | 8:50.42 | 0 | 39791
2 | 8:50.42 | 14:25.25 | 39792 | 104691
3 | 23:15.67 | 9:04.26 | 104692 | 145517
4 | 32:20.18 | 18:14.01 | 145518 | 227568
5 | 50:34.19 | 20:11.17 | 227569 | 318410
6 | 70:45.36 | 3:37.15 | 318411 | 334700
7 | 74:22.51 | 4:42.11 | 334701 | 355861


Track 1

Filename E:\EAC\Miles Davis - On The Crest Of The Airwaves (2011) [4CD] {Rock Melon}\CD4\01 - Time After Time.wav

Pre-gap length 0:00:02.00

Peak level 97.2 %
Extraction speed 5.1 X
Track quality 99.9 %
Test CRC 55C68709
Copy CRC 55C68709
Track not present in AccurateRip database
Copy OK

Track 2

Filename E:\EAC\Miles Davis - On The Crest Of The Airwaves (2011) [4CD] {Rock Melon}\CD4\02 - Heavy Metal.wav

Peak level 93.1 %
Extraction speed 6.6 X
Track quality 100.0 %
Test CRC 64D4FA68
Copy CRC 64D4FA68
Track not present in AccurateRip database
Copy OK

Track 3

Filename E:\EAC\Miles Davis - On The Crest Of The Airwaves (2011) [4CD] {Rock Melon}\CD4\03 - Don't Stop Me Now.wav

Peak level 84.3 %
Extraction speed 7.4 X
Track quality 100.0 %
Test CRC 63ED014B
Copy CRC 63ED014B
Track not present in AccurateRip database
Copy OK

Track 4

Filename E:\EAC\Miles Davis - On The Crest Of The Airwaves (2011) [4CD] {Rock Melon}\CD4\04 - Carnival Time.wav

Peak level 85.5 %
Extraction speed 8.4 X
Track quality 100.0 %
Test CRC E2E62629
Copy CRC E2E62629
Track not present in AccurateRip database
Copy OK

Track 5

Filename E:\EAC\Miles Davis - On The Crest Of The Airwaves (2011) [4CD] {Rock Melon}\CD4\05 - Tomaas.wav

Peak level 91.9 %
Extraction speed 9.4 X
Track quality 100.0 %
Test CRC 811776B9
Copy CRC 811776B9
Track not present in AccurateRip database
Copy OK

Track 6

Filename E:\EAC\Miles Davis - On The Crest Of The Airwaves (2011) [4CD] {Rock Melon}\CD4\06 - Burn.wav

Peak level 34.3 %
Extraction speed 8.4 X
Track quality 100.0 %
Test CRC F540E6AB
Copy CRC F540E6AB
Track not present in AccurateRip database
Copy OK

Track 7

Filename E:\EAC\Miles Davis - On The Crest Of The Airwaves (2011) [4CD] {Rock Melon}\CD4\07 - Portia.wav

Peak level 85.9 %
Extraction speed 9.0 X
Track quality 100.0 %
Test CRC 4E2BC9E6
Copy CRC 4E2BC9E6
Track not present in AccurateRip database
Copy OK


None of the tracks are present in the AccurateRip database

No errors occurred

End of status report

–– CUETools DB Plugin V2.1.3

[CTDB TOCID: bOREEeWgHxHe7vVVSQ2caCU2lSE-] disk not present in database, Submit result: bOREEeWgHxHe7vVVSQ2caCU2lSE- has been uploaded


==== Log checksum 0578316D96208F4765BA021F5F9C1026EE58103E955E5800E063A562A67A5C37 ====


Miles Davis - On The Crest Of The Airwaves (2011) {4CD Set Rock Melon Music RMBOX3 rec 1970, 1988}

Miles Davis - On The Crest Of The Airwaves (2011) {4CD Set Rock Melon Music RMBOX3 rec 1970, 1988}

Miles Davis - On The Crest Of The Airwaves (2011) {4CD Set Rock Melon Music RMBOX3 rec 1970, 1988}

Miles Davis - On The Crest Of The Airwaves (2011) {4CD Set Rock Melon Music RMBOX3 rec 1970, 1988}

Miles Davis - On The Crest Of The Airwaves (2011) {4CD Set Rock Melon Music RMBOX3 rec 1970, 1988}

Miles Davis - On The Crest Of The Airwaves (2011) {4CD Set Rock Melon Music RMBOX3 rec 1970, 1988}



===