Subcategories
Tags
Language
Tags

Music From Temple - Music From Temple (Remastered) (1983/2019)

Posted By: delpotro
Music From Temple - Music From Temple (Remastered) (1983/2019)

Music From Temple - Music From Temple (Remastered) (1983/2019)
EAC Rip | FLAC (tracks+log+.cue) - 205 Mb | MP3 CBR 320 kbps - 92 Mb | 00:39:50
Art Rock, Folk Rock | Label: Fuji

Japanese progressive art rock band from Fukuoka active in the 80's.
Tracklist:
1. Introduce
2. Aura
3. Viva! Fantasy
4. Labyrinth
5. Just Us Part 1 Part 2
6. Ladyrinse
7. Evenings Part 1 Part 2 Part 3
8. Dedicated To A,M
9. Bonbey Window
10. Bagabond
11. Jorn On Mirror
12. Cosmos
13. British Songs
14. Dedecated To G,G
15. Oh! Dindle

Exact Audio Copy V1.3 from 2. September 2016

EAC extraction logfile from 22. October 2020, 10:45

Music From Temple / Music From Temple

Used drive : TS8XDVDSTRANSCEND Adapter: 1 ID: 1

Read mode : Secure
Utilize accurate stream : Yes
Defeat audio cache : Yes
Make use of C2 pointers : No

Read offset correction : 6
Overread into Lead-In and Lead-Out : No
Fill up missing offset samples with silence : Yes
Delete leading and trailing silent blocks : No
Null samples used in CRC calculations : Yes
Used interface : Native Win32 interface for Win NT & 2000
Gap handling : Appended to previous track

Used output format : User Defined Encoder
Selected bitrate : 1024 kBit/s
Quality : High
Add ID3 tag : No
Command line compressor : C:\Program Files (x86)\Exact Audio Copy\Flac\flac.exe
Additional command line options : -8 -e -p -V -T "ARTIST=%artist%" -T "TITLE=%title%" -T "ALBUM=%albumtitle%" -T "DATE=%year%" -T "TRACKNUMBER=%tracknr%" -T "GENRE=%genre%" -T "PERFORMER=%albuminterpret%" -T "COMPOSER=%composer%" %haslyrics%–tag-from-file=LYRICS="%lyricsfile%"%haslyrics% -T "ALBUMARTIST=%albumartist%" -T "DISCNUMBER=%cdnumber%" -T "TOTALDISCS=%totalcds%" -T "TOTALTRACKS=%numtracks%" -T "COMMENT=%comment%" %source% -o %dest%


TOC of the extracted CD

Track | Start | Length | Start sector | End sector
––––––––––––––––––––––––––––-
1 | 0:00.00 | 1:30.03 | 0 | 6752
2 | 1:30.03 | 1:34.63 | 6753 | 13865
3 | 3:04.66 | 3:48.70 | 13866 | 31035
4 | 6:53.61 | 3:30.68 | 31036 | 46853
5 | 10:24.54 | 6:48.03 | 46854 | 77456
6 | 17:12.57 | 2:20.61 | 77457 | 88017
7 | 19:33.43 | 6:36.73 | 88018 | 117790
8 | 26:10.41 | 2:10.15 | 117791 | 127555
9 | 28:20.56 | 2:31.35 | 127556 | 138915
10 | 30:52.16 | 1:50.59 | 138916 | 147224
11 | 32:43.00 | 2:01.70 | 147225 | 156369
12 | 34:44.70 | 1:19.35 | 156370 | 162329
13 | 36:04.30 | 0:53.19 | 162330 | 166323
14 | 36:57.49 | 1:11.55 | 166324 | 171703
15 | 38:09.29 | 1:40.56 | 171704 | 179259


Track 1

Filename C:\Users\user\Music\EAC Rips SEPTEMBER\Music From Temple - Music From Temple (1983) [FLAC] {2019 FJ-156 CD JP}\01 - Introduce.wav

Pre-gap length 0:00:02.00

Peak level 96.4 %
Extraction speed 0.9 X
Track quality 100.0 %
Test CRC 4217886D
Copy CRC 4217886D
Track not present in AccurateRip database
Copy OK

Track 2

Filename C:\Users\user\Music\EAC Rips SEPTEMBER\Music From Temple - Music From Temple (1983) [FLAC] {2019 FJ-156 CD JP}\02 - Aura.wav

Pre-gap length 0:00:05.00

Peak level 75.9 %
Extraction speed 1.0 X
Track quality 100.0 %
Test CRC 1848F54F
Copy CRC 1848F54F
Track not present in AccurateRip database
Copy OK

Track 3

Filename C:\Users\user\Music\EAC Rips SEPTEMBER\Music From Temple - Music From Temple (1983) [FLAC] {2019 FJ-156 CD JP}\03 - Viva! Fantasy.wav

Pre-gap length 0:00:01.00

Peak level 96.4 %
Extraction speed 1.3 X
Track quality 100.0 %
Test CRC 0E3812B4
Copy CRC 0E3812B4
Track not present in AccurateRip database
Copy OK

Track 4

Filename C:\Users\user\Music\EAC Rips SEPTEMBER\Music From Temple - Music From Temple (1983) [FLAC] {2019 FJ-156 CD JP}\04 - Labyrinth.wav

Pre-gap length 0:00:02.00

Peak level 96.4 %
Extraction speed 1.4 X
Track quality 100.0 %
Test CRC D13847AB
Copy CRC D13847AB
Track not present in AccurateRip database
Copy OK

Track 5

Filename C:\Users\user\Music\EAC Rips SEPTEMBER\Music From Temple - Music From Temple (1983) [FLAC] {2019 FJ-156 CD JP}\05 - Just Us Part 1 Part 2.wav

Pre-gap length 0:00:01.00

Peak level 96.6 %
Extraction speed 1.5 X
Track quality 99.9 %
Test CRC D013871E
Copy CRC D013871E
Track not present in AccurateRip database
Copy OK

Track 6

Filename C:\Users\user\Music\EAC Rips SEPTEMBER\Music From Temple - Music From Temple (1983) [FLAC] {2019 FJ-156 CD JP}\06 - Ladyrinse.wav

Peak level 75.7 %
Extraction speed 1.5 X
Track quality 100.0 %
Test CRC 415BF792
Copy CRC 415BF792
Track not present in AccurateRip database
Copy OK

Track 7

Filename C:\Users\user\Music\EAC Rips SEPTEMBER\Music From Temple - Music From Temple (1983) [FLAC] {2019 FJ-156 CD JP}\07 - Evenings Part 1 Part 2 Part 3.wav

Pre-gap length 0:00:02.00

Peak level 96.4 %
Extraction speed 1.8 X
Track quality 100.0 %
Test CRC 980AA4C0
Copy CRC 980AA4C0
Track not present in AccurateRip database
Copy OK

Track 8

Filename C:\Users\user\Music\EAC Rips SEPTEMBER\Music From Temple - Music From Temple (1983) [FLAC] {2019 FJ-156 CD JP}\08 - Dedicated to A,M.wav

Pre-gap length 0:00:06.00

Peak level 96.4 %
Extraction speed 1.6 X
Track quality 100.0 %
Test CRC 2251E094
Copy CRC 2251E094
Track not present in AccurateRip database
Copy OK

Track 9

Filename C:\Users\user\Music\EAC Rips SEPTEMBER\Music From Temple - Music From Temple (1983) [FLAC] {2019 FJ-156 CD JP}\09 - Bonbey Window.wav

Pre-gap length 0:00:04.00

Peak level 96.3 %
Extraction speed 1.7 X
Track quality 100.0 %
Test CRC E54EBAEE
Copy CRC E54EBAEE
Track not present in AccurateRip database
Copy OK

Track 10

Filename C:\Users\user\Music\EAC Rips SEPTEMBER\Music From Temple - Music From Temple (1983) [FLAC] {2019 FJ-156 CD JP}\10 - Bagabond.wav

Pre-gap length 0:00:03.00

Peak level 96.3 %
Extraction speed 1.6 X
Track quality 100.0 %
Test CRC 7315851D
Copy CRC 7315851D
Track not present in AccurateRip database
Copy OK

Track 11

Filename C:\Users\user\Music\EAC Rips SEPTEMBER\Music From Temple - Music From Temple (1983) [FLAC] {2019 FJ-156 CD JP}\11 - Jorn on Mirror.wav

Pre-gap length 0:00:04.00

Peak level 96.3 %
Extraction speed 1.7 X
Track quality 100.0 %
Test CRC 08D2EAAF
Copy CRC 08D2EAAF
Track not present in AccurateRip database
Copy OK

Track 12

Filename C:\Users\user\Music\EAC Rips SEPTEMBER\Music From Temple - Music From Temple (1983) [FLAC] {2019 FJ-156 CD JP}\12 - Cosmos.wav

Pre-gap length 0:00:04.00

Peak level 90.6 %
Extraction speed 1.6 X
Track quality 100.0 %
Test CRC 7FA29734
Copy CRC 7FA29734
Track not present in AccurateRip database
Copy OK

Track 13

Filename C:\Users\user\Music\EAC Rips SEPTEMBER\Music From Temple - Music From Temple (1983) [FLAC] {2019 FJ-156 CD JP}\13 - British Songs.wav

Pre-gap length 0:00:05.00

Peak level 96.3 %
Extraction speed 1.4 X
Track quality 100.0 %
Test CRC EC867073
Copy CRC EC867073
Track not present in AccurateRip database
Copy OK

Track 14

Filename C:\Users\user\Music\EAC Rips SEPTEMBER\Music From Temple - Music From Temple (1983) [FLAC] {2019 FJ-156 CD JP}\14 - Dedecated to G,G.wav

Pre-gap length 0:00:05.00

Peak level 96.1 %
Extraction speed 1.1 X
Track quality 99.8 %
Test CRC CCA80721
Copy CRC CCA80721
Track not present in AccurateRip database
Copy OK

Track 15

Filename C:\Users\user\Music\EAC Rips SEPTEMBER\Music From Temple - Music From Temple (1983) [FLAC] {2019 FJ-156 CD JP}\15 - Oh! Dindle.wav

Pre-gap length 0:00:05.00

Peak level 96.4 %
Extraction speed 1.7 X
Track quality 100.0 %
Test CRC EDEB1421
Copy CRC EDEB1421
Track not present in AccurateRip database
Copy OK


None of the tracks are present in the AccurateRip database

No errors occurred

End of status report

–– CUETools DB Plugin V2.1.6

[CTDB TOCID: lyzwKpcPEiqNn26u8jmXkqM7QM8-] disk not present in database
Submit result: unrecognized or virtual drive


==== Log checksum 9AE689B4C5C426A35785D6D285E347B2ADF0ED056599A44CA8EA3438258B48C8 ====

Thanks to the Original ripper !