Subcategories

Music of Satyajit Ray - Original Recordings (1961 to 1991)

Posted By: wolfy13
Music of Satyajit Ray - Original Recordings (1961 to 1991)

Music of Satyajit Ray - Original Recordings (1961 to 1991)
Scored and arranged by Satyajit Ray

Ray's Films music (1961 to 1991) | 1991 | EAC | FLAC+CUE+log | 3% Recovery | 329 MB | Covers+Booklet | 01:08:37 | RS

For all lovers of the great Indian director…


Tracks :
Teen Kanya - Title Music 1:28
Teen Kanya - Mrinmoyee Sad Samapti 1:10
Teen Kanya -The Fateful Night Monihara 1:08
Kanchenjungha - Title Music 2:12
Kanchenjungha - The Mist 1:06
Abhijan - The Night Journey 1:58
Abhijan - Gulabi Remembers 1:25
Abhijan - Narsingh Theme 2:15
Charulata - Charu Theme 1:03
Charulata - Charu Recalls Her Childhood 1:22
Charulata - Bhupati's Grief 1:30
Charulata - Amal Leaves 1:35
Charulata - Bhupati And Amal 2:10
Baksha Badal - Montage 1:17
Nayak - Arindam Theme 1:54
Shakespearewallah - Title Music 3:03
Shakespearewallah - Cleopatra's Barge 0:54
Shakespearewallah - Arrival Of The Trou… 1:08
Shakespearewallah - Manjula's Procession 1:19
Goopy Gyne Bagha Byne - Entry Of The … 0:50
Goopy Gyne Bagha Byne - The Prisoners 0:43
Ashani Sanket - Gangacharan Theme 0:43
Ashani Sanket - Aftermath Of The Rape 0:44
Ashani Sanket - Playout 1:30
Sonar Kella - Felu Theme 0:53
Sonar Kella - Mukul Is Hypnotised 1:03
Sonar Kella - The Camel Ride 1:13
Sonar Kella - Camels And Train 0:42
Sonar Kella - Playout 0:48
Joi Baba Felunath - Ruku's Room 0:52
Hirak Rajar Deshe - Ministers Get Neckl… 1:15
Hirak Rajar Deshe - The Brainwashing M… 1:33
Hirak Rajar Deshe - Reciting Of Mantras 1:09
Hirak Rajar Deshe - Udayan Advises His … 1:14
Hirak Rajar Deshe - Rings For The Kings 0:55
Pikoo - Title Music 0:44
Pikoo - Grandpa's Death 0:41
Pikoo - Pikoo Draws Flowers 0:42
Pikoo - Pikoo In The Garden 1:31
Ghaire Bhaire - Title Music 2:12
Ghaire Bhaire - Bimala Out Of Seclusion 1:04
Ghaire Bhaire - The Uprising 0:50
Ghaire Bhaire - Queen Bee 0:37
Ghaire Bhaire - Nikhilesh Theme 1:04
Ganashutra - Pollution Theme 1:18
Ganashatru - Ashoke Helpless 1:22
Ganashatru - Playout 1:01
Goopy Bagha Phiray Elo - The King Of A… 1:03
Goopy Bagha Phiray Elo - The Magic Co… 1:22
Goopy Bagha Phiray Elo - Goopy And Ba… 1:11
Goopy Bagha Phiray Elo - Bikram Theme 1:07
Agantuk - Title Music 2:18
Agantuk - Sudhindra And Anila 2:25

In the beginning of his career Ray worked with some of greatest music maestros of Indian classical music: Pandit Ravi Shankar for the 'Apu Trilogy' and 'Parash Pathar' (The Philosopher's Stone, 1958), Ustad Vilayat Khan for 'Jalsaghar' (The Music Room, 1958) and Ali Akbar Khan for 'Devi' (The Goddess, 1960). Since 'Teen Kanya' (1961), he began composing the music for his films. "The reason why I do not work with professional composers any more is that I get too many musical ideas of my own, and composers, understandably enough, resent being guided too much", he said.
He would start working on music in very early stages of a production - sometimes as early as in the script stage. He would keep notes of the music ideas as they evolved. After completing the final edit, he would usually shut himself in his study for several days to compose the music. He meticulously wrote the scores in either Indian or western notation depending on musicians.
"… the pleasure of finding out that the music sounds as you had imagined it would, more that compensates for the hard work that goes into it. The final pleasure, of course, is in finding out that it not only sounds right but is also right for the scene for which it was meant", he wrote.
To him the role of music was to make things simpler for the audience. "If I were the only audience, I wouldn't be using music! … I have always felt that music is really an extraneous element, that one should be able to do without it, express oneself without it", he said.
He experimented with mixing western and Indian elements in his scores. He composed a background music that belonged a particular film rather than to any recognisable tradition. In 'Ghare-Baire' (Home and the World, 1984), he adapted western music elements along with Indian ones to complement the two influences on the characters of film.


Exact Audio Copy V0.99 prebeta 5 from 4. May 2009

EAC extraction logfile from 26. July 2009, 23:53

MusicOfSatyajitRay

Used drive : MATSHITADVD-R UJ-85J Adapter: 0 ID: 1

Read mode : Secure
Utilize accurate stream : Yes
Defeat audio cache : No
Make use of C2 pointers : No

Read offset correction : 102
Overread into Lead-In and Lead-Out : No
Fill up missing offset samples with silence : Yes
Delete leading and trailing silent blocks : No
Null samples used in CRC calculations : No
Used interface : Installed external ASPI interface

Used output format : User Defined Encoder
Selected bitrate : 768 kBit/s
Quality : High
Add ID3 tag : No
Command line compressor : C:\Program Files\Exact Audio Copy\FLAC\FLAC.EXE
Additional command line options : -6 -V -T "ARTIST=%a" -T "TITLE=%t" -T "ALBUM=%g" -T "DATE=%y" -T "TRACKNUMBER=%n" -T "GENRE=%m" -T "COMMENT=%e" %s -o %d


TOC of the extracted CD

Track | Start | Length | Start sector | End sector
––––––––––––––––––––––––––––-
1 | 0:00.00 | 1:27.65 | 0 | 6589
2 | 1:27.65 | 1:10.25 | 6590 | 11864
3 | 2:38.15 | 1:08.28 | 11865 | 16992
4 | 3:46.43 | 2:11.70 | 16993 | 26887
5 | 5:58.38 | 1:06.05 | 26888 | 31842
6 | 7:04.43 | 1:58.10 | 31843 | 40702
7 | 9:02.53 | 1:24.50 | 40703 | 47052
8 | 10:27.28 | 2:15.15 | 47053 | 57192
9 | 12:42.43 | 1:02.45 | 57193 | 61887
10 | 13:45.13 | 1:21.60 | 61888 | 68022
11 | 15:06.73 | 1:29.42 | 68023 | 74739
12 | 16:36.40 | 1:34.43 | 74740 | 81832
13 | 18:11.08 | 2:10.30 | 81833 | 91612
14 | 20:21.38 | 1:16.67 | 91613 | 97379
15 | 21:38.30 | 1:53.68 | 97380 | 105922
16 | 23:32.23 | 3:03.10 | 105923 | 119657
17 | 26:35.33 | 0:54.15 | 119658 | 123722
18 | 27:29.48 | 1:07.57 | 123723 | 128804
19 | 28:37.30 | 1:19.18 | 128805 | 134747
20 | 29:56.48 | 0:50.10 | 134748 | 138507
21 | 30:46.58 | 0:42.65 | 138508 | 141722
22 | 31:29.48 | 0:43.07 | 141723 | 144954
23 | 32:12.55 | 0:44.23 | 144955 | 148277
24 | 32:57.03 | 1:30.27 | 148278 | 155054
25 | 34:27.30 | 0:52.68 | 155055 | 159022
26 | 35:20.23 | 1:03.15 | 159023 | 163762
27 | 36:23.38 | 1:12.67 | 163763 | 169229
28 | 37:36.30 | 0:42.35 | 169230 | 172414
29 | 38:18.65 | 0:47.65 | 172415 | 176004
30 | 39:06.55 | 0:51.43 | 176005 | 179872
31 | 39:58.23 | 1:15.27 | 179873 | 185524
32 | 41:13.50 | 1:33.05 | 185525 | 192504
33 | 42:46.55 | 1:08.45 | 192505 | 197649
34 | 43:55.25 | 1:14.28 | 197650 | 203227
35 | 45:09.53 | 0:55.07 | 203228 | 207359
36 | 46:04.60 | 0:43.53 | 207360 | 210637
37 | 46:48.38 | 0:41.22 | 210638 | 213734
38 | 47:29.60 | 0:41.58 | 213735 | 216867
39 | 48:11.43 | 1:31.02 | 216868 | 223694
40 | 49:42.45 | 2:12.28 | 223695 | 233622
41 | 51:54.73 | 1:04.02 | 233623 | 238424
42 | 52:59.00 | 0:49.38 | 238425 | 242137
43 | 53:48.38 | 0:37.12 | 242138 | 244924
44 | 54:25.50 | 1:03.48 | 244925 | 249697
45 | 55:29.23 | 1:18.00 | 249698 | 255547
46 | 56:47.23 | 1:21.70 | 255548 | 261692
47 | 58:09.18 | 1:01.00 | 261693 | 266267
48 | 59:10.18 | 1:02.72 | 266268 | 270989
49 | 60:13.15 | 1:21.53 | 270990 | 277117
50 | 61:34.68 | 1:11.27 | 277118 | 282469
51 | 62:46.20 | 1:07.35 | 282470 | 287529
52 | 63:53.55 | 2:18.00 | 287530 | 297879
53 | 66:11.55 | 2:25.25 | 297880 | 308779


Range status and errors

Selected range

Filename C:\Users\mnm\Documents\MusicOfSatyajitRay.wav

Peak level 100.0 %
Range quality 99.9 %
Copy CRC A4ADD938
Copy OK

No errors occurred


End of status report