Subcategories

Nathan Bowles - Whole & Cloven (2016)

Posted By: Domestos
Nathan Bowles - Whole & Cloven (2016)

Nathan Bowles - Whole & Cloven (2016)
XLD Rip | FLAC (tracks+.cue, log) ~ 179.63 Mb | MP3 CBR 320kbps ~ 88.94 Mb | 38:41 | Cover
Folk, Country, Experimental, Banjo | Country: USA | Label: Paradise Of Bachelors - PoB-28

On his exquisite third solo album, Nathan Bowles (Steve Gunn, Pelt, Black Twig Pickers) again augments his mesmeric clawhammer banjo pieces with piano, percussion, and vocals. Instead of the programmatic place-based narratives of its predecessor Nansemond (PoB-16), Whole & Cloven offers a stoic meditation on absence, loss, and fragmentation, populating those experiential gaps—the weighty interstices and places in-between—with stillness and wonder. Straddling Appalachian string band music and avant-garde composition but beholden to neither idiom, Nathan proves himself heir to deconstructivist tradition-bearers like Henry Flynt and Jack Rose.



Track List:
01. Words Spoken Aloud (06:01)
02. Chiaroscuro (03:26)
03. Blank Range - Hog Jank II (06:23)
04. Moonshine Is the Sunshine (03:50)
05. Gadarene Fugue (04:52)
06. I Miss My Dog (10:59)
07. Burnt Ends Rag (03:10)

Nathan Bowles - Whole & Cloven (2016)

X Lossless Decoder version 20160920 (149.2)

XLD extraction logfile from 2016-09-22 23:12:01 +0200

Nathan Bowles / Whole & Cloven

Used drive : MATSHITA DVD-R UJ-898 (revision HC10)
Media type : Pressed CD

Ripper mode : XLD Secure Ripper
Disable audio cache : OK for the drive with a cache less than 1375KiB
Make use of C2 pointers : NO
Read offset correction : 102
Max retry count : 20
Gap status : Analyzed, Appended (except HTOA)

TOC of the extracted CD
Track | Start | Length | Start sector | End sector
––––––––––––––––––––––––––––-
1 | 00:00:00 | 06:01:52 | 0 | 27126
2 | 06:01:52 | 03:26:24 | 27127 | 42600
3 | 09:28:01 | 06:23:07 | 42601 | 71332
4 | 15:51:08 | 03:50:32 | 71333 | 88614
5 | 19:41:40 | 04:52:50 | 88615 | 110564
6 | 24:34:15 | 10:58:73 | 110565 | 159987
7 | 35:33:13 | 03:10:19 | 159988 | 174256

AccurateRip Summary
Disc not found in AccurateRip DB.

All Tracks
Album gain : -6.82 dB
Peak : 0.933807
Statistics
Read error : 0
Jitter error (maybe fixed) : 0
Retry sector count : 0
Damaged sector count : 0

Track 01
Filename : /OUV/Nathan Bowles - Whole & Cloven (2016) [FLAC (level 5)]/01 Words Spoken Aloud.flac
/OUV/Nathan Bowles - Whole & Cloven (2016) [V0]/01 Words Spoken Aloud.mp3
/OUV/Nathan Bowles - Whole & Cloven (2016) [V2]/01 Words Spoken Aloud.mp3
/OUV/Nathan Bowles - Whole & Cloven (2016) [320]/01 Words Spoken Aloud.mp3
Pre-gap length : 00:02:00

Track gain : -5.76 dB
Peak : 0.912170
CRC32 hash (test run) : A2D4ED93
CRC32 hash : A2D4ED93
CRC32 hash (skip zero) : 1662C56C
AccurateRip v1 signature : BC2CBF0D
AccurateRip v2 signature : 5F5437C6
->Track not present in AccurateRip database.
Statistics
Read error : 0
Jitter error (maybe fixed) : 0
Retry sector count : 0
Damaged sector count : 0

Track 02
Filename : /OUV/Nathan Bowles - Whole & Cloven (2016) [FLAC (level 5)]/02 Chiaroscuro.flac
/OUV/Nathan Bowles - Whole & Cloven (2016) [V0]/02 Chiaroscuro.mp3
/OUV/Nathan Bowles - Whole & Cloven (2016) [V2]/02 Chiaroscuro.mp3
/OUV/Nathan Bowles - Whole & Cloven (2016) [320]/02 Chiaroscuro.mp3

Track gain : -4.85 dB
Peak : 0.782349
CRC32 hash (test run) : 42AA97A1
CRC32 hash : 42AA97A1
CRC32 hash (skip zero) : 9A39F42F
AccurateRip v1 signature : 7EAD2A92
AccurateRip v2 signature : 45A83DFE
->Track not present in AccurateRip database.
Statistics
Read error : 0
Jitter error (maybe fixed) : 0
Retry sector count : 0
Damaged sector count : 0

Track 03
Filename : /OUV/Nathan Bowles - Whole & Cloven (2016) [FLAC (level 5)]/03 Blank Range / Hog Jank II.flac
/OUV/Nathan Bowles - Whole & Cloven (2016) [V0]/03 Blank Range / Hog Jank II.mp3
/OUV/Nathan Bowles - Whole & Cloven (2016) [V2]/03 Blank Range / Hog Jank II.mp3
/OUV/Nathan Bowles - Whole & Cloven (2016) [320]/03 Blank Range / Hog Jank II.mp3

Track gain : -8.04 dB
Peak : 0.933807
CRC32 hash (test run) : B6AB1674
CRC32 hash : B6AB1674
CRC32 hash (skip zero) : F5FE8C4B
AccurateRip v1 signature : 5718A129
AccurateRip v2 signature : 802058E5
->Track not present in AccurateRip database.
Statistics
Read error : 0
Jitter error (maybe fixed) : 0
Retry sector count : 0
Damaged sector count : 0

Track 04
Filename : /OUV/Nathan Bowles - Whole & Cloven (2016) [FLAC (level 5)]/04 Moonshine Is The Sunshine.flac
/OUV/Nathan Bowles - Whole & Cloven (2016) [V0]/04 Moonshine Is The Sunshine.mp3
/OUV/Nathan Bowles - Whole & Cloven (2016) [V2]/04 Moonshine Is The Sunshine.mp3
/OUV/Nathan Bowles - Whole & Cloven (2016) [320]/04 Moonshine Is The Sunshine.mp3

Track gain : -6.05 dB
Peak : 0.932007
CRC32 hash (test run) : 12B862B3
CRC32 hash : 12B862B3
CRC32 hash (skip zero) : AF9A4594
AccurateRip v1 signature : F90B6C9E
AccurateRip v2 signature : F817FD20
->Track not present in AccurateRip database.
Statistics
Read error : 0
Jitter error (maybe fixed) : 0
Retry sector count : 0
Damaged sector count : 0

Track 05
Filename : /OUV/Nathan Bowles - Whole & Cloven (2016) [FLAC (level 5)]/05 Gadarene Fugue.flac
/OUV/Nathan Bowles - Whole & Cloven (2016) [V0]/05 Gadarene Fugue.mp3
/OUV/Nathan Bowles - Whole & Cloven (2016) [V2]/05 Gadarene Fugue.mp3
/OUV/Nathan Bowles - Whole & Cloven (2016) [320]/05 Gadarene Fugue.mp3

Track gain : -5.75 dB
Peak : 0.931305
CRC32 hash (test run) : DF794E6B
CRC32 hash : DF794E6B
CRC32 hash (skip zero) : 9EED656D
AccurateRip v1 signature : A2C14F5D
AccurateRip v2 signature : 9D177D9F
->Track not present in AccurateRip database.
Statistics
Read error : 0
Jitter error (maybe fixed) : 0
Retry sector count : 0
Damaged sector count : 0

Track 06
Filename : /OUV/Nathan Bowles - Whole & Cloven (2016) [FLAC (level 5)]/06 I Miss My Dog.flac
/OUV/Nathan Bowles - Whole & Cloven (2016) [V0]/06 I Miss My Dog.mp3
/OUV/Nathan Bowles - Whole & Cloven (2016) [V2]/06 I Miss My Dog.mp3
/OUV/Nathan Bowles - Whole & Cloven (2016) [320]/06 I Miss My Dog.mp3

Track gain : -7.36 dB
Peak : 0.912079
CRC32 hash (test run) : 25CB410F
CRC32 hash : 25CB410F
CRC32 hash (skip zero) : DEA2664D
AccurateRip v1 signature : 81F53B9B
AccurateRip v2 signature : 2CD65DA2
->Track not present in AccurateRip database.
Statistics
Read error : 0
Jitter error (maybe fixed) : 0
Retry sector count : 0
Damaged sector count : 0

Track 07
Filename : /OUV/Nathan Bowles - Whole & Cloven (2016) [FLAC (level 5)]/07 Burnt Ends Rag.flac
/OUV/Nathan Bowles - Whole & Cloven (2016) [V0]/07 Burnt Ends Rag.mp3
/OUV/Nathan Bowles - Whole & Cloven (2016) [V2]/07 Burnt Ends Rag.mp3
/OUV/Nathan Bowles - Whole & Cloven (2016) [320]/07 Burnt Ends Rag.mp3

Track gain : -6.40 dB
Peak : 0.907501
CRC32 hash (test run) : 34CA2A41
CRC32 hash : 34CA2A41
CRC32 hash (skip zero) : EC646BEA
AccurateRip v1 signature : 2888AB43
AccurateRip v2 signature : 82372E24
->Track not present in AccurateRip database.
Statistics
Read error : 0
Jitter error (maybe fixed) : 0
Retry sector count : 0
Damaged sector count : 0

No errors occurred

End of status report

––-BEGIN XLD SIGNATURE––-
jEPRo7blS3X_YShryduXNRWRRW5CnvGGU4eH8u1SX1xw.o3jds.wM.wFNFIYhmRGNtpYu5gb0GmCUTa4EaDbtx4nfOg1clgVG6pdqDm
––-END XLD SIGNATURE––-

All thanks go to the Original ripper (unknown)

More Music in My Blog
Follow My RSS Channel