Subcategories
Tags
Language
Tags

Nicola Conte & Gianluca Petrella - People Need People (2021)

Posted By: delpotro
Nicola Conte & Gianluca Petrella - People Need People (2021)

Nicola Conte & Gianluca Petrella - People Need People (2021)
EAC Rip | FLAC (tracks+log+.cue) - 408 Mb | MP3 CBR 320 kbps - 141 Mb | 00:59:05
Disco, Jazz | Label: Schema

New music forms contaminated by various genres characterize our globalized world’s recent history; the intertwining of individual experiences creates new collaborations, as in this specifc case. Sixteen years after the release of “New Standards” (2001, SCEP336) Nicola Conte meets again his friend and colleague Gianluca Petrella, an eclectic Italian jazz scene talent, open to new experiences and collaborations: this encounter let to the publication of three new 12” EP’s in only three years, plus the recent single “The Higher Love” and the release of “Let Your Light Shine On” by Nicola Conte & Spiritual Galaxy.

The exchange between the two musicians / producers takes place not only on a songwriting level but also on a research one: vinyl rarities, the diggin’ activity, the use of samples, sounds, rigorously vintage instruments and sounds deliver a product brave enough to communicate the club culture enthusiasm to conquer a new market capable of soliciting new interests in the nu-soul and jazz scene. From Detroit future dance to afrobeat and spiritual jazz through a nu-disco sound, the unique vibe of “People Need People” drags us in search of deep music in a spiritual and mantric context. In a peculiar historical moment Nicola Conte and Gianluca Petrella send a message of hope, of aggregation and Universal Love. A feeling of elevation and solidarity is shared Through Raashan’s poetry, something that can predict winds of change for humanity, a feeling that flows from a higher love.

“People Need People” is more than just a new album, it’s a collective experience wisely directed by Nicola and Gianluca that sees the participation of numerous artists from different parts of the world: Raashan Ahmad (USA), Nduduzo Makhathini (South Africa), Magnus Lindgren (Sweden), Débo Ray (USA), Bridgette Amofah (England), Abdissa Assefa (Finland/Ethiopia), Teppo Makynen (Finland), together with young Italian promising stars Davide Shorty, Carolina Bubbico, Tommaso Cappellato, Seby Burgio, Marco Rubegni, Pasquale Calò, and the already known Pasquale Mirra and Simone Padovani. “People Need People” is the mature fruit of an unstoppable and constantly evolving work of research and exchange that’s been able to break down every possible distance during its long and complex making-of process. The songs taken from the previous EP’s have also been further revised, reworked and expanded, with the addition of six new tracks. Looking at the past and fetching sounds, rhythms and instruments typical of tribal / African traditions, soul / spiritual jazz and cosmic music from it, Nicola and Gianluca have performed an operation of strong contamination with modern electronic sounds, disco and hip-hop, creating a completely original hybrid. Their goal is to accompany the listener through a collective spiritual elevation path, guided by the only true universal language: music. In a historical period marked by contrasts, lack of communication and forced social distancing, “People Need People” proves to be even more essential and necessary.
Tracklist:
1. Hold On To Your Dreams (feat. Debo Ray) (04:55)
2. The Higher Love (feat. Raashan Ahmad) (04:15)
3. Imani River (feat. Bridgette Amofah) (04:59)
4. Nigeria (05:09)
5. People Need People (feat. Davide Shorty & Carolina Bubbico)) (04:19)
6. Inner Light (feat. Raashan Ahmad) (06:22)
7. New World Shuffle (feat. Bridgette Amofah) (06:39)
8. Good Juju (feat. Raashan Ahmad) (03:53)
9. African Spirits (06:45)
10. Tribes (feat. Nduduzo Makhathini) (06:47)
11. Mother Of The Earth (feat. Debo Ray) (05:02)

Exact Audio Copy V1.3 from 2. September 2016

EAC extraction logfile from 5. June 2021, 9:15

Nicola Conte & Gianluca Petrella / People Need People

Used drive : HL-DT-STBD-RE BH16NS55 Adapter: 1 ID: 0

Read mode : Secure
Utilize accurate stream : Yes
Defeat audio cache : Yes
Make use of C2 pointers : No

Read offset correction : 6
Overread into Lead-In and Lead-Out : No
Fill up missing offset samples with silence : Yes
Delete leading and trailing silent blocks : No
Null samples used in CRC calculations : Yes
Used interface : Native Win32 interface for Win NT & 2000
Gap handling : Appended to previous track

Used output format : User Defined Encoder
Selected bitrate : 1024 kBit/s
Quality : High
Add ID3 tag : No
Command line compressor : C:\Program Files (x86)\Exact Audio Copy\Flac\flac.exe
Additional command line options : -8 -V -T "ARTIST=%artist%" -T "TITLE=%title%" -T "ALBUM=%albumtitle%" -T "DATE=%year%" -T "TRACKNUMBER=%tracknr%" -T "GENRE=%genre%" -T "PERFORMER=%albuminterpret%" -T "COMPOSER=%composer%" %haslyrics%–tag-from-file=LYRICS="%lyricsfile%"%haslyrics% -T "ALBUMARTIST=%albumartist%" -T "DISCNUMBER=%cdnumber%" -T "TOTALDISCS=%totalcds%" -T "TOTALTRACKS=%numtracks%" -T "COMMENT=%comment%" %source% -o %dest%


TOC of the extracted CD

Track | Start | Length | Start sector | End sector
––––––––––––––––––––––––––––-
1 | 0:00.00 | 4:54.45 | 0 | 22094
2 | 4:54.45 | 4:15.34 | 22095 | 41253
3 | 9:10.04 | 4:59.02 | 41254 | 63680
4 | 14:09.06 | 5:09.37 | 63681 | 86892
5 | 19:18.43 | 4:19.26 | 86893 | 106343
6 | 23:37.69 | 6:22.19 | 106344 | 135012
7 | 30:00.13 | 6:39.17 | 135013 | 164954
8 | 36:39.30 | 3:53.19 | 164955 | 182448
9 | 40:32.49 | 6:44.63 | 182449 | 212811
10 | 47:17.37 | 6:46.42 | 212812 | 243303
11 | 54:04.04 | 5:01.67 | 243304 | 265945


Track 1

Filename F:\#EAC wav+flac\#add\Nicola Conte & Gianluca Petrella - People Need People\01. Nicola Conte & Gianluca Petrella Ft. Débo Ray - Hold On To Your Dreams.wav

Pre-gap length 0:00:02.00

Peak level 99.8 %
Extraction speed 4.5 X
Track quality 100.0 %
Test CRC 7067F6C8
Copy CRC 7067F6C8
Track not present in AccurateRip database
Copy OK

Track 2

Filename F:\#EAC wav+flac\#add\Nicola Conte & Gianluca Petrella - People Need People\02. Nicola Conte & Gianluca Petrella Ft. Raashan Ahmad, Carolina Bubbico - The Higher Love.wav

Pre-gap length 0:00:00.76

Peak level 99.8 %
Extraction speed 5.0 X
Track quality 100.0 %
Test CRC 2923F23B
Copy CRC 2923F23B
Track not present in AccurateRip database
Copy OK

Track 3

Filename F:\#EAC wav+flac\#add\Nicola Conte & Gianluca Petrella - People Need People\03. Nicola Conte & Gianluca Petrella Ft. Bridgette Amofah - Imani River.wav

Pre-gap length 0:00:00.77

Peak level 99.8 %
Extraction speed 5.6 X
Track quality 100.0 %
Test CRC 10151468
Copy CRC 10151468
Track not present in AccurateRip database
Copy OK

Track 4

Filename F:\#EAC wav+flac\#add\Nicola Conte & Gianluca Petrella - People Need People\04. Nicola Conte & Gianluca Petrella - Nigeria.wav

Pre-gap length 0:00:00.76

Peak level 99.8 %
Extraction speed 6.1 X
Track quality 100.0 %
Test CRC 6B8A794B
Copy CRC 6B8A794B
Track not present in AccurateRip database
Copy OK

Track 5

Filename F:\#EAC wav+flac\#add\Nicola Conte & Gianluca Petrella - People Need People\05. Nicola Conte & Gianluca Petrella Ft. Davide Shorty - People Need People.wav

Pre-gap length 0:00:00.76

Peak level 99.8 %
Extraction speed 6.3 X
Track quality 100.0 %
Test CRC D5DC0968
Copy CRC D5DC0968
Track not present in AccurateRip database
Copy OK

Track 6

Filename F:\#EAC wav+flac\#add\Nicola Conte & Gianluca Petrella - People Need People\06. Nicola Conte & Gianluca Petrella Ft. Raashan Ahmad - Inner Light.wav

Pre-gap length 0:00:00.76

Peak level 99.8 %
Extraction speed 7.1 X
Track quality 100.0 %
Test CRC F21F3695
Copy CRC F21F3695
Track not present in AccurateRip database
Copy OK

Track 7

Filename F:\#EAC wav+flac\#add\Nicola Conte & Gianluca Petrella - People Need People\07. Nicola Conte & Gianluca Petrella Ft. Bridgette Amofah - New World Shuffle.wav

Pre-gap length 0:00:00.76

Peak level 99.8 %
Extraction speed 7.5 X
Track quality 100.0 %
Test CRC 8231AF1F
Copy CRC 8231AF1F
Track not present in AccurateRip database
Copy OK

Track 8

Filename F:\#EAC wav+flac\#add\Nicola Conte & Gianluca Petrella - People Need People\08. Nicola Conte & Gianluca Petrella Ft. Raashan Ahmad - Good Juju.wav

Pre-gap length 0:00:01.40

Peak level 99.8 %
Extraction speed 7.5 X
Track quality 100.0 %
Test CRC 78C95E1D
Copy CRC 78C95E1D
Track not present in AccurateRip database
Copy OK

Track 9

Filename F:\#EAC wav+flac\#add\Nicola Conte & Gianluca Petrella - People Need People\09. Nicola Conte & Gianluca Petrella - African Spirits.wav

Pre-gap length 0:00:00.76

Peak level 99.8 %
Extraction speed 8.4 X
Track quality 100.0 %
Test CRC E95E0614
Copy CRC E95E0614
Track not present in AccurateRip database
Copy OK

Track 10

Filename F:\#EAC wav+flac\#add\Nicola Conte & Gianluca Petrella - People Need People\10. Nicola Conte & Gianluca Petrella Ft. Nduduzo Makhathini - Tribes.wav

Pre-gap length 0:00:00.76

Peak level 99.8 %
Extraction speed 8.7 X
Track quality 100.0 %
Test CRC CC6E884B
Copy CRC CC6E884B
Track not present in AccurateRip database
Copy OK

Track 11

Filename F:\#EAC wav+flac\#add\Nicola Conte & Gianluca Petrella - People Need People\11. Nicola Conte & Gianluca Petrella Ft. Débo Ray - Mother Of The Earth.wav

Pre-gap length 0:00:01.08

Peak level 99.8 %
Extraction speed 8.8 X
Track quality 100.0 %
Test CRC 3C005FB5
Copy CRC 3C005FB5
Track not present in AccurateRip database
Copy OK


None of the tracks are present in the AccurateRip database

No errors occurred

End of status report

–– CUETools DB Plugin V2.1.6

[CTDB TOCID: 64Az6uRQnMjrFMYUmMCyTqRz7ko-] found
Submit result: 64Az6uRQnMjrFMYUmMCyTqRz7ko- has been confirmed
Track | CTDB Status
1 | (2/2) Accurately ripped
2 | (2/2) Accurately ripped
3 | (2/2) Accurately ripped
4 | (2/2) Accurately ripped
5 | (2/2) Accurately ripped
6 | (2/2) Accurately ripped
7 | (2/2) Accurately ripped
8 | (2/2) Accurately ripped
9 | (2/2) Accurately ripped
10 | (2/2) Accurately ripped
11 | (2/2) Accurately ripped


==== Log checksum 7B777E3CC7B957E6FDDEA1862B1E13747DC89086CBA30639D1AB6816DD0DEAE1 ====

––––––––––––––––––––––––––––––

Exact Audio Copy V1.3 from 2. September 2016

EAC extraction logfile from 5. June 2021, 9:15

Nicola Conte & Gianluca Petrella / People Need People

Used drive : HL-DT-STBD-RE BH16NS55 Adapter: 1 ID: 0

Read mode : Secure
Utilize accurate stream : Yes
Defeat audio cache : Yes
Make use of C2 pointers : No

Read offset correction : 6
Overread into Lead-In and Lead-Out : No
Fill up missing offset samples with silence : Yes
Delete leading and trailing silent blocks : No
Null samples used in CRC calculations : Yes
Used interface : Native Win32 interface for Win NT & 2000
Gap handling : Appended to previous track

Used output format : User Defined Encoder
Selected bitrate : 1024 kBit/s
Quality : High
Add ID3 tag : No
Command line compressor : C:\Program Files (x86)\Exact Audio Copy\Flac\flac.exe
Additional command line options : -8 -V -T "ARTIST=%artist%" -T "TITLE=%title%" -T "ALBUM=%albumtitle%" -T "DATE=%year%" -T "TRACKNUMBER=%tracknr%" -T "GENRE=%genre%" -T "PERFORMER=%albuminterpret%" -T "COMPOSER=%composer%" %haslyrics%–tag-from-file=LYRICS="%lyricsfile%"%haslyrics% -T "ALBUMARTIST=%albumartist%" -T "DISCNUMBER=%cdnumber%" -T "TOTALDISCS=%totalcds%" -T "TOTALTRACKS=%numtracks%" -T "COMMENT=%comment%" %source% -o %dest%


TOC of the extracted CD

Track | Start | Length | Start sector | End sector
––––––––––––––––––––––––––––-
1 | 0:00.00 | 4:54.45 | 0 | 22094
2 | 4:54.45 | 4:15.34 | 22095 | 41253
3 | 9:10.04 | 4:59.02 | 41254 | 63680
4 | 14:09.06 | 5:09.37 | 63681 | 86892
5 | 19:18.43 | 4:19.26 | 86893 | 106343
6 | 23:37.69 | 6:22.19 | 106344 | 135012
7 | 30:00.13 | 6:39.17 | 135013 | 164954
8 | 36:39.30 | 3:53.19 | 164955 | 182448
9 | 40:32.49 | 6:44.63 | 182449 | 212811
10 | 47:17.37 | 6:46.42 | 212812 | 243303
11 | 54:04.04 | 5:01.67 | 243304 | 265945


Track 1

Filename F:\#EAC wav+flac\#add\Nicola Conte & Gianluca Petrella - People Need People\01. Nicola Conte & Gianluca Petrella Ft. Débo Ray - Hold On To Your Dreams.wav

Pre-gap length 0:00:02.00

Peak level 99.8 %
Extraction speed 4.5 X
Track quality 100.0 %
Test CRC 7067F6C8
Copy CRC 7067F6C8
Track not present in AccurateRip database
Copy OK

Track 2

Filename F:\#EAC wav+flac\#add\Nicola Conte & Gianluca Petrella - People Need People\02. Nicola Conte & Gianluca Petrella Ft. Raashan Ahmad, Carolina Bubbico - The Higher Love.wav

Pre-gap length 0:00:00.76

Peak level 99.8 %
Extraction speed 5.0 X
Track quality 100.0 %
Test CRC 2923F23B
Copy CRC 2923F23B
Track not present in AccurateRip database
Copy OK

Track 3

Filename F:\#EAC wav+flac\#add\Nicola Conte & Gianluca Petrella - People Need People\03. Nicola Conte & Gianluca Petrella Ft. Bridgette Amofah - Imani River.wav

Pre-gap length 0:00:00.77

Peak level 99.8 %
Extraction speed 5.6 X
Track quality 100.0 %
Test CRC 10151468
Copy CRC 10151468
Track not present in AccurateRip database
Copy OK

Track 4

Filename F:\#EAC wav+flac\#add\Nicola Conte & Gianluca Petrella - People Need People\04. Nicola Conte & Gianluca Petrella - Nigeria.wav

Pre-gap length 0:00:00.76

Peak level 99.8 %
Extraction speed 6.1 X
Track quality 100.0 %
Test CRC 6B8A794B
Copy CRC 6B8A794B
Track not present in AccurateRip database
Copy OK

Track 5

Filename F:\#EAC wav+flac\#add\Nicola Conte & Gianluca Petrella - People Need People\05. Nicola Conte & Gianluca Petrella Ft. Davide Shorty - People Need People.wav

Pre-gap length 0:00:00.76

Peak level 99.8 %
Extraction speed 6.3 X
Track quality 100.0 %
Test CRC D5DC0968
Copy CRC D5DC0968
Track not present in AccurateRip database
Copy OK

Track 6

Filename F:\#EAC wav+flac\#add\Nicola Conte & Gianluca Petrella - People Need People\06. Nicola Conte & Gianluca Petrella Ft. Raashan Ahmad - Inner Light.wav

Pre-gap length 0:00:00.76

Peak level 99.8 %
Extraction speed 7.1 X
Track quality 100.0 %
Test CRC F21F3695
Copy CRC F21F3695
Track not present in AccurateRip database
Copy OK

Track 7

Filename F:\#EAC wav+flac\#add\Nicola Conte & Gianluca Petrella - People Need People\07. Nicola Conte & Gianluca Petrella Ft. Bridgette Amofah - New World Shuffle.wav

Pre-gap length 0:00:00.76

Peak level 99.8 %
Extraction speed 7.5 X
Track quality 100.0 %
Test CRC 8231AF1F
Copy CRC 8231AF1F
Track not present in AccurateRip database
Copy OK

Track 8

Filename F:\#EAC wav+flac\#add\Nicola Conte & Gianluca Petrella - People Need People\08. Nicola Conte & Gianluca Petrella Ft. Raashan Ahmad - Good Juju.wav

Pre-gap length 0:00:01.40

Peak level 99.8 %
Extraction speed 7.5 X
Track quality 100.0 %
Test CRC 78C95E1D
Copy CRC 78C95E1D
Track not present in AccurateRip database
Copy OK

Track 9

Filename F:\#EAC wav+flac\#add\Nicola Conte & Gianluca Petrella - People Need People\09. Nicola Conte & Gianluca Petrella - African Spirits.wav

Pre-gap length 0:00:00.76

Peak level 99.8 %
Extraction speed 8.4 X
Track quality 100.0 %
Test CRC E95E0614
Copy CRC E95E0614
Track not present in AccurateRip database
Copy OK

Track 10

Filename F:\#EAC wav+flac\#add\Nicola Conte & Gianluca Petrella - People Need People\10. Nicola Conte & Gianluca Petrella Ft. Nduduzo Makhathini - Tribes.wav

Pre-gap length 0:00:00.76

Peak level 99.8 %
Extraction speed 8.7 X
Track quality 100.0 %
Test CRC CC6E884B
Copy CRC CC6E884B
Track not present in AccurateRip database
Copy OK

Track 11

Filename F:\#EAC wav+flac\#add\Nicola Conte & Gianluca Petrella - People Need People\11. Nicola Conte & Gianluca Petrella Ft. Débo Ray - Mother Of The Earth.wav

Pre-gap length 0:00:01.08

Peak level 99.8 %
Extraction speed 8.8 X
Track quality 100.0 %
Test CRC 3C005FB5
Copy CRC 3C005FB5
Track not present in AccurateRip database
Copy OK


None of the tracks are present in the AccurateRip database

No errors occurred

End of status report

–– CUETools DB Plugin V2.1.6

[CTDB TOCID: 64Az6uRQnMjrFMYUmMCyTqRz7ko-] found
Submit result: 64Az6uRQnMjrFMYUmMCyTqRz7ko- has been confirmed
Track | CTDB Status
1 | (2/2) Accurately ripped
2 | (2/2) Accurately ripped
3 | (2/2) Accurately ripped
4 | (2/2) Accurately ripped
5 | (2/2) Accurately ripped
6 | (2/2) Accurately ripped
7 | (2/2) Accurately ripped
8 | (2/2) Accurately ripped
9 | (2/2) Accurately ripped
10 | (2/2) Accurately ripped
11 | (2/2) Accurately ripped


==== Log checksum 7B777E3CC7B957E6FDDEA1862B1E13747DC89086CBA30639D1AB6816DD0DEAE1 ====

Thanks to the Original ripper !