Tags
Language
Tags
June 2024
Su Mo Tu We Th Fr Sa
26 27 28 29 30 31 1
2 3 4 5 6 7 8
9 10 11 12 13 14 15
16 17 18 19 20 21 22
23 24 25 26 27 28 29
30 1 2 3 4 5 6

Nothing - The Great Dismal (2020)

Posted By: delpotro
Nothing - The Great Dismal (2020)

Nothing - The Great Dismal (2020)
EAC Rip | FLAC (tracks+log+.cue) - 332 Mb | MP3 CBR 320 kbps - 107 Mb | 00:46:10
Alternative Rock, Shoegaze | Label: Relapse Records

The Great Dismal, NOTHING’s new full-length album explores existentialist themes of isolation, extinction, and human behavior in the face of 2020’s vast wasteland.

Closing in on the band’s ten-year mark, frontman Domenic Palermo finds himself stringing together songs of misanthropic tales of Philadelphia with a refined and refreshed take on NOTHING's classic sound.

“The Great Dismal refers to a swamp, a brilliant natural trap where survival is custom fit to its inhabitants,” Palermo states. “The nature of its beautiful, but taxing environment and harsh conditions can’t ever really be shaken or forgotten too easily.”

The ever progressive NOTHING keep true to their chaotic outlook on life, keeping a keen eye to avoid repetition. With a radical cast of talented contributors such as harpist Mary Lattimore, classical musician Shelley Weiss, and singer/songwriter/producer Alex G., The Great Dismal showcases yet another essential side of the band’s trademark American Post-Shoegaze.
Tracklist:
1. A Fabricated Life (05:46)
2. Say Less (04:15)
3. April Ha Ha (04:20)
4. Catch a Fade (03:50)
5. Famine Asylum (04:10)
6. Bernie Sanders (04:07)
7. In Blueberry Memories (05:19)
8. Blue Mecca (05:17)
9. Just a Story (04:16)
10. Ask The Rust (04:48)

Exact Audio Copy V1.3 from 2. September 2016

EAC extraction logfile from 31. October 2020, 12:17

Nothing / The Great Dismal

Used drive : ASUS DRW-24F1ST d Adapter: 1 ID: 0

Read mode : Secure
Utilize accurate stream : Yes
Defeat audio cache : Yes
Make use of C2 pointers : No

Read offset correction : 6
Overread into Lead-In and Lead-Out : No
Fill up missing offset samples with silence : Yes
Delete leading and trailing silent blocks : No
Null samples used in CRC calculations : Yes
Used interface : Native Win32 interface for Win NT & 2000
Gap handling : Appended to previous track

Used output format : User Defined Encoder
Selected bitrate : 1024 kBit/s
Quality : High
Add ID3 tag : No
Command line compressor : C:\Program Files (x86)\Exact Audio Copy\Flac\flac.exe
Additional command line options : -8 -e -p -V -T "ARTIST=%artist%" -T "TITLE=%title%" -T "ALBUM=%albumtitle%" -T "DATE=%year%" -T "TRACKNUMBER=%tracknr%" -T "GENRE=%genre%" -T "PERFORMER=%albuminterpret%" -T "COMPOSER=%composer%" %haslyrics%–tag-from-file=LYRICS="%lyricsfile%"%haslyrics% -T "ALBUMARTIST=%albumartist%" -T "DISCNUMBER=%cdnumber%" -T "TOTALDISCS=%totalcds%" -T "TOTALTRACKS=%numtracks%" -T "COMMENT=%comment%" %source% -o %dest%


TOC of the extracted CD

Track | Start | Length | Start sector | End sector
––––––––––––––––––––––––––––-
1 | 0:00.00 | 5:46.21 | 0 | 25970
2 | 5:46.21 | 4:15.20 | 25971 | 45115
3 | 10:01.41 | 4:20.34 | 45116 | 64649
4 | 14:22.00 | 3:50.32 | 64650 | 81931
5 | 18:12.32 | 4:10.07 | 81932 | 100688
6 | 22:22.39 | 4:07.17 | 100689 | 119230
7 | 26:29.56 | 5:18.53 | 119231 | 143133
8 | 31:48.34 | 5:17.35 | 143134 | 166943
9 | 37:05.69 | 4:16.33 | 166944 | 186176
10 | 41:22.27 | 4:48.35 | 186177 | 207811


Track 1

Filename H:\Torrents\Media\Nothing - The Great Dismal [Relapse Records RR7461] (FLAC)\01 - A Fabricated Life.wav

Pre-gap length 0:00:02.00

Peak level 100.0 %
Extraction speed 4.1 X
Track quality 99.9 %
Test CRC 32E7395E
Copy CRC 32E7395E
Track not present in AccurateRip database
Copy OK

Track 2

Filename H:\Torrents\Media\Nothing - The Great Dismal [Relapse Records RR7461] (FLAC)\02 - Say Less.wav

Peak level 100.0 %
Extraction speed 4.3 X
Track quality 99.9 %
Test CRC 9259D84A
Copy CRC 9259D84A
Track not present in AccurateRip database
Copy OK

Track 3

Filename H:\Torrents\Media\Nothing - The Great Dismal [Relapse Records RR7461] (FLAC)\03 - April Ha Ha.wav

Peak level 100.0 %
Extraction speed 5.6 X
Track quality 100.0 %
Test CRC 30C3C1E3
Copy CRC 30C3C1E3
Track not present in AccurateRip database
Copy OK

Track 4

Filename H:\Torrents\Media\Nothing - The Great Dismal [Relapse Records RR7461] (FLAC)\04 - Catch a Fade.wav

Peak level 100.0 %
Extraction speed 4.9 X
Track quality 99.9 %
Test CRC 713443FB
Copy CRC 713443FB
Track not present in AccurateRip database
Copy OK

Track 5

Filename H:\Torrents\Media\Nothing - The Great Dismal [Relapse Records RR7461] (FLAC)\05 - Famine Asylum.wav

Peak level 100.0 %
Extraction speed 6.3 X
Track quality 100.0 %
Test CRC 030918AC
Copy CRC 030918AC
Track not present in AccurateRip database
Copy OK

Track 6

Filename H:\Torrents\Media\Nothing - The Great Dismal [Relapse Records RR7461] (FLAC)\06 - Bernie Sanders.wav

Peak level 100.0 %
Extraction speed 6.6 X
Track quality 100.0 %
Test CRC CEF4D8A4
Copy CRC CEF4D8A4
Track not present in AccurateRip database
Copy OK

Track 7

Filename H:\Torrents\Media\Nothing - The Great Dismal [Relapse Records RR7461] (FLAC)\07 - In Blueberry Memories.wav

Peak level 100.0 %
Extraction speed 6.3 X
Track quality 99.9 %
Test CRC D1D32690
Copy CRC D1D32690
Track not present in AccurateRip database
Copy OK

Track 8

Filename H:\Torrents\Media\Nothing - The Great Dismal [Relapse Records RR7461] (FLAC)\08 - Blue Mecca.wav

Peak level 100.0 %
Extraction speed 7.6 X
Track quality 100.0 %
Test CRC 118AF0B3
Copy CRC 118AF0B3
Track not present in AccurateRip database
Copy OK

Track 9

Filename H:\Torrents\Media\Nothing - The Great Dismal [Relapse Records RR7461] (FLAC)\09 - Just a Story.wav

Peak level 100.0 %
Extraction speed 7.8 X
Track quality 100.0 %
Test CRC 38FDCCFE
Copy CRC 38FDCCFE
Track not present in AccurateRip database
Copy OK

Track 10

Filename H:\Torrents\Media\Nothing - The Great Dismal [Relapse Records RR7461] (FLAC)\10 - Ask The Rust.wav

Peak level 100.0 %
Extraction speed 8.1 X
Track quality 100.0 %
Test CRC 3FD06C80
Copy CRC 3FD06C80
Track not present in AccurateRip database
Copy OK


None of the tracks are present in the AccurateRip database

No errors occurred

End of status report

–– CUETools DB Plugin V2.1.6

[CTDB TOCID: ecGnV4XO2T9ce2vgGeIbNsVRKyY-] disk not present in database
Submit result: ecGnV4XO2T9ce2vgGeIbNsVRKyY- has been uploaded


==== Log checksum 2502883EEAFA5AC98A4F9ECFB85136EDE63586999B264033D568FE50D75DE6F5 ====

Thanks to the Original ripper !