Subcategories

Oliver Nelson - The Argo, Verve and Impulse Big Band Studio Sessions (1962-67) {6CD Box Set Mosaic MD6-233 rel 2006}

Posted By: ruskaval
Oliver Nelson - The Argo, Verve and Impulse Big Band Studio Sessions (1962-67) {6CD Box Set Mosaic MD6-233 rel 2006}

Oliver Nelson - The Argo, Verve and Impulse Big Band Studio Sessions (1962-67) {6CD Box Set Mosaic MD6-233 rel 2006}
EAC rip (secure mode) | FLAC (tracks)+CUE+LOG -> 2.57 Gb | MP3 @320 -> 944 Mb
Full Artwork @ 300 dpi (png) -> 167 Mb | 5% repair rar
© 1962-67, 2006 Mosaic Records / UMG | MD6-233
Jazz / Hard Bop / Post Bop / Big Band

Oliver Nelson was one of the more distinctive arrangers to be active in jazz, the studios, and popular music of the '60s. While most Nelson reissues focus on his always-excellent saxophone playing (whether on tenor or alto), this six-CD set, Argo, Verve and Impulse Big Band Studio Sessions, focuses on Oliver Nelson the arranger-composer-bandleader. He does take solos on some of these dates on tenor, alto,and soprano (his only recorded solos on that instrument), but it his writing that takes center stage.

Oliver Nelson - The Argo, Verve and Impulse Big Band Studio Sessions (1962-67) {6CD Box Set Mosaic MD6-233 rel 2006}


Oliver Nelson was one of the more distinctive arrangers to be active in jazz, the studios, and popular music of the '60s. While most Nelson reissues focus on his always-excellent saxophone playing (whether on tenor or alto), this six-CD set, Argo, Verve and Impulse Big Band Studio Sessions, focuses on Oliver Nelson the arranger-composer-bandleader. He does take solos on some of these dates on tenor, alto,and soprano (his only recorded solos on that instrument), but it his writing that takes center stage.

Oliver Nelson - The Argo, Verve and Impulse Big Band Studio Sessions (1962-67) {6CD Box Set Mosaic MD6-233 rel 2006}


Included are his albums Full Nelson, Fantabulous, Jazzhattan Suite (which finds the ensemble called the Jazz Interactions Orchestra), Sound Pieces, and his unusual and reverent tribute set Musical Tribute to JFK: The Kennedy Dream. In addition, Nelson's writing for Leonard Feather's Encyclopedia of Jazz All Stars is here, plus his contributions (usually just part of each record) for sets by organist Shirley Scott (Roll 'Em), a group co-led by Ray Brown and Milt Jackson, and clarinetist Pee Wee Russell (The Spirit of '67). Topping off this well-conceived box are all of the music for organist Jimmy Smith's Hobo Flats, Peter and the Wolf (a classic jazz version), and Smith's first collaboration with guitarist Wes Montgomery, plus a few numbers from Smith's Bashin', Who's Afraid of Virginia Woolf, and Hootchie Coochie Man. In addition to the playing of Jimmy Smith (who was really at his peak during this period), Wes Montgomery, Shirley Scott, and Pee Wee Russell, the most memorable soloists are altoist Phil Woods, cornetist Nat Adderley (on the Feather date), and flugelhornist Clark Terry plus Nelson himself. There is plenty of classic material here (such as the Smith/Montgomery blues jamming on "Down by the Riverside") which, even when the big-band writing is secondary, serves as a superior tribute to the underrated Oliver Nelson.
Oliver Nelson - The Argo, Verve and Impulse Big Band Studio Sessions (1962-67) {6CD Box Set Mosaic MD6-233 rel 2006}


Track Listing, Personnel & Recording Dates

tracklist:
DISC ONE

1. Full Nelson (A) 2:45
(Oliver Nelson)
2. Skokiaan (A) 1:51
(T. Glazer-A. Msarurgwa)
3. Miss Fine (A) 4:09
(Oliver Nelson)
4. Majorca (A) 3:04
(Oliver Nelson)
5. Cool (A) 4:52
(L. Bernstein-S. Sondheim)
6. Back Woods (A) 3:30
(Oliver Nelson)
7. Lila's Theme (A) 3:54
(Jerry Goldsmith)
8. Ballad For Benny (A) 2:34
(Oliver Nelson)
9. Hoe Down (A) 2:48
(Oliver Nelson)
10. Paris Blues (A) 2:54
(Duke Ellington)
11. What Kind Of Fool Am I (A) 3:48
(L. Bricusse-A. Newley)
12. You Love But Once (A) 4:30
(Oliver Nelson)
13. Hobo Flats (B) 4:10
(Oliver Nelson)
14. Post No Bills (B) 5:26
(Oliver Nelson)
15. A Bientot (B) 3:44
(Billy Taylor)
16. Three Plus One (B) 3:22
(Oliver Nelson)
17. Take Me With You (B) 5:25
(Willie Jean Tate-Oliver Nelson)
18. Daylie's Double (B) 3:57
(Audrey Nelson)
19. Teenie's Blues (B) 4:05
(Oliver Nelson)
20. Laz-ie Kate (B) 3:59
(Oliver Nelson)

DISC TWO
1. St. Louis Blues (C) 6:08
(W. C. Handy)
2. I Remember Bird (C) 6:25
(Leonard Feather)
3. Ricardo's Dilemma (C) 2:31
(Roy Ayers)
4. Patterns For Orchestra (C) 3:12
(Oliver Nelson)
5. The Sidewalks Of New York (aka East Side, West Side) (C) 6:29
(C. Lawler-J. Black)
6. Greensleeves (C) 2:26
(traditional)
7. John Brown's Blues (C) 3:20
(arranged by Oliver Nelson)
8. Twelve Tone Blues (C) 3:04
(Leonard Feather)
9. A Typical Day In New York (D) 4:42
(Oliver Nelson)
10. The East Side/The West Side (D) 4:10
(Oliver Nelson)
11. 125th And Seventh Ave. (D) 6:36
(Oliver Nelson)
12. A Penthouse Dawn (D) 3:07
(Oliver Nelson)
13. One For Duke (D) 5:24
(Oliver Nelson)
14. Complex City (D) 8:07
(Oliver Nelson)

DISC THREE
1. Roll 'Em (E) 4:06
(Mary Lou Williams)
2. For Dancers Only (E) 3:40
(Raye-Oliver-Schoen)
3. Sophisticated Swing (E) 2:49
(W. Hudson-M. Parish)
4. Sometimes I'm Happy (E) 3:52
(Youmans-Caesar-Grey)
5. Lined With A Groove (F) 5:29
(Ray Brown)
6. Lazy Theme (F) 4:49
(Oscar Peterson)
7. Now Hear My Meaning (F) 5:12
(Jimmy Woode)
8. In A Crowd 6:00
(John Lewis)
9. Sound Piece For Jazz Orchestra (G) 9:42
(Oliver Nelson)
10. Flute Salad (G) 2:47
(Oliver Nelson)
11. The Lady From Girl Talk (G) 4:57
(Oliver Nelson)

DISC FOUR
1. Let The Word Go Forth (H) 6:15
(Oliver Nelson)
2. A Genuine Peace (H) 2:35
(Oliver Nelson)
3. The Rights Of All (H) 3:55
(Oliver Nelson)
4. Tolerance (H) 3:21
(Oliver Nelson)
5. The Artists' Rightful Place (H) 3:26
(Oliver Nelson)
6. Jacqueline (H) 2:12
(Oliver Nelson)
7. Day In Dallas (H) 3:37
(Oliver Nelson)
8. John Kennedy Memory Waltz (H) 3:18
(George David Weiss)
9. Love Is Just Around The Corner (I) 2:47
(L. Gensler-L. Robin)
10. This Is It (I) 2:15
(Pee Wee Russell)
11. Memories Of You (I) 3:09
(E. Blake-A. Razaf)
12. Pee Wee's Blues (I) 3:48
(Pee Wee Russell)
13. The Shadow Of Your Smile (I) 2:26
(J. Mandel-P.F. Webster)
14, Ja-Da (I) 3:44
(Bob Carleton)
15. A Good Man Is Hard To Find (I) 2:52
(Harry Saville)
16. Bopol (I) 2:55
(Oliver Nelson)
17. I'm Coming Virginia (I) 4:17
(D. Heywood-M. Cook)
18. Six And Four (I) 3:36
(Oliver Nelson)

DISC FIVE
1. Walk On The Wild Side (J) 5:53
(Elmer Bernstein-Mack David)
2. Ol' Man River (J) 3:55
(J. Kern-O. Hammerstein)
3. In A Mellow Tone (J) 4:22
(Duke Ellington)
4. Step Right Up (J) 4:11
(Oliver Nelson)
5. Hobo Flats (K) 4:44
(Oliver Nelson)
6. Blueberry Hill (K) 4:53
(Lewis-Stock-Rose)
7. Walk Right In (K) 3:29
(Gus Cannon)
8. Trouble In Mind (K) 4:21
(Richard M. Jones)
9. The Preacher (K) 6:12
(Horace Silver)
10. Meditation (K) 3:04
(Jobim-Mendonca-Gimbel)
11. I Can't Stop Loving You (K) 4:27
(Don Gibson)
12. Slaughter On Tenth Avenue (L) 7:06
(Richard Rodgers)
13. Who's Afraid Of Virginia Wolff, part one (L) 4:27
(K. Knox-D. Kirkpatrick)
14. Who's Afraid Of Virginia Wolff, part two (L) 4:58
(K. Knox-D. Kirkpatrick)

DISC SIX
1. The Bird/The Duck/The Cat/The Grandfather/The Wolf/The Hunter/Peter (M) 4:09
(Serge Prokofiev)
2. Duck Theme/Jimmy And The Duck/Peter's Theme/Meal Time (M) 9:38
(Oliver Nelson)
3. Elegy For A Duck (M) 7:15
(Oliver Nelson)
4. Cat In A Tree (M) 5:20
(Oliver Nelson)
5. Capture Of The Wolf (M) 1:14
(Oliver Nelson)
6. Finale: Parade/Peter Plays Some Blues (M) 4:45
(Oliver Nelson)
7. One Mint Julep (N) 5:28
(Rodolph Toombs)
8. Blues And The Abstract Truth (N) 5:25
(Oliver Nelson)
9. Down By The Riverside (O) 9:59
(arranged byOliver Nelson)
10. Night Train (O) 6:46
(J. Forrest-O. Washington)
11. 13 (Death March) (O) 5:20
(Gary McFarland)
12. Milestones (O) 4:08
(Miles Davis)
13. 'Round Midnight (O) 7:17
(Thelonious Monk)

Exact Audio Copy V0.99 prebeta 5 from 4. May 2009

EAC extraction logfile from 11. April 2014, 11:52

Oliver Nelson / The Argo, Verve And Impulse Big Band Studio Sessions (CD1)

Used drive : PLEXTOR DVDR PX-L890SA Adapter: 6 ID: 0

Read mode : Secure
Utilize accurate stream : Yes
Defeat audio cache : Yes
Make use of C2 pointers : No

Read offset correction : 6
Overread into Lead-In and Lead-Out : No
Fill up missing offset samples with silence : Yes
Delete leading and trailing silent blocks : No
Null samples used in CRC calculations : Yes
Used interface : Native Win32 interface for Win NT & 2000
Gap handling : Appended to previous track

Used output format : User Defined Encoder
Selected bitrate : 1024 kBit/s
Quality : High
Add ID3 tag : No
Command line compressor : C:\Program Files (x86)\FLAC Frontend\tools\flac.exe
Additional command line options : -8 -V -T "ARTIST=%a" -T "TITLE=%t" -T "ALBUM=%g" -T "DATE=%y" -T "TRACKNUMBER=%n" -T "GENRE=%m" -T "COMMENT=EAC FLAC -8" %s


TOC of the extracted CD

Track | Start | Length | Start sector | End sector
––––––––––––––––––––––––––––-
1 | 0:00.00 | 2:47.68 | 0 | 12592
2 | 2:47.68 | 1:54.37 | 12593 | 21179
3 | 4:42.30 | 4:11.48 | 21180 | 40052
4 | 8:54.03 | 3:06.43 | 40053 | 54045
5 | 12:00.46 | 4:55.23 | 54046 | 76193
6 | 16:55.69 | 3:32.53 | 76194 | 92146
7 | 20:28.47 | 3:55.46 | 92147 | 109817
8 | 24:24.18 | 2:36.65 | 109818 | 121582
9 | 27:01.08 | 2:50.57 | 121583 | 134389
10 | 29:51.65 | 2:57.05 | 134390 | 147669
11 | 32:48.70 | 3:51.12 | 147670 | 165006
12 | 36:40.07 | 4:31.46 | 165007 | 185377
13 | 41:11.53 | 4:12.33 | 185378 | 204310
14 | 45:24.11 | 5:28.53 | 204311 | 228963
15 | 50:52.64 | 3:46.23 | 228964 | 245936
16 | 54:39.12 | 3:23.68 | 245937 | 261229
17 | 58:03.05 | 5:27.19 | 261230 | 285773
18 | 63:30.24 | 4:00.07 | 285774 | 303780
19 | 67:30.31 | 4:07.00 | 303781 | 322305
20 | 71:37.31 | 4:01.09 | 322306 | 340389


Track 1

Filename C:\Oliver Nelson - The Argo, Verve and Impulse Big Band Studio Sessions (2006) [FLAC] {Mosaic}\CD1\01 - Full Nelson.wav

Pre-gap length 0:00:02.00

Peak level 100.0 %
Track quality 100.0 %
Test CRC A7723F49
Copy CRC A7723F49
Accurately ripped (confidence 8) [8979F7E2]
Copy OK

Track 2

Filename C:\Oliver Nelson - The Argo, Verve and Impulse Big Band Studio Sessions (2006) [FLAC] {Mosaic}\CD1\02 - Skokiaan.wav

Peak level 96.0 %
Track quality 100.0 %
Test CRC 226F383E
Copy CRC 226F383E
Accurately ripped (confidence 9) [3B23C092]
Copy OK

Track 3

Filename C:\Oliver Nelson - The Argo, Verve and Impulse Big Band Studio Sessions (2006) [FLAC] {Mosaic}\CD1\03 - Miss Fine.wav

Peak level 100.0 %
Track quality 100.0 %
Test CRC 47719C86
Copy CRC 47719C86
Accurately ripped (confidence 9) [5167B58A]
Copy OK

Track 4

Filename C:\Oliver Nelson - The Argo, Verve and Impulse Big Band Studio Sessions (2006) [FLAC] {Mosaic}\CD1\04 - Majorca.wav

Peak level 100.0 %
Track quality 100.0 %
Test CRC 71447458
Copy CRC 71447458
Accurately ripped (confidence 9) [C1BB83FC]
Copy OK

Track 5

Filename C:\Oliver Nelson - The Argo, Verve and Impulse Big Band Studio Sessions (2006) [FLAC] {Mosaic}\CD1\05 - Cool.wav

Peak level 100.0 %
Track quality 100.0 %
Test CRC B7F138B6
Copy CRC B7F138B6
Accurately ripped (confidence 9) [7AB47378]
Copy OK

Track 6

Filename C:\Oliver Nelson - The Argo, Verve and Impulse Big Band Studio Sessions (2006) [FLAC] {Mosaic}\CD1\06 - Back Woods.wav

Peak level 99.7 %
Track quality 100.0 %
Test CRC E5301A37
Copy CRC E5301A37
Accurately ripped (confidence 9) [A7B49976]
Copy OK

Track 7

Filename C:\Oliver Nelson - The Argo, Verve and Impulse Big Band Studio Sessions (2006) [FLAC] {Mosaic}\CD1\07 - Lila's Theme.wav

Peak level 100.0 %
Track quality 100.0 %
Test CRC 8BA462F4
Copy CRC 8BA462F4
Accurately ripped (confidence 9) [A3041B19]
Copy OK

Track 8

Filename C:\Oliver Nelson - The Argo, Verve and Impulse Big Band Studio Sessions (2006) [FLAC] {Mosaic}\CD1\08 - Ballad Fot Benny.wav

Peak level 100.0 %
Track quality 100.0 %
Test CRC 570F48E8
Copy CRC 570F48E8
Accurately ripped (confidence 9) [F6F2018C]
Copy OK

Track 9

Filename C:\Oliver Nelson - The Argo, Verve and Impulse Big Band Studio Sessions (2006) [FLAC] {Mosaic}\CD1\09 - Hoe Down.wav

Peak level 97.6 %
Track quality 100.0 %
Test CRC A8126C2D
Copy CRC A8126C2D
Accurately ripped (confidence 9) [4E0EAA38]
Copy OK

Track 10

Filename C:\Oliver Nelson - The Argo, Verve and Impulse Big Band Studio Sessions (2006) [FLAC] {Mosaic}\CD1\10 - Paris Blues.wav

Peak level 100.0 %
Track quality 100.0 %
Test CRC BDB0A7E6
Copy CRC BDB0A7E6
Accurately ripped (confidence 9) [5BEC4DB0]
Copy OK

Track 11

Filename C:\Oliver Nelson - The Argo, Verve and Impulse Big Band Studio Sessions (2006) [FLAC] {Mosaic}\CD1\11 - What Kind Of Fool Am I.wav

Peak level 90.6 %
Track quality 100.0 %
Test CRC C38D927C
Copy CRC C38D927C
Accurately ripped (confidence 9) [C07F4A1F]
Copy OK

Track 12

Filename C:\Oliver Nelson - The Argo, Verve and Impulse Big Band Studio Sessions (2006) [FLAC] {Mosaic}\CD1\12 - You Love But Once.wav

Peak level 90.0 %
Track quality 99.9 %
Test CRC DB2D47CD
Copy CRC DB2D47CD
Accurately ripped (confidence 9) [67328F12]
Copy OK

Track 13

Filename C:\Oliver Nelson - The Argo, Verve and Impulse Big Band Studio Sessions (2006) [FLAC] {Mosaic}\CD1\13 - Hobo Flats.wav

Peak level 93.0 %
Track quality 100.0 %
Test CRC 78D0309C
Copy CRC 78D0309C
Accurately ripped (confidence 9) [CAA83DFC]
Copy OK

Track 14

Filename C:\Oliver Nelson - The Argo, Verve and Impulse Big Band Studio Sessions (2006) [FLAC] {Mosaic}\CD1\14 - Post No Bills.wav

Peak level 91.1 %
Track quality 99.9 %
Test CRC B368BB71
Copy CRC B368BB71
Accurately ripped (confidence 9) [55E4910C]
Copy OK

Track 15

Filename C:\Oliver Nelson - The Argo, Verve and Impulse Big Band Studio Sessions (2006) [FLAC] {Mosaic}\CD1\15 - A Bientot.wav

Peak level 98.3 %
Track quality 100.0 %
Test CRC 9BF0E67D
Copy CRC 9BF0E67D
Accurately ripped (confidence 9) [EE7A90B6]
Copy OK

Track 16

Filename C:\Oliver Nelson - The Argo, Verve and Impulse Big Band Studio Sessions (2006) [FLAC] {Mosaic}\CD1\16 - Three Plus One.wav

Peak level 100.0 %
Track quality 100.0 %
Test CRC 4BBB0ED6
Copy CRC 4BBB0ED6
Accurately ripped (confidence 9) [4B56CEF5]
Copy OK

Track 17

Filename C:\Oliver Nelson - The Argo, Verve and Impulse Big Band Studio Sessions (2006) [FLAC] {Mosaic}\CD1\17 - Take Me With You.wav

Peak level 100.0 %
Track quality 100.0 %
Test CRC 8022C8E8
Copy CRC 8022C8E8
Accurately ripped (confidence 9) [B1617049]
Copy OK

Track 18

Filename C:\Oliver Nelson - The Argo, Verve and Impulse Big Band Studio Sessions (2006) [FLAC] {Mosaic}\CD1\18 - Daylie's Double.wav

Peak level 100.0 %
Track quality 99.9 %
Test CRC 3FF7C494
Copy CRC 3FF7C494
Accurately ripped (confidence 9) [6D365457]
Copy OK

Track 19

Filename C:\Oliver Nelson - The Argo, Verve and Impulse Big Band Studio Sessions (2006) [FLAC] {Mosaic}\CD1\19 - Teenie's Blues.wav

Peak level 92.6 %
Track quality 100.0 %
Test CRC 9200148F
Copy CRC 9200148F
Accurately ripped (confidence 9) [37C72209]
Copy OK

Track 20

Filename C:\Oliver Nelson - The Argo, Verve and Impulse Big Band Studio Sessions (2006) [FLAC] {Mosaic}\CD1\20 - Laz-Ie Kate.wav

Peak level 100.0 %
Track quality 100.0 %
Test CRC 7ECB3170
Copy CRC 7ECB3170
Accurately ripped (confidence 9) [4D802D6E]
Copy OK


All tracks accurately ripped

No errors occurred

End of status report

Exact Audio Copy V0.99 prebeta 5 from 4. May 2009

EAC extraction logfile from 11. April 2014, 12:57

Oliver Nelson / The Argo, Verve And Impulse Big Band Studio Sessions (CD2)

Used drive : PLEXTOR DVDR PX-L890SA Adapter: 6 ID: 0

Read mode : Secure
Utilize accurate stream : Yes
Defeat audio cache : Yes
Make use of C2 pointers : No

Read offset correction : 6
Overread into Lead-In and Lead-Out : No
Fill up missing offset samples with silence : Yes
Delete leading and trailing silent blocks : No
Null samples used in CRC calculations : Yes
Used interface : Native Win32 interface for Win NT & 2000
Gap handling : Appended to previous track

Used output format : User Defined Encoder
Selected bitrate : 1024 kBit/s
Quality : High
Add ID3 tag : No
Command line compressor : C:\Program Files (x86)\FLAC Frontend\tools\flac.exe
Additional command line options : -8 -V -T "ARTIST=%a" -T "TITLE=%t" -T "ALBUM=%g" -T "DATE=%y" -T "TRACKNUMBER=%n" -T "GENRE=%m" -T "COMMENT=EAC FLAC -8" %s


TOC of the extracted CD

Track | Start | Length | Start sector | End sector
––––––––––––––––––––––––––––-
1 | 0:00.00 | 6:10.74 | 0 | 27823
2 | 6:10.74 | 6:28.31 | 27824 | 56954
3 | 12:39.30 | 2:33.73 | 56955 | 68502
4 | 15:13.28 | 3:13.51 | 68503 | 83028
5 | 18:27.04 | 6:30.59 | 83029 | 112337
6 | 24:57.63 | 2:28.54 | 112338 | 123491
7 | 27:26.42 | 3:22.25 | 123492 | 138666
8 | 30:48.67 | 3:06.68 | 138667 | 152684
9 | 33:55.60 | 4:45.42 | 152685 | 174101
10 | 38:41.27 | 4:12.71 | 174102 | 193072
11 | 42:54.23 | 6:38.67 | 193073 | 222989
12 | 49:33.15 | 3:09.74 | 222990 | 237238
13 | 52:43.14 | 5:26.39 | 237239 | 261727
14 | 58:09.53 | 8:10.11 | 261728 | 298488


Track 1

Filename C:\Oliver Nelson - The Argo, Verve and Impulse Big Band Studio Sessions (2006) [FLAC] {Mosaic}\CD2\01 - St. Louis Blues.wav

Pre-gap length 0:00:02.00

Peak level 97.4 %
Track quality 100.0 %
Test CRC 2E3E8F68
Copy CRC 2E3E8F68
Accurately ripped (confidence 9) [DB5B6279]
Copy OK

Track 2

Filename C:\Oliver Nelson - The Argo, Verve and Impulse Big Band Studio Sessions (2006) [FLAC] {Mosaic}\CD2\02 - I Remember Bird.wav

Peak level 100.0 %
Track quality 100.0 %
Test CRC B24FB3E3
Copy CRC B24FB3E3
Accurately ripped (confidence 9) [F5E3C450]
Copy OK

Track 3

Filename C:\Oliver Nelson - The Argo, Verve and Impulse Big Band Studio Sessions (2006) [FLAC] {Mosaic}\CD2\03 - Ricardo's Dilemma.wav

Peak level 100.0 %
Track quality 100.0 %
Test CRC 5CD4E614
Copy CRC 5CD4E614
Accurately ripped (confidence 9) [930C0CE7]
Copy OK

Track 4

Filename C:\Oliver Nelson - The Argo, Verve and Impulse Big Band Studio Sessions (2006) [FLAC] {Mosaic}\CD2\04 - Patterns For Orchestra.wav

Peak level 100.0 %
Track quality 100.0 %
Test CRC E10E2D9F
Copy CRC E10E2D9F
Accurately ripped (confidence 9) [C7BB46B3]
Copy OK

Track 5

Filename C:\Oliver Nelson - The Argo, Verve and Impulse Big Band Studio Sessions (2006) [FLAC] {Mosaic}\CD2\05 - The Sidewalks Of New York (Aka East Side West Side).wav

Peak level 100.0 %
Track quality 100.0 %
Test CRC B14EE79E
Copy CRC B14EE79E
Accurately ripped (confidence 9) [57E6591E]
Copy OK

Track 6

Filename C:\Oliver Nelson - The Argo, Verve and Impulse Big Band Studio Sessions (2006) [FLAC] {Mosaic}\CD2\06 - Greensleeves.wav

Peak level 95.6 %
Track quality 100.0 %
Test CRC 7A5AADEA
Copy CRC 7A5AADEA
Accurately ripped (confidence 9) [821996DA]
Copy OK

Track 7

Filename C:\Oliver Nelson - The Argo, Verve and Impulse Big Band Studio Sessions (2006) [FLAC] {Mosaic}\CD2\07 - John Brown's Blues.wav

Peak level 100.0 %
Track quality 100.0 %
Test CRC BDD0BCE9
Copy CRC BDD0BCE9
Accurately ripped (confidence 9) [E5A03212]
Copy OK

Track 8

Filename C:\Oliver Nelson - The Argo, Verve and Impulse Big Band Studio Sessions (2006) [FLAC] {Mosaic}\CD2\08 - Twelve Tone Blues.wav

Peak level 94.8 %
Track quality 100.0 %
Test CRC 903F11B0
Copy CRC 903F11B0
Accurately ripped (confidence 9) [28BCBBEA]
Copy OK

Track 9

Filename C:\Oliver Nelson - The Argo, Verve and Impulse Big Band Studio Sessions (2006) [FLAC] {Mosaic}\CD2\09 - A Typical Day In New York.wav

Peak level 99.5 %
Track quality 99.9 %
Test CRC C28F9334
Copy CRC C28F9334
Accurately ripped (confidence 9) [2203044E]
Copy OK

Track 10

Filename C:\Oliver Nelson - The Argo, Verve and Impulse Big Band Studio Sessions (2006) [FLAC] {Mosaic}\CD2\10 - The East Side,The West Side.wav

Peak level 94.4 %
Track quality 100.0 %
Test CRC BA40D2BA
Copy CRC BA40D2BA
Accurately ripped (confidence 9) [27A018C4]
Copy OK

Track 11

Filename C:\Oliver Nelson - The Argo, Verve and Impulse Big Band Studio Sessions (2006) [FLAC] {Mosaic}\CD2\11 - 125Th And Seventh Ave..wav

Peak level 94.7 %
Track quality 100.0 %
Test CRC C63FFF18
Copy CRC C63FFF18
Accurately ripped (confidence 9) [4C8A0A7E]
Copy OK

Track 12

Filename C:\Oliver Nelson - The Argo, Verve and Impulse Big Band Studio Sessions (2006) [FLAC] {Mosaic}\CD2\12 - A Penthouse Dawn.wav

Peak level 94.9 %
Track quality 100.0 %
Test CRC E59C2BAA
Copy CRC E59C2BAA
Accurately ripped (confidence 9) [3D84DF27]
Copy OK

Track 13

Filename C:\Oliver Nelson - The Argo, Verve and Impulse Big Band Studio Sessions (2006) [FLAC] {Mosaic}\CD2\13 - One For Duke.wav

Peak level 100.0 %
Track quality 100.0 %
Test CRC 4E3100AB
Copy CRC 4E3100AB
Accurately ripped (confidence 9) [02AA6B3E]
Copy OK

Track 14

Filename C:\Oliver Nelson - The Argo, Verve and Impulse Big Band Studio Sessions (2006) [FLAC] {Mosaic}\CD2\14 - Complex City.wav

Peak level 100.0 %
Track quality 99.9 %
Test CRC FFB86A01
Copy CRC FFB86A01
Accurately ripped (confidence 9) [4A58BDBE]
Copy OK


All tracks accurately ripped

No errors occurred

End of status report

Exact Audio Copy V0.99 prebeta 5 from 4. May 2009

EAC extraction logfile from 11. April 2014, 15:01

Oliver Nelson / The Argo, Verve And Impulse Big Band Studio Sessions (CD3)

Used drive : PLEXTOR DVDR PX-L890SA Adapter: 6 ID: 0

Read mode : Secure
Utilize accurate stream : Yes
Defeat audio cache : Yes
Make use of C2 pointers : No

Read offset correction : 6
Overread into Lead-In and Lead-Out : No
Fill up missing offset samples with silence : Yes
Delete leading and trailing silent blocks : No
Null samples used in CRC calculations : Yes
Used interface : Native Win32 interface for Win NT & 2000
Gap handling : Appended to previous track

Used output format : User Defined Encoder
Selected bitrate : 1024 kBit/s
Quality : High
Add ID3 tag : No
Command line compressor : C:\Program Files (x86)\FLAC Frontend\tools\flac.exe
Additional command line options : -8 -V -T "ARTIST=%a" -T "TITLE=%t" -T "ALBUM=%g" -T "DATE=%y" -T "TRACKNUMBER=%n" -T "GENRE=%m" -T "COMMENT=EAC FLAC -8" %s


TOC of the extracted CD

Track | Start | Length | Start sector | End sector
––––––––––––––––––––––––––––-
1 | 0:00.00 | 4:08.05 | 0 | 18604
2 | 4:08.05 | 3:43.44 | 18605 | 35373
3 | 7:51.49 | 2:51.67 | 35374 | 48265
4 | 10:43.41 | 3:54.06 | 48266 | 65821
5 | 14:37.47 | 5:31.36 | 65822 | 90682
6 | 20:09.08 | 4:51.61 | 90683 | 112568
7 | 25:00.69 | 5:14.11 | 112569 | 136129
8 | 30:15.05 | 6:03.31 | 136130 | 163385
9 | 36:18.36 | 9:44.04 | 163386 | 207189
10 | 46:02.40 | 2:49.26 | 207190 | 219890
11 | 48:51.66 | 4:59.24 | 219891 | 242339


Track 1

Filename C:\Oliver Nelson - The Argo, Verve and Impulse Big Band Studio Sessions (2006) [FLAC] {Mosaic}\CD3\01 - Roll 'Em.wav

Pre-gap length 0:00:02.00

Peak level 100.0 %
Track quality 99.9 %
Test CRC A146FD45
Copy CRC A146FD45
Accurately ripped (confidence 9) [22E9A2CC]
Copy OK

Track 2

Filename C:\Oliver Nelson - The Argo, Verve and Impulse Big Band Studio Sessions (2006) [FLAC] {Mosaic}\CD3\02 - For Dancers Only.wav

Peak level 98.3 %
Track quality 100.0 %
Test CRC E017F21E
Copy CRC E017F21E
Accurately ripped (confidence 9) [DF80AC9E]
Copy OK

Track 3

Filename C:\Oliver Nelson - The Argo, Verve and Impulse Big Band Studio Sessions (2006) [FLAC] {Mosaic}\CD3\03 - Sophisticated Swing.wav

Peak level 100.0 %
Track quality 100.0 %
Test CRC 089FD92B
Copy CRC 089FD92B
Accurately ripped (confidence 9) [75B4ED4F]
Copy OK

Track 4

Filename C:\Oliver Nelson - The Argo, Verve and Impulse Big Band Studio Sessions (2006) [FLAC] {Mosaic}\CD3\04 - Sometimes I'm Happy.wav

Peak level 100.0 %
Track quality 99.9 %
Test CRC 0F708352
Copy CRC 0F708352
Accurately ripped (confidence 9) [E3855C1B]
Copy OK

Track 5

Filename C:\Oliver Nelson - The Argo, Verve and Impulse Big Band Studio Sessions (2006) [FLAC] {Mosaic}\CD3\05 - Lined With A Groove.wav

Peak level 100.0 %
Track quality 100.0 %
Test CRC 4A49E690
Copy CRC 4A49E690
Accurately ripped (confidence 9) [FFDA429D]
Copy OK

Track 6

Filename C:\Oliver Nelson - The Argo, Verve and Impulse Big Band Studio Sessions (2006) [FLAC] {Mosaic}\CD3\06 - Lazy Theme.wav

Peak level 99.7 %
Track quality 100.0 %
Test CRC 67AC51D3
Copy CRC 67AC51D3
Accurately ripped (confidence 9) [997DB727]
Copy OK

Track 7

Filename C:\Oliver Nelson - The Argo, Verve and Impulse Big Band Studio Sessions (2006) [FLAC] {Mosaic}\CD3\07 - Now Hear My Meaning.wav

Peak level 85.8 %
Track quality 99.9 %
Test CRC C0775841
Copy CRC C0775841
Accurately ripped (confidence 9) [9E1CDAFE]
Copy OK

Track 8

Filename C:\Oliver Nelson - The Argo, Verve and Impulse Big Band Studio Sessions (2006) [FLAC] {Mosaic}\CD3\08 - In A Crowd.wav

Peak level 87.3 %
Track quality 100.0 %
Test CRC 7348E916
Copy CRC 7348E916
Accurately ripped (confidence 9) [C1075DAA]
Copy OK

Track 9

Filename C:\Oliver Nelson - The Argo, Verve and Impulse Big Band Studio Sessions (2006) [FLAC] {Mosaic}\CD3\09 - Sound Piece For Jazz Orchestra.wav

Peak level 100.0 %
Track quality 100.0 %
Test CRC 34B4CAE1
Copy CRC 34B4CAE1
Accurately ripped (confidence 9) [F4404E84]
Copy OK

Track 10

Filename C:\Oliver Nelson - The Argo, Verve and Impulse Big Band Studio Sessions (2006) [FLAC] {Mosaic}\CD3\10 - Flute Salad.wav

Peak level 92.2 %
Track quality 99.9 %
Test CRC 6A342453
Copy CRC 6A342453
Accurately ripped (confidence 9) [FBD47699]
Copy OK

Track 11

Filename C:\Oliver Nelson - The Argo, Verve and Impulse Big Band Studio Sessions (2006) [FLAC] {Mosaic}\CD3\11 - The Lady From Girl Talk.wav

Peak level 98.7 %
Track quality 100.0 %
Test CRC 76E4A84F
Copy CRC 76E4A84F
Accurately ripped (confidence 9) [9A9B8191]
Copy OK


All tracks accurately ripped

No errors occurred

End of status report

Exact Audio Copy V0.99 prebeta 5 from 4. May 2009

EAC extraction logfile from 11. April 2014, 16:55

Oliver Nelson / The Argo, Verve And Impulse Big Band Studio Sessions (CD4)

Used drive : PLEXTOR DVDR PX-L890SA Adapter: 6 ID: 0

Read mode : Secure
Utilize accurate stream : Yes
Defeat audio cache : Yes
Make use of C2 pointers : No

Read offset correction : 6
Overread into Lead-In and Lead-Out : No
Fill up missing offset samples with silence : Yes
Delete leading and trailing silent blocks : No
Null samples used in CRC calculations : Yes
Used interface : Native Win32 interface for Win NT & 2000
Gap handling : Appended to previous track

Used output format : User Defined Encoder
Selected bitrate : 1024 kBit/s
Quality : High
Add ID3 tag : No
Command line compressor : C:\Program Files (x86)\FLAC Frontend\tools\flac.exe
Additional command line options : -8 -V -T "ARTIST=%a" -T "TITLE=%t" -T "ALBUM=%g" -T "DATE=%y" -T "TRACKNUMBER=%n" -T "GENRE=%m" -T "COMMENT=EAC FLAC -8" %s


TOC of the extracted CD

Track | Start | Length | Start sector | End sector
––––––––––––––––––––––––––––-
1 | 0:00.00 | 6:16.66 | 0 | 28265
2 | 6:16.66 | 2:37.38 | 28266 | 40078
3 | 8:54.29 | 3:57.34 | 40079 | 57887
4 | 12:51.63 | 3:23.23 | 57888 | 73135
5 | 16:15.11 | 3:29.43 | 73136 | 88853
6 | 19:44.54 | 2:15.21 | 88854 | 98999
7 | 22:00.00 | 3:40.18 | 99000 | 115517
8 | 25:40.18 | 3:22.73 | 115518 | 130740
9 | 29:03.16 | 2:50.32 | 130741 | 143522
10 | 31:53.48 | 2:18.43 | 143523 | 153915
11 | 34:12.16 | 3:12.48 | 153916 | 168363
12 | 37:24.64 | 3:51.53 | 168364 | 185741
13 | 41:16.42 | 2:28.41 | 185742 | 196882
14 | 43:45.08 | 3:46.45 | 196883 | 213877
15 | 47:31.53 | 2:55.25 | 213878 | 227027
16 | 50:27.03 | 2:58.26 | 227028 | 240403
17 | 53:25.29 | 4:19.39 | 240404 | 259867
18 | 57:44.68 | 3:39.26 | 259868 | 276318


Track 1

Filename C:\Oliver Nelson - The Argo, Verve and Impulse Big Band Studio Sessions (2006) [FLAC] {Mosaic}\CD4\01 - Let The Word Go Forth.wav

Pre-gap length 0:00:02.00

Peak level 100.0 %
Track quality 99.9 %
Test CRC 21D7A973
Copy CRC 21D7A973
Accurately ripped (confidence 8) [AE7B7DC1]
Copy OK

Track 2

Filename C:\Oliver Nelson - The Argo, Verve and Impulse Big Band Studio Sessions (2006) [FLAC] {Mosaic}\CD4\02 - A Genuine Peace.wav

Peak level 100.0 %
Track quality 100.0 %
Test CRC 8B9F8876
Copy CRC 8B9F8876
Accurately ripped (confidence 8) [EBFE9418]
Copy OK

Track 3

Filename C:\Oliver Nelson - The Argo, Verve and Impulse Big Band Studio Sessions (2006) [FLAC] {Mosaic}\CD4\03 - The Rights Of All.wav

Peak level 100.0 %
Track quality 99.9 %
Test CRC E872C152
Copy CRC E872C152
Accurately ripped (confidence 9) [3797C55A]
Copy OK

Track 4

Filename C:\Oliver Nelson - The Argo, Verve and Impulse Big Band Studio Sessions (2006) [FLAC] {Mosaic}\CD4\04 - Tolerance.wav

Peak level 100.0 %
Track quality 100.0 %
Test CRC C671CDD7
Copy CRC C671CDD7
Accurately ripped (confidence 9) [8669AFF4]
Copy OK

Track 5

Filename C:\Oliver Nelson - The Argo, Verve and Impulse Big Band Studio Sessions (2006) [FLAC] {Mosaic}\CD4\05 - The Artists' Rightful Place.wav

Peak level 100.0 %
Track quality 100.0 %
Test CRC 9C6DB40C
Copy CRC 9C6DB40C
Accurately ripped (confidence 9) [55BA39ED]
Copy OK

Track 6

Filename C:\Oliver Nelson - The Argo, Verve and Impulse Big Band Studio Sessions (2006) [FLAC] {Mosaic}\CD4\06 - Jacqueline.wav

Peak level 100.0 %
Track quality 100.0 %
Test CRC 3F03BBF4
Copy CRC 3F03BBF4
Accurately ripped (confidence 9) [88DF25B7]
Copy OK

Track 7

Filename C:\Oliver Nelson - The Argo, Verve and Impulse Big Band Studio Sessions (2006) [FLAC] {Mosaic}\CD4\07 - Day In Dallas.wav

Peak level 97.9 %
Track quality 100.0 %
Test CRC 01B4F087
Copy CRC 01B4F087
Accurately ripped (confidence 9) [C7F52521]
Copy OK

Track 8

Filename C:\Oliver Nelson - The Argo, Verve and Impulse Big Band Studio Sessions (2006) [FLAC] {Mosaic}\CD4\08 - John Kennedy Memory Waltz.wav

Peak level 93.5 %
Track quality 100.0 %
Test CRC 99924963
Copy CRC 99924963
Accurately ripped (confidence 9) [803697E4]
Copy OK

Track 9

Filename C:\Oliver Nelson - The Argo, Verve and Impulse Big Band Studio Sessions (2006) [FLAC] {Mosaic}\CD4\09 - Love Is Just Around The Corner.wav

Peak level 97.4 %
Track quality 100.0 %
Test CRC 50C8106E
Copy CRC 50C8106E
Accurately ripped (confidence 9) [E9C2194D]
Copy OK

Track 10

Filename C:\Oliver Nelson - The Argo, Verve and Impulse Big Band Studio Sessions (2006) [FLAC] {Mosaic}\CD4\10 - This Is It.wav

Peak level 99.3 %
Track quality 100.0 %
Test CRC 54D88A26
Copy CRC 54D88A26
Accurately ripped (confidence 9) [0E4CDE98]
Copy OK

Track 11

Filename C:\Oliver Nelson - The Argo, Verve and Impulse Big Band Studio Sessions (2006) [FLAC] {Mosaic}\CD4\11 - Memories Of You.wav

Peak level 85.4 %
Track quality 100.0 %
Test CRC F13B8CA4
Copy CRC F13B8CA4
Accurately ripped (confidence 9) [8DE16111]
Copy OK

Track 12

Filename C:\Oliver Nelson - The Argo, Verve and Impulse Big Band Studio Sessions (2006) [FLAC] {Mosaic}\CD4\12 - Pee Wee's Blues.wav

Peak level 100.0 %
Track quality 100.0 %
Test CRC 2EA3EEFC
Copy CRC 2EA3EEFC
Accurately ripped (confidence 9) [137A4690]
Copy OK

Track 13

Filename C:\Oliver Nelson - The Argo, Verve and Impulse Big Band Studio Sessions (2006) [FLAC] {Mosaic}\CD4\13 - The Shadow Of Your Smile.wav

Peak level 93.1 %
Track quality 100.0 %
Test CRC 201B9B1B
Copy CRC 201B9B1B
Accurately ripped (confidence 9) [7D13D52B]
Copy OK

Track 14

Filename C:\Oliver Nelson - The Argo, Verve and Impulse Big Band Studio Sessions (2006) [FLAC] {Mosaic}\CD4\14 - Ja-Da.wav

Peak level 97.0 %
Track quality 100.0 %
Test CRC 42483197
Copy CRC 42483197
Accurately ripped (confidence 9) [7B17592C]
Copy OK

Track 15

Filename C:\Oliver Nelson - The Argo, Verve and Impulse Big Band Studio Sessions (2006) [FLAC] {Mosaic}\CD4\15 - A Good Man Is Hard To Find.wav

Peak level 100.0 %
Track quality 99.9 %
Test CRC 890765FE
Copy CRC 890765FE
Accurately ripped (confidence 9) [41663ABB]
Copy OK

Track 16

Filename C:\Oliver Nelson - The Argo, Verve and Impulse Big Band Studio Sessions (2006) [FLAC] {Mosaic}\CD4\16 - Bopol.wav

Peak level 100.0 %
Track quality 100.0 %
Test CRC FC8C41A6
Copy CRC FC8C41A6
Accurately ripped (confidence 9) [C5D68CCA]
Copy OK

Track 17

Filename C:\Oliver Nelson - The Argo, Verve and Impulse Big Band Studio Sessions (2006) [FLAC] {Mosaic}\CD4\17 - I'm Coming Virginia.wav

Peak level 96.5 %
Track quality 100.0 %
Test CRC 50AC14EA
Copy CRC 50AC14EA
Accurately ripped (confidence 9) [81963918]
Copy OK

Track 18

Filename C:\Oliver Nelson - The Argo, Verve and Impulse Big Band Studio Sessions (2006) [FLAC] {Mosaic}\CD4\18 - Six And Four.wav

Peak level 100.0 %
Track quality 100.0 %
Test CRC 83F635F8
Copy CRC 83F635F8
Accurately ripped (confidence 9) [1308277E]
Copy OK


All tracks accurately ripped

No errors occurred

End of status report

Exact Audio Copy V0.99 prebeta 5 from 4. May 2009

EAC extraction logfile from 11. April 2014, 21:09

Oliver Nelson / The Argo, Verve And Impulse Big Band Studio Sessions (CD5)

Used drive : PLEXTOR DVDR PX-L890SA Adapter: 6 ID: 0

Read mode : Secure
Utilize accurate stream : Yes
Defeat audio cache : Yes
Make use of C2 pointers : No

Read offset correction : 6
Overread into Lead-In and Lead-Out : No
Fill up missing offset samples with silence : Yes
Delete leading and trailing silent blocks : No
Null samples used in CRC calculations : Yes
Used interface : Native Win32 interface for Win NT & 2000
Gap handling : Appended to previous track

Used output format : User Defined Encoder
Selected bitrate : 1024 kBit/s
Quality : High
Add ID3 tag : No
Command line compressor : C:\Program Files (x86)\FLAC Frontend\tools\flac.exe
Additional command line options : -8 -V -T "ARTIST=%a" -T "TITLE=%t" -T "ALBUM=%g" -T "DATE=%y" -T "TRACKNUMBER=%n" -T "GENRE=%m" -T "COMMENT=EAC FLAC -8" %s


TOC of the extracted CD

Track | Start | Length | Start sector | End sector
––––––––––––––––––––––––––––-
1 | 0:00.00 | 5:55.34 | 0 | 26658
2 | 5:55.34 | 3:56.41 | 26659 | 44399
3 | 9:52.00 | 4:25.02 | 44400 | 64276
4 | 14:17.02 | 4:13.47 | 64277 | 83298
5 | 18:30.49 | 4:46.48 | 83299 | 104796
6 | 23:17.22 | 4:56.54 | 104797 | 127050
7 | 28:14.01 | 3:31.54 | 127051 | 142929
8 | 31:45.55 | 4:24.18 | 142930 | 162747
9 | 36:09.73 | 6:15.56 | 162748 | 190928
10 | 42:25.54 | 3:06.58 | 190929 | 204936
11 | 45:32.37 | 4:29.41 | 204937 | 225152
12 | 50:02.03 | 7:08.22 | 225153 | 257274
13 | 57:10.25 | 4:28.73 | 257275 | 277447
14 | 61:39.23 | 5:00.25 | 277448 | 299972


Track 1

Filename C:\Oliver Nelson - The Argo, Verve and Impulse Big Band Studio Sessions (2006) [FLAC] {Mosaic}\CD5\01 - Walk On The Wild Side.wav

Pre-gap length 0:00:02.00

Peak level 99.9 %
Track quality 100.0 %
Test CRC 6C881958
Copy CRC 6C881958
Accurately ripped (confidence 8) [6EA87670]
Copy OK

Track 2

Filename C:\Oliver Nelson - The Argo, Verve and Impulse Big Band Studio Sessions (2006) [FLAC] {Mosaic}\CD5\02 - Ol' Man River.wav

Peak level 97.5 %
Track quality 100.0 %
Test CRC 8133BA4C
Copy CRC 8133BA4C
Accurately ripped (confidence 9) [F8535AF4]
Copy OK

Track 3

Filename C:\Oliver Nelson - The Argo, Verve and Impulse Big Band Studio Sessions (2006) [FLAC] {Mosaic}\CD5\03 - In A Mellow Tone.wav

Peak level 100.0 %
Track quality 100.0 %
Test CRC 21C4CCF4
Copy CRC 21C4CCF4
Accurately ripped (confidence 9) [281ABF5E]
Copy OK

Track 4

Filename C:\Oliver Nelson - The Argo, Verve and Impulse Big Band Studio Sessions (2006) [FLAC] {Mosaic}\CD5\04 - Step Right Up.wav

Peak level 99.8 %
Track quality 100.0 %
Test CRC 39C69C2D
Copy CRC 39C69C2D
Accurately ripped (confidence 9) [F587444D]
Copy OK

Track 5

Filename C:\Oliver Nelson - The Argo, Verve and Impulse Big Band Studio Sessions (2006) [FLAC] {Mosaic}\CD5\05 - Hobo Flats.wav

Peak level 95.1 %
Track quality 100.0 %
Test CRC A3DD5628
Copy CRC A3DD5628
Accurately ripped (confidence 8) [4F0D6EC4]
Copy OK

Track 6

Filename C:\Oliver Nelson - The Argo, Verve and Impulse Big Band Studio Sessions (2006) [FLAC] {Mosaic}\CD5\06 - Blueberry Hill.wav

Peak level 87.4 %
Track quality 100.0 %
Test CRC 3D60FFA1
Copy CRC 3D60FFA1
Accurately ripped (confidence 9) [43872203]
Copy OK

Track 7

Filename C:\Oliver Nelson - The Argo, Verve and Impulse Big Band Studio Sessions (2006) [FLAC] {Mosaic}\CD5\07 - Walk Right In.wav

Peak level 99.2 %
Track quality 100.0 %
Test CRC 199B9821
Copy CRC 199B9821
Accurately ripped (confidence 9) [FA70A3AB]
Copy OK

Track 8

Filename C:\Oliver Nelson - The Argo, Verve and Impulse Big Band Studio Sessions (2006) [FLAC] {Mosaic}\CD5\08 - Trouble In Mind.wav

Peak level 100.0 %
Track quality 100.0 %
Test CRC 3665A6C3
Copy CRC 3665A6C3
Accurately ripped (confidence 9) [11F734A3]
Copy OK

Track 9

Filename C:\Oliver Nelson - The Argo, Verve and Impulse Big Band Studio Sessions (2006) [FLAC] {Mosaic}\CD5\09 - The Preacher.wav

Peak level 98.9 %
Track quality 100.0 %
Test CRC CD1977CA
Copy CRC CD1977CA
Accurately ripped (confidence 9) [F2F1171C]
Copy OK

Track 10

Filename C:\Oliver Nelson - The Argo, Verve and Impulse Big Band Studio Sessions (2006) [FLAC] {Mosaic}\CD5\10 - Meditation.wav

Peak level 89.7 %
Track quality 100.0 %
Test CRC 61796C07
Copy CRC 61796C07
Accurately ripped (confidence 9) [8EC0B1ED]
Copy OK

Track 11

Filename C:\Oliver Nelson - The Argo, Verve and Impulse Big Band Studio Sessions (2006) [FLAC] {Mosaic}\CD5\11 - I Can't Stop Loving You.wav

Peak level 100.0 %
Track quality 100.0 %
Test CRC DB9A7C5E
Copy CRC DB9A7C5E
Accurately ripped (confidence 9) [CEDF8E61]
Copy OK

Track 12

Filename C:\Oliver Nelson - The Argo, Verve and Impulse Big Band Studio Sessions (2006) [FLAC] {Mosaic}\CD5\12 - Slaughter On Tenth Avenue.wav

Peak level 94.1 %
Track quality 100.0 %
Test CRC 6801DA15
Copy CRC 6801DA15
Accurately ripped (confidence 9) [2B028002]
Copy OK

Track 13

Filename C:\Oliver Nelson - The Argo, Verve and Impulse Big Band Studio Sessions (2006) [FLAC] {Mosaic}\CD5\13 - Who's Afraid Of Virginia Wolff, Part One.wav

Peak level 100.0 %
Track quality 99.9 %
Test CRC A29ECA3C
Copy CRC A29ECA3C
Accurately ripped (confidence 9) [6FA9DC54]
Copy OK

Track 14

Filename C:\Oliver Nelson - The Argo, Verve and Impulse Big Band Studio Sessions (2006) [FLAC] {Mosaic}\CD5\14 - Who's Afraid Of Virginia Wolff, Part Two.wav

Peak level 100.0 %
Track quality 100.0 %
Test CRC 9609510D
Copy CRC 9609510D
Accurately ripped (confidence 9) [4BA8B170]
Copy OK


All tracks accurately ripped

No errors occurred

End of status report

Exact Audio Copy V0.99 prebeta 5 from 4. May 2009

EAC extraction logfile from 11. April 2014, 22:56

Oliver Nelson / The Argo, Verve And Impulse Big Band Studio Sessions (CD6)

Used drive : PLEXTOR DVDR PX-L890SA Adapter: 6 ID: 0

Read mode : Secure
Utilize accurate stream : Yes
Defeat audio cache : Yes
Make use of C2 pointers : No

Read offset correction : 6
Overread into Lead-In and Lead-Out : No
Fill up missing offset samples with silence : Yes
Delete leading and trailing silent blocks : No
Null samples used in CRC calculations : Yes
Used interface : Native Win32 interface for Win NT & 2000
Gap handling : Appended to previous track

Used output format : User Defined Encoder
Selected bitrate : 1024 kBit/s
Quality : High
Add ID3 tag : No
Command line compressor : C:\Program Files (x86)\FLAC Frontend\tools\flac.exe
Additional command line options : -8 -V -T "ARTIST=%a" -T "TITLE=%t" -T "ALBUM=%g" -T "DATE=%y" -T "TRACKNUMBER=%n" -T "GENRE=%m" -T "COMMENT=EAC FLAC -8" %s


TOC of the extracted CD

Track | Start | Length | Start sector | End sector
––––––––––––––––––––––––––––-
1 | 0:00.00 | 4:10.51 | 0 | 18800
2 | 4:10.51 | 9:39.74 | 18801 | 62299
3 | 13:50.50 | 7:17.44 | 62300 | 95118
4 | 21:08.19 | 5:23.13 | 95119 | 119356
5 | 26:31.32 | 1:16.31 | 119357 | 125087
6 | 27:47.63 | 4:48.58 | 125088 | 146745
7 | 32:36.46 | 5:29.67 | 146746 | 171487
8 | 38:06.38 | 5:27.25 | 171488 | 196037
9 | 43:33.63 | 10:01.57 | 196038 | 241169
10 | 53:35.45 | 6:48.53 | 241170 | 271822
11 | 60:24.23 | 5:22.10 | 271823 | 295982
12 | 65:46.33 | 4:10.63 | 295983 | 314795
13 | 69:57.21 | 7:19.58 | 314796 | 347778


Track 1

Filename C:\Oliver Nelson - The Argo, Verve and Impulse Big Band Studio Sessions (2006) [FLAC] {Mosaic}\CD6\01 - The Bird,The Duck,The Cat,The Grandfather,The Wolf,The Hunter,Peter.wav

Pre-gap length 0:00:02.00

Peak level 100.0 %
Track quality 100.0 %
Test CRC B000A40C
Copy CRC B000A40C
Accurately ripped (confidence 8) [F3B83024]
Copy OK

Track 2

Filename C:\Oliver Nelson - The Argo, Verve and Impulse Big Band Studio Sessions (2006) [FLAC] {Mosaic}\CD6\02 - Duck Theme,Jimmy And The Duck,Peter's Theme,Meal Time.wav

Peak level 100.0 %
Track quality 100.0 %
Test CRC 5F30B764
Copy CRC 5F30B764
Accurately ripped (confidence 9) [219461C0]
Copy OK

Track 3

Filename C:\Oliver Nelson - The Argo, Verve and Impulse Big Band Studio Sessions (2006) [FLAC] {Mosaic}\CD6\03 - Elegy For A Duck.wav

Peak level 100.0 %
Track quality 100.0 %
Test CRC B96E8C61
Copy CRC B96E8C61
Accurately ripped (confidence 9) [167ACF5A]
Copy OK

Track 4

Filename C:\Oliver Nelson - The Argo, Verve and Impulse Big Band Studio Sessions (2006) [FLAC] {Mosaic}\CD6\04 - Cat In A Tree.wav

Peak level 100.0 %
Track quality 100.0 %
Test CRC 85C85110
Copy CRC 85C85110
Accurately ripped (confidence 9) [A3C3A113]
Copy OK

Track 5

Filename C:\Oliver Nelson - The Argo, Verve and Impulse Big Band Studio Sessions (2006) [FLAC] {Mosaic}\CD6\05 - Capture Of The Wolf.wav

Peak level 94.7 %
Track quality 100.0 %
Test CRC 9C448AE4
Copy CRC 9C448AE4
Accurately ripped (confidence 9) [99C8315D]
Copy OK

Track 6

Filename C:\Oliver Nelson - The Argo, Verve and Impulse Big Band Studio Sessions (2006) [FLAC] {Mosaic}\CD6\06 - Finale- Parade,Peter Plays Some Blues.wav

Peak level 100.0 %
Track quality 100.0 %
Test CRC 711A46B1
Copy CRC 711A46B1
Accurately ripped (confidence 9) [EC32D59C]
Copy OK

Track 7

Filename C:\Oliver Nelson - The Argo, Verve and Impulse Big Band Studio Sessions (2006) [FLAC] {Mosaic}\CD6\07 - One Mint Julep.wav

Peak level 99.9 %
Track quality 100.0 %
Test CRC A60F5909
Copy CRC A60F5909
Accurately ripped (confidence 9) [A989203F]
Copy OK

Track 8

Filename C:\Oliver Nelson - The Argo, Verve and Impulse Big Band Studio Sessions (2006) [FLAC] {Mosaic}\CD6\08 - Blues And The Abstract Truth.wav

Peak level 100.0 %
Track quality 100.0 %
Test CRC A6DE3E4B
Copy CRC A6DE3E4B
Accurately ripped (confidence 9) [CF2DABFD]
Copy OK

Track 9

Filename C:\Oliver Nelson - The Argo, Verve and Impulse Big Band Studio Sessions (2006) [FLAC] {Mosaic}\CD6\09 - Down By The Riverside.wav

Peak level 96.5 %
Track quality 100.0 %
Test CRC 3C2A1F9D
Copy CRC 3C2A1F9D
Accurately ripped (confidence 9) [F60AAFFC]
Copy OK

Track 10

Filename C:\Oliver Nelson - The Argo, Verve and Impulse Big Band Studio Sessions (2006) [FLAC] {Mosaic}\CD6\10 - Night Train.wav

Peak level 98.5 %
Track quality 100.0 %
Test CRC A552F67D
Copy CRC A552F67D
Accurately ripped (confidence 9) [FB31A171]
Copy OK

Track 11

Filename C:\Oliver Nelson - The Argo, Verve and Impulse Big Band Studio Sessions (2006) [FLAC] {Mosaic}\CD6\11 - 13 (Death March).wav

Peak level 97.1 %
Track quality 100.0 %
Test CRC 41ACE66F
Copy CRC 41ACE66F
Accurately ripped (confidence 9) [DA391308]
Copy OK

Track 12

Filename C:\Oliver Nelson - The Argo, Verve and Impulse Big Band Studio Sessions (2006) [FLAC] {Mosaic}\CD6\12 - Milestones.wav

Peak level 99.9 %
Track quality 100.0 %
Test CRC 006FD5E6
Copy CRC 006FD5E6
Accurately ripped (confidence 9) [63D442D9]
Copy OK

Track 13

Filename C:\Oliver Nelson - The Argo, Verve and Impulse Big Band Studio Sessions (2006) [FLAC] {Mosaic}\CD6\13 - 'Round Midnight.wav

Peak level 100.0 %
Track quality 100.0 %
Test CRC AE62ABB3
Copy CRC AE62ABB3
Accurately ripped (confidence 9) [776BB5FE]
Copy OK


All tracks accurately ripped

No errors occurred

End of status report


Oliver Nelson - The Argo, Verve and Impulse Big Band Studio Sessions (1962-67) {6CD Box Set Mosaic MD6-233 rel 2006}

Oliver Nelson - The Argo, Verve and Impulse Big Band Studio Sessions (1962-67) {6CD Box Set Mosaic MD6-233 rel 2006}

Oliver Nelson - The Argo, Verve and Impulse Big Band Studio Sessions (1962-67) {6CD Box Set Mosaic MD6-233 rel 2006}

Oliver Nelson - The Argo, Verve and Impulse Big Band Studio Sessions (1962-67) {6CD Box Set Mosaic MD6-233 rel 2006}

Oliver Nelson - The Argo, Verve and Impulse Big Band Studio Sessions (1962-67) {6CD Box Set Mosaic MD6-233 rel 2006}



===