Tags
Language
Tags

Pat Metheny - Side-Eye NYC (V1.IV) (2021)

Posted By: delpotro
Pat Metheny - Side-Eye NYC (V1.IV) (2021)

Pat Metheny - Side-Eye NYC (V1.IV) (2021)
EAC Rip | FLAC (tracks+log+.cue) - 423 Mb | MP3 CBR 320 kbps - 144 Mb | 01:02:44
Jazz Fusion | Label: Modern Recordings

Unlike almost any other modern musician, Pat Metheny remains uniquely unpredictable. A new Metheny record could be almost anything as the only musician to have won twelve of his twenty Grammy awards in twelve different categories. His recent recording Road To The Sun caused a sensation in the classical music world for its intricate and emotionally satisfying chamber music compositions. At the same time, its immediate predecessor From This Place was Downbeat magazine’s Jazz Record of the Year as an expansive and timeless large-scale work.

On September 10th, 2021 Modern Recordings will release PAT METHENY SIDE-EYE – NYC, an exciting, vibrant and energized new platform for Metheny, showcased in a recording that features 30 minutes of intricate new music set alongside a few unexpected and creative re-workings of Metheny classics re-imagined.

So, what is Side-Eye?

Pat explains, “I wanted to create an ongoing platform to host a rotating cast of the newer generations of musicians who have particularly caught my interest along the way. From my earliest days in Kansas City onward, I was the beneficiary of so many older musicians hiring me, which gave me a chance to develop through the prism of their experiences and the particular demands of what their music implied.”

He continues, “I have been feeling like I wanted to have a specific setting to focus on some of the younger NYC musicians I have enjoyed recently where there seems to be some kind of kinship happening. About every ten or twelve years, there seems to be a crop of players coming along who find a certain resonance with whatever it is that my thing seems to represent to them. The last time that happened was the Josh Redman, Christian McBride, Brad Mehldau, Antonio Sanchez generation, and it seems to be happening again now.”

“Just as it was back then, I have been hearing from these newer players on the scene when they get to town who get in touch to talk about the influence that some of my records and tunes have had on them. When there is time, I always try to invite them up to my house to do some playing. Very often, it’s a natural and organic thing for me to play with them; they have literally grown up listening to the recordings and playing those compositions from their beginnings, just as I did with many of the folks that I eventually wound up playing with too.”

“My good friend, the great drummer Eric Harland called me up one day to tell me about James Francies and how he wanted to get together with me. I suggested we get a bass player and have a session. Eric said, “You don’t need a bass player with James!”. That was an incredible day, and from that, the idea of building a first edition of the concept around James and his amazing talent was formed.”

Metheny has given this band concept the name Side-Eye and hopes that it might become a rotating group of musicians who could come and go in different combinations. So far, there have been four iterations, hence the V.1-IV sub-heading on the record.
Tracklist:
1. It Starts When We Disappear (13:47)
2. Better Days Ahead (05:26)
3. Timeline (07:12)
4. Bright Size Life (05:34)
5. Lodger (06:16)
6. Sirabhorn (05:07)
7. Turnaround (07:42)
8. Zenith Blue (11:37)

Exact Audio Copy V1.6 from 23. October 2020

EAC extraction logfile from 13. November 2021, 23:14

Pat Metheny / Side-Eye NYC (V1.IV)

Used drive : HL-DT-STDVDRAM GP65NB60 Adapter: 1 ID: 0

Read mode : Secure
Utilize accurate stream : Yes
Defeat audio cache : Yes
Make use of C2 pointers : No

Read offset correction : 6
Overread into Lead-In and Lead-Out : No
Fill up missing offset samples with silence : Yes
Delete leading and trailing silent blocks : No
Null samples used in CRC calculations : Yes
Used interface : Native Win32 interface for Win NT & 2000
Gap handling : Appended to previous track

Used output format : User Defined Encoder
Selected bitrate : 1024 kBit/s
Quality : High
Add ID3 tag : No
Command line compressor : C:\Program Files (x86)\Exact Audio Copy\Flac\flac.exe
Additional command line options : -8 -V -T "ARTIST=%artist%" -T "TITLE=%title%" -T "ALBUM=%albumtitle%" -T "DATE=%year%" -T "TRACKNUMBER=%tracknr%" -T "GENRE=%genre%" -T "PERFORMER=%albuminterpret%" -T "COMPOSER=%composer%" -T "ALBUMARTIST=%albumartist%" -T "DISCNUMBER=%cdnumber%" -T "TOTALDISCS=%totalcds%" -T "TOTALTRACKS=%numtracks%" -T "COMMENT=%comment%" %source% -o %dest%


TOC of the extracted CD

Track | Start | Length | Start sector | End sector
––––––––––––––––––––––––––––-
1 | 0:00.00 | 13:47.69 | 0 | 62093
2 | 13:47.69 | 5:26.07 | 62094 | 86550
3 | 19:14.01 | 7:12.19 | 86551 | 118969
4 | 26:26.20 | 5:34.16 | 118970 | 144035
5 | 32:00.36 | 6:16.66 | 144036 | 172301
6 | 38:17.27 | 5:07.08 | 172302 | 195334
7 | 43:24.35 | 7:42.73 | 195335 | 230057
8 | 51:07.33 | 11:37.41 | 230058 | 282373


Track 1

Filename D:\EAC Rips\Pat Metheny - Side Eye NYC V1.IV (2021) {Modern Recordings 538693922} [CD FLAC]\01 - It Starts When We Disappear.wav

Pre-gap length 0:00:02.00

Peak level 89.3 %
Extraction speed 1.6 X
Track quality 100.0 %
Test CRC 88BDF512
Copy CRC 88BDF512
Accurately ripped (confidence 8) [64363653] (AR v2)
Copy OK

Track 2

Filename D:\EAC Rips\Pat Metheny - Side Eye NYC V1.IV (2021) {Modern Recordings 538693922} [CD FLAC]\02 - Better Days Ahead.wav

Peak level 89.1 %
Extraction speed 1.7 X
Track quality 100.0 %
Test CRC 9B9CEE0E
Copy CRC 9B9CEE0E
Accurately ripped (confidence 8) [6D281409] (AR v2)
Copy OK

Track 3

Filename D:\EAC Rips\Pat Metheny - Side Eye NYC V1.IV (2021) {Modern Recordings 538693922} [CD FLAC]\03 - Timeline.wav

Peak level 89.6 %
Extraction speed 1.8 X
Track quality 99.9 %
Test CRC DB2D767F
Copy CRC DB2D767F
Accurately ripped (confidence 8) [4D894987] (AR v2)
Copy OK

Track 4

Filename D:\EAC Rips\Pat Metheny - Side Eye NYC V1.IV (2021) {Modern Recordings 538693922} [CD FLAC]\04 - Bright Size Life.wav

Peak level 89.2 %
Extraction speed 2.0 X
Track quality 100.0 %
Test CRC 963CA31D
Copy CRC 963CA31D
Accurately ripped (confidence 8) [D2686C0E] (AR v2)
Copy OK

Track 5

Filename D:\EAC Rips\Pat Metheny - Side Eye NYC V1.IV (2021) {Modern Recordings 538693922} [CD FLAC]\05 - Lodger.wav

Peak level 89.6 %
Extraction speed 2.2 X
Track quality 100.0 %
Test CRC 341A1EDD
Copy CRC 341A1EDD
Accurately ripped (confidence 8) [44273C6F] (AR v2)
Copy OK

Track 6

Filename D:\EAC Rips\Pat Metheny - Side Eye NYC V1.IV (2021) {Modern Recordings 538693922} [CD FLAC]\06 - Sirabhorn.wav

Peak level 89.1 %
Extraction speed 2.0 X
Track quality 99.9 %
Test CRC 6E2DB592
Copy CRC 6E2DB592
Accurately ripped (confidence 8) [2D4BD14A] (AR v2)
Copy OK

Track 7

Filename D:\EAC Rips\Pat Metheny - Side Eye NYC V1.IV (2021) {Modern Recordings 538693922} [CD FLAC]\07 - Turnaround.wav

Peak level 89.1 %
Extraction speed 2.5 X
Track quality 100.0 %
Test CRC 91EA2E71
Copy CRC 91EA2E71
Accurately ripped (confidence 8) [E136E65E] (AR v2)
Copy OK

Track 8

Filename D:\EAC Rips\Pat Metheny - Side Eye NYC V1.IV (2021) {Modern Recordings 538693922} [CD FLAC]\08 - Zenith Blue.wav

Peak level 89.5 %
Extraction speed 2.6 X
Track quality 99.9 %
Test CRC B001AC37
Copy CRC B001AC37
Accurately ripped (confidence 8) [48B20849] (AR v2)
Copy OK


All tracks accurately ripped

No errors occurred

End of status report

–– CUETools DB Plugin V2.1.6

[CTDB TOCID: w1nJtkc9YVcHCwTNmlY88vs3mek-] found
Submit result: w1nJtkc9YVcHCwTNmlY88vs3mek- has been confirmed
Track | CTDB Status
1 | (83/83) Accurately ripped
2 | (83/83) Accurately ripped
3 | (83/83) Accurately ripped
4 | (83/83) Accurately ripped
5 | (83/83) Accurately ripped
6 | (83/83) Accurately ripped
7 | (83/83) Accurately ripped
8 | (83/83) Accurately ripped


==== Log checksum E1B5EC2395067907B028ADAFF3FB276F301550D4F75E004FC9B2C8E356722ED0 ====

Thanks to the Original ripper !