Subcategories
Tags
Language
Tags

Paul Desmond - The Complete RCA Albums Collection (2011) {6CD Box Set, Sony Music 88697939412 rec 1961-1964}

Posted By: ruskaval
Paul Desmond - The Complete RCA Albums Collection (2011) {6CD Box Set, Sony Music 88697939412 rec 1961-1964}

Paul Desmond - The Complete RCA Albums Collection (2011) {6CD Box Set, Sony Music 88697939412 rec 1961-1964}
EAC rip (secure mode) | FLAC (tracks)+CUE+LOG -> 2.16 Gb | MP3 @320 -> 908 Mb
Full Artwork @ 600 dpi (jpg) -> 514 Mb | 5% repair rar
© 1962-66, 2011 RCA / Legacy / Sony Music | 88697939412
Jazz / Cool / Standards / Bossa Nova / Saxophone

The most complete package to date of Paul Desmond's RCA works. 6-CD set with all six original albums he cut for the RCA inprint (five of the six albums feature melodic guitar giant Jim Hall, the ideal musical partner for Desmond). All come in nice mini-LP replica sleeves reproducing original cover art, including 24 bonus tracks, and a comprenhensive booklet with full discographical details, rare in-studio photos and liner notes by Grammy-winning box producer Richard Seidel.
Paul Desmond - The Complete RCA Albums Collection (2011) {6CD Box Set, Sony Music 88697939412 rec 1961-1964}

For the bulk of the 1950s and 60’s, Paul Desmond had one of the sweetest gigs in jazz history. As the featured alto saxophonist in the Dave Brubeck quartet, Desmond was a central figure in the most commercially successful jazz ensemble of the time. The sole horn in the group, Desmond attracted considerable critical and public acclaim for his supremely lyrical, sublimely melodic playing. His dulcet phrases couched in what he himself dubbed a “dry martini” tone, Desmond’s alto was a defining sound of the era.

But even a beloved sideman has to step into the full glare of the spotlight at times. While the delightful Two of a Mind found Desmond in a spare collaboration with just Gerry Mulligan’s baritone saxophone and bass and drums, his other RCA albums paired him with Jim Hall, a brilliant guitarist whose lyrical sensibilities matched those of the altoist himself. Exploring standards and the occasional Desmond original, the two proved to be perfect musical partners.

While the majority of Desmond’s recordings found him fronting a quartet with the ever-present Hall, the tasteful drummer Connie Kay, and the resourceful bassists Gene Wright and Gene Cherico, the 1961 Desmond Blue matched the saxophonist with a string orchestra and outstanding arrangements by Bob Prince for a set of exquisitely rendered classics including a memorable “My Funny Valentine.” Take Ten signaled Desmond’s deepening interest in Brazilian bossa nova; Boss Antigua explores the genre with further depth and idiomatic understanding. The final RCA album, 1964’s Glad To Be Unhappy, is yet another quietly majestic quartet recording that made it clear that Desmond had developed a solid musical identity of his own. That he left the Brubeck fold just a few years later came as little surprise to those who had tracked the star saxophonist’s monumental RCA work of the 1960s - it was time, and he was more than ready.

This box celebrates the 50th Anniversary of Desmond’s signing to RCA in 1961, which kicked off his most prolific and acclaimed period of solo recordings. Desmond, as a member of the Dave Brubeck Quartet between 1951 and 1967, was one of the most popular saxophonists of his era, and wrote jazz’s greatest hit of the 1950s and 60s - “Take Five”. Albums featured include his gorgeous string session, Desmond Blue, and his classic match-off with Gerry Mulligan Two Of A Mind. Five of the six albums feature melodic guitar giant Jim Hall, the ideal musical partner for Desmond. Desmond was a master at Bossa Nova, heard here on both the Bossa Antigua and Take Ten albums.

Albums included:
CD 1 - Desmond Blue (LSP-2438) 1962
CD 2 - Take Ten (LSP-2569) 1963
CD 3 - Bossa Antigua (LSP-3320) 1965
CD 4 - Glad To Be Unhappy (LSP-3407) 1965
CD 5 - Easy Living (LSP-3480) 1966
CD 6 - Two Of A Mind (LPM 2624) 1962
+ bonus tracks


Personnel: Paul Desmond (as, bs), Jim Hall (g), Gerry Mulligan (bs, p), George Duvivier, Milt Hinton, Eugene Wright, Joe Benjamin (b), Mel Lewis, Connie Kay, Osie Johnson (d), Romeo Penque, Phil Bodner (woodwinds), Tony Miranda, Albert Richman (frh)…

Tracklist:

CD 1

01. My Funny Valentine 3:52
02. Desmond Blue 3:40
03. Then I'll Be Tired of You 4:06
04. I've Got You Under My Skin 4:42
05. Late Lament 4:12
06. I Should Care 3:56
07. Like Someone In Love 4:13
08. Ill Wind 3:51
09. Body and Soul 4:54
10. Advise and Consent 2:03
11. Autumn Leaves 5:44
12. Imagination 4:05
13. Autumn Leaves 5:40
14. Autumn Leaves 3:40
15. Imagination 4:53
16. Advise and Consent 2:02

Paul Desmond - The Complete RCA Albums Collection (2011) {6CD Box Set, Sony Music 88697939412 rec 1961-1964}


CD 2
01. Take Ten 3:11
02. El Prince 3:37
03. Alone Together 6:52
04. Embarcadero 4:07
05. The Theme From Black Orpheus
(Manha De Carnaval) 4:14
06. Nancy (With the Laughing Face) 6:05
07. Samba De Orfeo 4:29
08. The One I Love Belongs To Somebody Else 5:53
09. Out of Nowhere 6:48
10. Embarcadero 4:57
11. El Prince 5:36

Paul Desmond - The Complete RCA Albums Collection (2011) {6CD Box Set, Sony Music 88697939412 rec 1961-1964}


CD 3
01. Bossa Antigua 4:47
02. The Night Has a Thousand Eyes 5:07
03. O Gato 4:37
04. Samba Cantina 5:41
05. Curaçao Doloroso 4:34
06. A Ship Without a Sail 6:22
07. Alianca 4:32
08. The Girl From East 9th Street 6:27
09. The Night Has a Thousand Eyes 7:20
10. Samba Cepeda 5:09
11. O Gato 4:53

CD 4
01. Glad To Be Unhappy 5:46
02. Poor Butterfly 7:20
03. A Stranger In Town 6:27
04. A Taste of Honey 4:29
05. Any Other Time 5:26
06. Hi-Lili, Hi-Lo 4:43
07. Angel Eyes 6:31
08. By the River St. Marie 6:17
09. All Across the City 4:34
10. All Through the Night 5:25

Paul Desmond - The Complete RCA Albums Collection (2011) {6CD Box Set, Sony Music 88697939412 rec 1961-1964}


CD 5
01. When Joanna Loved Me 5:48
02. That Old Feeling 5:47
03. Polka Dots and Moonbeams 5:52
04. Here's That Rainy Day 5:43
05. Easy Living 7:09
06. I've Grown Accustomed To Her Face 4:19
07. Bewitched 6:25
08. Blues For Fun 6:37
09. Rude Old Man 5:42
10. Polka Dota and Moonbeams 6:13
11. Bewitched 7:47

Paul Desmond - The Complete RCA Albums Collection (2011) {6CD Box Set, Sony Music 88697939412 rec 1961-1964}


CD 6 - With Gerry Mulligan
01. All the Things You Are 5:54
02. Stardust 8:26
03. Two of a Mind 5:51
04. Blight of the Fumble Bee 6:39
05. The Way You Look Tonight 7:24
06. Out of Nowhere 6:47
07. Easy Living 7:04
08. All the Things You Are 6:59
09. The Way You Look Tonight 7:50
10. Untitled Blues Waltz 9:45
11. Untitled Blues Waltz 1:38

Paul Desmond - The Complete RCA Albums Collection (2011) {6CD Box Set, Sony Music 88697939412 rec 1961-1964}


Originally produced by Bob Prince & George Avakian
Engineers: Mickey Crofford, Ray Hall, Bob Simpson

Reissue producer & liner notes: Richard Seidel
Mastering: Maria Triana
Tape Research: Mike Kull
Archival Assistant: Tom Tierney, Che Williams
Art Direction: Edward O'Dowd


Exact Audio Copy V0.99 prebeta 5 from 4. May 2009

EAC extraction logfile from 23. July 2013, 0:24

Paul Desmond / The Complete RCA Albums Collection (CD1)

Used drive : PLEXTOR DVDR PX-L890SA Adapter: 6 ID: 0

Read mode : Secure
Utilize accurate stream : Yes
Defeat audio cache : Yes
Make use of C2 pointers : No

Read offset correction : 6
Overread into Lead-In and Lead-Out : No
Fill up missing offset samples with silence : Yes
Delete leading and trailing silent blocks : No
Null samples used in CRC calculations : Yes
Used interface : Native Win32 interface for Win NT & 2000
Gap handling : Appended to previous track

Used output format : User Defined Encoder
Selected bitrate : 1024 kBit/s
Quality : High
Add ID3 tag : No
Command line compressor : C:\Program Files (x86)\FLAC\flac.exe
Additional command line options : -8 -V -T "ARTIST=%a" -T "TITLE=%t" -T "ALBUM=%g" -T "DATE=%y" -T "TRACKNUMBER=%n" -T "GENRE=%m" -T "COMMENT=EAC FLAC -8" %s


TOC of the extracted CD

Track | Start | Length | Start sector | End sector
––––––––––––––––––––––––––––-
1 | 0:00.00 | 3:52.51 | 0 | 17450
2 | 3:52.51 | 3:40.26 | 17451 | 33976
3 | 7:33.02 | 4:06.39 | 33977 | 52465
4 | 11:39.41 | 4:42.29 | 52466 | 73644
5 | 16:21.70 | 4:12.27 | 73645 | 92571
6 | 20:34.22 | 3:56.41 | 92572 | 110312
7 | 24:30.63 | 4:13.14 | 110313 | 129301
8 | 28:44.02 | 3:51.22 | 129302 | 146648
9 | 32:35.24 | 4:54.08 | 146649 | 168706
10 | 37:29.32 | 2:03.10 | 168707 | 177941
11 | 39:32.42 | 5:44.32 | 177942 | 203773
12 | 45:16.74 | 4:05.40 | 203774 | 222188
13 | 49:22.39 | 5:40.15 | 222189 | 247703
14 | 55:02.54 | 3:40.63 | 247704 | 264266
15 | 58:43.42 | 4:53.60 | 264267 | 286301
16 | 63:37.27 | 2:02.02 | 286302 | 295453


Track 1

Filename G:\Paul Desmond - The Complete RCA Albums Collection (2011) [6CD]\CD1\01 - My Funny Valentine.wav

Pre-gap length 0:00:02.00

Peak level 74.2 %
Track quality 100.0 %
Test CRC A9415E05
Copy CRC A9415E05
Track not present in AccurateRip database
Copy OK

Track 2

Filename G:\Paul Desmond - The Complete RCA Albums Collection (2011) [6CD]\CD1\02 - Desmond Blue.wav

Peak level 70.5 %
Track quality 100.0 %
Test CRC 664FBF11
Copy CRC 664FBF11
Track not present in AccurateRip database
Copy OK

Track 3

Filename G:\Paul Desmond - The Complete RCA Albums Collection (2011) [6CD]\CD1\03 - Then I'll Be Tired Of You.wav

Peak level 70.4 %
Track quality 100.0 %
Test CRC FD881D6A
Copy CRC FD881D6A
Track not present in AccurateRip database
Copy OK

Track 4

Filename G:\Paul Desmond - The Complete RCA Albums Collection (2011) [6CD]\CD1\04 - I've Got You Under My Skin.wav

Peak level 89.3 %
Track quality 100.0 %
Test CRC 7F7F786E
Copy CRC 7F7F786E
Track not present in AccurateRip database
Copy OK

Track 5

Filename G:\Paul Desmond - The Complete RCA Albums Collection (2011) [6CD]\CD1\05 - Late Lament.wav

Peak level 55.7 %
Track quality 99.9 %
Test CRC 7F160377
Copy CRC 7F160377
Track not present in AccurateRip database
Copy OK

Track 6

Filename G:\Paul Desmond - The Complete RCA Albums Collection (2011) [6CD]\CD1\06 - I Should Care.wav

Peak level 69.8 %
Track quality 100.0 %
Test CRC 070F9062
Copy CRC 070F9062
Track not present in AccurateRip database
Copy OK

Track 7

Filename G:\Paul Desmond - The Complete RCA Albums Collection (2011) [6CD]\CD1\07 - Like Someone in Love.wav

Peak level 69.4 %
Track quality 100.0 %
Test CRC 4022D8C9
Copy CRC 4022D8C9
Track not present in AccurateRip database
Copy OK

Track 8

Filename G:\Paul Desmond - The Complete RCA Albums Collection (2011) [6CD]\CD1\08 - Ill Wind.wav

Peak level 76.0 %
Track quality 100.0 %
Test CRC 09BF0E41
Copy CRC 09BF0E41
Track not present in AccurateRip database
Copy OK

Track 9

Filename G:\Paul Desmond - The Complete RCA Albums Collection (2011) [6CD]\CD1\09 - Body and Soul.wav

Peak level 90.8 %
Track quality 100.0 %
Test CRC D33153CA
Copy CRC D33153CA
Track not present in AccurateRip database
Copy OK

Track 10

Filename G:\Paul Desmond - The Complete RCA Albums Collection (2011) [6CD]\CD1\10 - Advise And Consent.wav

Peak level 81.7 %
Track quality 100.0 %
Test CRC 80B3F131
Copy CRC 80B3F131
Track not present in AccurateRip database
Copy OK

Track 11

Filename G:\Paul Desmond - The Complete RCA Albums Collection (2011) [6CD]\CD1\11 - Autumn Leaves.wav

Peak level 84.8 %
Track quality 100.0 %
Test CRC EE0CF435
Copy CRC EE0CF435
Track not present in AccurateRip database
Copy OK

Track 12

Filename G:\Paul Desmond - The Complete RCA Albums Collection (2011) [6CD]\CD1\12 - Imagination.wav

Peak level 84.7 %
Track quality 100.0 %
Test CRC 4B66B3CD
Copy CRC 4B66B3CD
Track not present in AccurateRip database
Copy OK

Track 13

Filename G:\Paul Desmond - The Complete RCA Albums Collection (2011) [6CD]\CD1\13 - Autumn Leaves [alt. take].wav

Peak level 81.4 %
Track quality 100.0 %
Test CRC 203BBD3D
Copy CRC 203BBD3D
Track not present in AccurateRip database
Copy OK

Track 14

Filename G:\Paul Desmond - The Complete RCA Albums Collection (2011) [6CD]\CD1\14 - Autumn Leaves [alt. take].wav

Peak level 80.9 %
Track quality 99.9 %
Test CRC 77AF34C0
Copy CRC 77AF34C0
Track not present in AccurateRip database
Copy OK

Track 15

Filename G:\Paul Desmond - The Complete RCA Albums Collection (2011) [6CD]\CD1\15 - Imagination [alt. take].wav

Peak level 81.4 %
Track quality 100.0 %
Test CRC 67518391
Copy CRC 67518391
Track not present in AccurateRip database
Copy OK

Track 16

Filename G:\Paul Desmond - The Complete RCA Albums Collection (2011) [6CD]\CD1\16 - Advise and Consent [alt. take].wav

Peak level 80.6 %
Track quality 100.0 %
Test CRC A2F9D13B
Copy CRC A2F9D13B
Track not present in AccurateRip database
Copy OK


None of the tracks are present in the AccurateRip database

No errors occurred

End of status report

Exact Audio Copy V0.99 prebeta 5 from 4. May 2009

EAC extraction logfile from 23. July 2013, 1:30

Paul Desmond / The Complete RCA Albums Collection (CD2)

Used drive : PLEXTOR DVDR PX-L890SA Adapter: 6 ID: 0

Read mode : Secure
Utilize accurate stream : Yes
Defeat audio cache : Yes
Make use of C2 pointers : No

Read offset correction : 6
Overread into Lead-In and Lead-Out : No
Fill up missing offset samples with silence : Yes
Delete leading and trailing silent blocks : No
Null samples used in CRC calculations : Yes
Used interface : Native Win32 interface for Win NT & 2000
Gap handling : Appended to previous track

Used output format : User Defined Encoder
Selected bitrate : 1024 kBit/s
Quality : High
Add ID3 tag : No
Command line compressor : C:\Program Files (x86)\FLAC\flac.exe
Additional command line options : -8 -V -T "ARTIST=%a" -T "TITLE=%t" -T "ALBUM=%g" -T "DATE=%y" -T "TRACKNUMBER=%n" -T "GENRE=%m" -T "COMMENT=EAC FLAC -8" %s


TOC of the extracted CD

Track | Start | Length | Start sector | End sector
––––––––––––––––––––––––––––-
1 | 0:00.00 | 3:11.62 | 0 | 14386
2 | 3:11.62 | 3:37.68 | 14387 | 30729
3 | 6:49.55 | 6:52.60 | 30730 | 61689
4 | 13:42.40 | 4:07.27 | 61690 | 80241
5 | 17:49.67 | 4:14.40 | 80242 | 99331
6 | 22:04.32 | 6:05.45 | 99332 | 126751
7 | 28:10.02 | 4:29.45 | 126752 | 146971
8 | 32:39.47 | 5:53.28 | 146972 | 173474
9 | 38:33.00 | 6:48.72 | 173475 | 204146
10 | 45:21.72 | 4:57.33 | 204147 | 226454
11 | 50:19.30 | 5:36.27 | 226455 | 251681


Track 1

Filename G:\Paul Desmond - The Complete RCA Albums Collection (2011) [6CD]\CD2\01 - Take Ten.wav

Pre-gap length 0:00:02.00

Peak level 60.7 %
Track quality 100.0 %
Test CRC E2AF37CE
Copy CRC E2AF37CE
Cannot be verified as accurate (confidence 9) [627C287A], AccurateRip returned [8D98F8F3]
Copy OK

Track 2

Filename G:\Paul Desmond - The Complete RCA Albums Collection (2011) [6CD]\CD2\02 - El Prince.wav

Peak level 63.5 %
Track quality 100.0 %
Test CRC 050EA1D1
Copy CRC 050EA1D1
Cannot be verified as accurate (confidence 9) [2EE3E831], AccurateRip returned [5734255A]
Copy OK

Track 3

Filename G:\Paul Desmond - The Complete RCA Albums Collection (2011) [6CD]\CD2\03 - Alone Together.wav

Peak level 65.7 %
Track quality 100.0 %
Test CRC 8C3A26C4
Copy CRC 8C3A26C4
Cannot be verified as accurate (confidence 9) [67D9D62D], AccurateRip returned [B65AB16E]
Copy OK

Track 4

Filename G:\Paul Desmond - The Complete RCA Albums Collection (2011) [6CD]\CD2\04 - Embarcadero.wav

Peak level 86.9 %
Track quality 99.9 %
Test CRC 9092C345
Copy CRC 9092C345
Cannot be verified as accurate (confidence 9) [05F4D428], AccurateRip returned [0516CCB8]
Copy OK

Track 5

Filename G:\Paul Desmond - The Complete RCA Albums Collection (2011) [6CD]\CD2\05 - The Theme from Black Orpheus.wav

Peak level 82.5 %
Track quality 100.0 %
Test CRC ED27254B
Copy CRC ED27254B
Cannot be verified as accurate (confidence 8) [2B4A1591], AccurateRip returned [5EDAD0C1]
Copy OK

Track 6

Filename G:\Paul Desmond - The Complete RCA Albums Collection (2011) [6CD]\CD2\06 - Nancy.wav

Peak level 87.0 %
Track quality 99.9 %
Test CRC 17C46DBE
Copy CRC 17C46DBE
Cannot be verified as accurate (confidence 9) [DBFE96A8], AccurateRip returned [B4591F89]
Copy OK

Track 7

Filename G:\Paul Desmond - The Complete RCA Albums Collection (2011) [6CD]\CD2\07 - Samba De Orfeo.wav

Peak level 87.0 %
Track quality 100.0 %
Test CRC 971C2F87
Copy CRC 971C2F87
Cannot be verified as accurate (confidence 9) [24FE37FD], AccurateRip returned [8813EF12]
Copy OK

Track 8

Filename G:\Paul Desmond - The Complete RCA Albums Collection (2011) [6CD]\CD2\08 - The One I Love Belongs to Somebody Else.wav

Peak level 87.0 %
Track quality 100.0 %
Test CRC 4DE1E867
Copy CRC 4DE1E867
Cannot be verified as accurate (confidence 9) [A2B2B52E], AccurateRip returned [8CAD27F6]
Copy OK

Track 9

Filename G:\Paul Desmond - The Complete RCA Albums Collection (2011) [6CD]\CD2\09 - Out of Nowhere.wav

Peak level 82.5 %
Track quality 100.0 %
Test CRC 5159A028
Copy CRC 5159A028
Cannot be verified as accurate (confidence 9) [93E4DEE8], AccurateRip returned [83B814C6]
Copy OK

Track 10

Filename G:\Paul Desmond - The Complete RCA Albums Collection (2011) [6CD]\CD2\10 - Embarcadero [alt. take].wav

Peak level 87.0 %
Track quality 100.0 %
Test CRC BD751F13
Copy CRC BD751F13
Cannot be verified as accurate (confidence 9) [CFB8F824], AccurateRip returned [3BCD8958]
Copy OK

Track 11

Filename G:\Paul Desmond - The Complete RCA Albums Collection (2011) [6CD]\CD2\11 - El Prince [alt. take].wav

Peak level 87.0 %
Track quality 99.9 %
Test CRC C62E9F62
Copy CRC C62E9F62
Cannot be verified as accurate (confidence 9) [D6C7D111], AccurateRip returned [DBB08D12]
Copy OK


No tracks could be verified as accurate
You may have a different pressing from the one(s) in the database

No errors occurred

End of status report

Exact Audio Copy V0.99 prebeta 5 from 4. May 2009

EAC extraction logfile from 23. July 2013, 2:37

Paul Desmond / The Complete RCA Albums Collection (CD3)

Used drive : PLEXTOR DVDR PX-L890SA Adapter: 6 ID: 0

Read mode : Secure
Utilize accurate stream : Yes
Defeat audio cache : Yes
Make use of C2 pointers : No

Read offset correction : 6
Overread into Lead-In and Lead-Out : No
Fill up missing offset samples with silence : Yes
Delete leading and trailing silent blocks : No
Null samples used in CRC calculations : Yes
Used interface : Native Win32 interface for Win NT & 2000
Gap handling : Appended to previous track

Used output format : User Defined Encoder
Selected bitrate : 1024 kBit/s
Quality : High
Add ID3 tag : No
Command line compressor : C:\Program Files (x86)\FLAC\flac.exe
Additional command line options : -8 -V -T "ARTIST=%a" -T "TITLE=%t" -T "ALBUM=%g" -T "DATE=%y" -T "TRACKNUMBER=%n" -T "GENRE=%m" -T "COMMENT=EAC FLAC -8" %s


TOC of the extracted CD

Track | Start | Length | Start sector | End sector
––––––––––––––––––––––––––––-
1 | 0:00.00 | 4:47.37 | 0 | 21561
2 | 4:47.37 | 5:07.33 | 21562 | 44619
3 | 9:54.70 | 4:37.52 | 44620 | 65446
4 | 14:32.47 | 5:41.65 | 65447 | 91086
5 | 20:14.37 | 4:34.28 | 91087 | 111664
6 | 24:48.65 | 6:22.27 | 111665 | 140341
7 | 31:11.17 | 4:33.00 | 140342 | 160816
8 | 35:44.17 | 6:27.53 | 160817 | 189894
9 | 42:11.70 | 7:20.72 | 189895 | 222966
10 | 49:32.67 | 5:09.55 | 222967 | 246196
11 | 54:42.47 | 4:54.00 | 246197 | 268246


Track 1

Filename G:\Paul Desmond - The Complete RCA Albums Collection (2011) [6CD]\CD3\01 - Bossa Antigua.wav

Pre-gap length 0:00:02.00

Peak level 94.6 %
Track quality 100.0 %
Test CRC B9B64C72
Copy CRC B9B64C72
Cannot be verified as accurate (confidence 9) [9D50A50C], AccurateRip returned [98033B90]
Copy OK

Track 2

Filename G:\Paul Desmond - The Complete RCA Albums Collection (2011) [6CD]\CD3\02 - The Night Has A Thousand Eyes.wav

Peak level 85.8 %
Track quality 100.0 %
Test CRC CC2D19D6
Copy CRC CC2D19D6
Cannot be verified as accurate (confidence 9) [F0A7A1BB], AccurateRip returned [5DBA90CD]
Copy OK

Track 3

Filename G:\Paul Desmond - The Complete RCA Albums Collection (2011) [6CD]\CD3\03 - O Gato.wav

Peak level 79.8 %
Track quality 100.0 %
Test CRC 2FCD3028
Copy CRC 2FCD3028
Cannot be verified as accurate (confidence 9) [152D40C8], AccurateRip returned [1BFB4DD8]
Copy OK

Track 4

Filename G:\Paul Desmond - The Complete RCA Albums Collection (2011) [6CD]\CD3\04 - Samba Cantina.wav

Peak level 86.3 %
Track quality 100.0 %
Test CRC E072686C
Copy CRC E072686C
Cannot be verified as accurate (confidence 9) [32D2CDA9], AccurateRip returned [6FCE1830]
Copy OK

Track 5

Filename G:\Paul Desmond - The Complete RCA Albums Collection (2011) [6CD]\CD3\05 - Curacao Doloroso.wav

Peak level 76.3 %
Track quality 100.0 %
Test CRC 9E5795CB
Copy CRC 9E5795CB
Cannot be verified as accurate (confidence 9) [226CC0DC], AccurateRip returned [7F0C7351]
Copy OK

Track 6

Filename G:\Paul Desmond - The Complete RCA Albums Collection (2011) [6CD]\CD3\06 - A Ship Without A Sail.wav

Peak level 90.7 %
Track quality 100.0 %
Test CRC 9A1B8F13
Copy CRC 9A1B8F13
Cannot be verified as accurate (confidence 9) [2FA4253A], AccurateRip returned [E8EC4C20]
Copy OK

Track 7

Filename G:\Paul Desmond - The Complete RCA Albums Collection (2011) [6CD]\CD3\07 - Alianca.wav

Peak level 87.9 %
Track quality 100.0 %
Test CRC D3722E95
Copy CRC D3722E95
Cannot be verified as accurate (confidence 9) [FE192C76], AccurateRip returned [5CB9662C]
Copy OK

Track 8

Filename G:\Paul Desmond - The Complete RCA Albums Collection (2011) [6CD]\CD3\08 - The Girl From East 9Th Street.wav

Peak level 93.9 %
Track quality 100.0 %
Test CRC BB1785C8
Copy CRC BB1785C8
Cannot be verified as accurate (confidence 9) [A7DC0422], AccurateRip returned [20891272]
Copy OK

Track 9

Filename G:\Paul Desmond - The Complete RCA Albums Collection (2011) [6CD]\CD3\09 - The Night Has A Thousand Eyes [alt. take].wav

Peak level 89.1 %
Track quality 99.9 %
Test CRC B9D29A67
Copy CRC B9D29A67
Cannot be verified as accurate (confidence 8) [C9E17985], AccurateRip returned [2FB74707]
Copy OK

Track 10

Filename G:\Paul Desmond - The Complete RCA Albums Collection (2011) [6CD]\CD3\10 - Samba Cepeda.wav

Peak level 88.8 %
Track quality 100.0 %
Test CRC DC101EB9
Copy CRC DC101EB9
Cannot be verified as accurate (confidence 8) [F8A50C1C], AccurateRip returned [DBFFBA18]
Copy OK

Track 11

Filename G:\Paul Desmond - The Complete RCA Albums Collection (2011) [6CD]\CD3\11 - O Gato [alt. take].wav

Peak level 90.2 %
Track quality 100.0 %
Test CRC 891B894F
Copy CRC 891B894F
Cannot be verified as accurate (confidence 8) [DC53781B], AccurateRip returned [AFF10A22]
Copy OK


No tracks could be verified as accurate
You may have a different pressing from the one(s) in the database

No errors occurred

End of status report

Exact Audio Copy V0.99 prebeta 5 from 4. May 2009

EAC extraction logfile from 23. July 2013, 3:45

Paul Desmond / The Complete RCA Albums Collection (CD4)

Used drive : PLEXTOR DVDR PX-L890SA Adapter: 6 ID: 0

Read mode : Secure
Utilize accurate stream : Yes
Defeat audio cache : Yes
Make use of C2 pointers : No

Read offset correction : 6
Overread into Lead-In and Lead-Out : No
Fill up missing offset samples with silence : Yes
Delete leading and trailing silent blocks : No
Null samples used in CRC calculations : Yes
Used interface : Native Win32 interface for Win NT & 2000
Gap handling : Appended to previous track

Used output format : User Defined Encoder
Selected bitrate : 1024 kBit/s
Quality : High
Add ID3 tag : No
Command line compressor : C:\Program Files (x86)\FLAC\flac.exe
Additional command line options : -8 -V -T "ARTIST=%a" -T "TITLE=%t" -T "ALBUM=%g" -T "DATE=%y" -T "TRACKNUMBER=%n" -T "GENRE=%m" -T "COMMENT=EAC FLAC -8" %s


TOC of the extracted CD

Track | Start | Length | Start sector | End sector
––––––––––––––––––––––––––––-
1 | 0:00.00 | 5:46.47 | 0 | 25996
2 | 5:46.47 | 7:20.03 | 25997 | 58999
3 | 13:06.50 | 6:27.25 | 59000 | 88049
4 | 19:34.00 | 4:29.35 | 88050 | 108259
5 | 24:03.35 | 5:26.25 | 108260 | 132734
6 | 29:29.60 | 4:43.60 | 132735 | 154019
7 | 34:13.45 | 6:31.30 | 154020 | 183374
8 | 40:45.00 | 6:17.22 | 183375 | 211671
9 | 47:02.22 | 4:34.48 | 211672 | 232269
10 | 51:36.70 | 5:25.17 | 232270 | 256661


Track 1

Filename G:\Paul Desmond - The Complete RCA Albums Collection (2011) [6CD]\CD4\01 - Glad To Be Unhappy.wav

Pre-gap length 0:00:02.00

Peak level 68.7 %
Track quality 100.0 %
Test CRC CF4D1E16
Copy CRC CF4D1E16
Cannot be verified as accurate (confidence 2) [ADE911F6], AccurateRip returned [43DA4601]
Copy OK

Track 2

Filename G:\Paul Desmond - The Complete RCA Albums Collection (2011) [6CD]\CD4\02 - Poor Butterfly.wav

Peak level 66.1 %
Track quality 100.0 %
Test CRC BDC54798
Copy CRC BDC54798
Cannot be verified as accurate (confidence 2) [637C612A], AccurateRip returned [64301B7A]
Copy OK

Track 3

Filename G:\Paul Desmond - The Complete RCA Albums Collection (2011) [6CD]\CD4\03 - A Stranger in Town.wav

Peak level 73.8 %
Track quality 100.0 %
Test CRC 1BF8EAAB
Copy CRC 1BF8EAAB
Cannot be verified as accurate (confidence 2) [B822DCCC], AccurateRip returned [0765C6BA]
Copy OK

Track 4

Filename G:\Paul Desmond - The Complete RCA Albums Collection (2011) [6CD]\CD4\04 - A Taste Of Honey.wav

Peak level 64.9 %
Track quality 100.0 %
Test CRC 07222F83
Copy CRC 07222F83
Cannot be verified as accurate (confidence 2) [69F6CA0F], AccurateRip returned [4F6FA01B]
Copy OK

Track 5

Filename G:\Paul Desmond - The Complete RCA Albums Collection (2011) [6CD]\CD4\05 - Any Other Time.wav

Peak level 65.2 %
Track quality 100.0 %
Test CRC CCB93C87
Copy CRC CCB93C87
Cannot be verified as accurate (confidence 2) [64B4D329], AccurateRip returned [B89D5ABB]
Copy OK

Track 6

Filename G:\Paul Desmond - The Complete RCA Albums Collection (2011) [6CD]\CD4\06 - Hi-lili, Hi-lo.wav

Peak level 63.8 %
Track quality 100.0 %
Test CRC F6E6423B
Copy CRC F6E6423B
Cannot be verified as accurate (confidence 2) [37C8BD81], AccurateRip returned [9B938A81]
Copy OK

Track 7

Filename G:\Paul Desmond - The Complete RCA Albums Collection (2011) [6CD]\CD4\07 - Angel Eyes.wav

Peak level 66.8 %
Track quality 100.0 %
Test CRC FD0B52F4
Copy CRC FD0B52F4
Cannot be verified as accurate (confidence 2) [192AB037], AccurateRip returned [7CA795B0]
Copy OK

Track 8

Filename G:\Paul Desmond - The Complete RCA Albums Collection (2011) [6CD]\CD4\08 - By The River St. Marie.wav

Peak level 96.8 %
Track quality 100.0 %
Test CRC 3B0FCC0D
Copy CRC 3B0FCC0D
Cannot be verified as accurate (confidence 2) [8EF85755], AccurateRip returned [A78D1818]
Copy OK

Track 9

Filename G:\Paul Desmond - The Complete RCA Albums Collection (2011) [6CD]\CD4\09 - All Across The City.wav

Peak level 65.2 %
Track quality 100.0 %
Test CRC 0DAE11BF
Copy CRC 0DAE11BF
Cannot be verified as accurate (confidence 2) [2DA08ACA], AccurateRip returned [7D57C69D]
Copy OK

Track 10

Filename G:\Paul Desmond - The Complete RCA Albums Collection (2011) [6CD]\CD4\10 - All Through The Night.wav

Peak level 75.6 %
Track quality 100.0 %
Test CRC AB367F8E
Copy CRC AB367F8E
Cannot be verified as accurate (confidence 2) [22095DBD], AccurateRip returned [6BD1E681]
Copy OK


No tracks could be verified as accurate
You may have a different pressing from the one(s) in the database

No errors occurred

End of status report

Exact Audio Copy V0.99 prebeta 5 from 4. May 2009

EAC extraction logfile from 23. July 2013, 4:49

Paul Desmond / The Complete RCA Albums Collection (CD5)

Used drive : PLEXTOR DVDR PX-L890SA Adapter: 6 ID: 0

Read mode : Secure
Utilize accurate stream : Yes
Defeat audio cache : Yes
Make use of C2 pointers : No

Read offset correction : 6
Overread into Lead-In and Lead-Out : No
Fill up missing offset samples with silence : Yes
Delete leading and trailing silent blocks : No
Null samples used in CRC calculations : Yes
Used interface : Native Win32 interface for Win NT & 2000
Gap handling : Appended to previous track

Used output format : User Defined Encoder
Selected bitrate : 1024 kBit/s
Quality : High
Add ID3 tag : No
Command line compressor : C:\Program Files (x86)\FLAC\flac.exe
Additional command line options : -8 -V -T "ARTIST=%a" -T "TITLE=%t" -T "ALBUM=%g" -T "DATE=%y" -T "TRACKNUMBER=%n" -T "GENRE=%m" -T "COMMENT=EAC FLAC -8" %s


TOC of the extracted CD

Track | Start | Length | Start sector | End sector
––––––––––––––––––––––––––––-
1 | 0:00.00 | 5:48.45 | 0 | 26144
2 | 5:48.45 | 5:48.00 | 26145 | 52244
3 | 11:36.45 | 5:52.60 | 52245 | 78704
4 | 17:29.30 | 5:43.37 | 78705 | 104466
5 | 23:12.67 | 7:09.05 | 104467 | 136646
6 | 30:21.72 | 4:19.03 | 136647 | 156074
7 | 34:41.00 | 6:25.62 | 156075 | 185011
8 | 41:06.62 | 6:37.70 | 185012 | 214856
9 | 47:44.57 | 5:42.08 | 214857 | 240514
10 | 53:26.65 | 6:13.10 | 240515 | 268499
11 | 59:40.00 | 7:47.42 | 268500 | 303566


Track 1

Filename G:\Paul Desmond - The Complete RCA Albums Collection (2011) [6CD]\CD5\01 - When Joanna Loves Me.wav

Pre-gap length 0:00:02.00

Peak level 80.5 %
Track quality 100.0 %
Test CRC 760FADF3
Copy CRC 760FADF3
Cannot be verified as accurate (confidence 9) [295E70DC], AccurateRip returned [9BF6B69C]
Copy OK

Track 2

Filename G:\Paul Desmond - The Complete RCA Albums Collection (2011) [6CD]\CD5\02 - That Old Feeling.wav

Peak level 93.8 %
Track quality 99.9 %
Test CRC 8EF9A87A
Copy CRC 8EF9A87A
Cannot be verified as accurate (confidence 9) [3897B159], AccurateRip returned [5CA58A57]
Copy OK

Track 3

Filename G:\Paul Desmond - The Complete RCA Albums Collection (2011) [6CD]\CD5\03 - Polka Dots And Moonbeams.wav

Peak level 96.0 %
Track quality 100.0 %
Test CRC D5E5EDE5
Copy CRC D5E5EDE5
Cannot be verified as accurate (confidence 9) [42919777], AccurateRip returned [C597168E]
Copy OK

Track 4

Filename G:\Paul Desmond - The Complete RCA Albums Collection (2011) [6CD]\CD5\04 - Here's That Rainy Day.wav

Peak level 57.9 %
Track quality 100.0 %
Test CRC A034B148
Copy CRC A034B148
Cannot be verified as accurate (confidence 9) [2898C120], AccurateRip returned [D933998A]
Copy OK

Track 5

Filename G:\Paul Desmond - The Complete RCA Albums Collection (2011) [6CD]\CD5\05 - Easy Living.wav

Peak level 100.0 %
Track quality 100.0 %
Test CRC 9767B7BF
Copy CRC 9767B7BF
Cannot be verified as accurate (confidence 9) [1060253C], AccurateRip returned [39B7C76F]
Copy OK

Track 6

Filename G:\Paul Desmond - The Complete RCA Albums Collection (2011) [6CD]\CD5\06 - I've Grown Accustomed To Her Face.wav

Peak level 57.5 %
Track quality 100.0 %
Test CRC F7826F38
Copy CRC F7826F38
Cannot be verified as accurate (confidence 9) [A54C5716], AccurateRip returned [A45295B8]
Copy OK

Track 7

Filename G:\Paul Desmond - The Complete RCA Albums Collection (2011) [6CD]\CD5\07 - Bewitched.wav

Peak level 62.9 %
Track quality 99.9 %
Test CRC F72E7DB7
Copy CRC F72E7DB7
Cannot be verified as accurate (confidence 9) [2134CD9E], AccurateRip returned [AA2BFE70]
Copy OK

Track 8

Filename G:\Paul Desmond - The Complete RCA Albums Collection (2011) [6CD]\CD5\08 - Blues For Fun.wav

Peak level 99.6 %
Track quality 100.0 %
Test CRC A6C08777
Copy CRC A6C08777
Cannot be verified as accurate (confidence 9) [FEFB06B6], AccurateRip returned [A6F0255F]
Copy OK

Track 9

Filename G:\Paul Desmond - The Complete RCA Albums Collection (2011) [6CD]\CD5\09 - Rude Old Man.wav

Peak level 91.3 %
Track quality 100.0 %
Test CRC 7881BD3D
Copy CRC 7881BD3D
Cannot be verified as accurate (confidence 9) [592AFD6B], AccurateRip returned [2B8B0F6D]
Copy OK

Track 10

Filename G:\Paul Desmond - The Complete RCA Albums Collection (2011) [6CD]\CD5\10 - Polka Dots And Moonbeams [alt. take].wav

Peak level 81.9 %
Track quality 100.0 %
Test CRC FF6922E9
Copy CRC FF6922E9
Cannot be verified as accurate (confidence 9) [4A451D1D], AccurateRip returned [70D0B34C]
Copy OK

Track 11

Filename G:\Paul Desmond - The Complete RCA Albums Collection (2011) [6CD]\CD5\11 - Bewitched [alt. take].wav

Peak level 63.1 %
Track quality 99.9 %
Test CRC 039DD31D
Copy CRC 039DD31D
Cannot be verified as accurate (confidence 9) [A9DA15FF], AccurateRip returned [C61BC6FB]
Copy OK


No tracks could be verified as accurate
You may have a different pressing from the one(s) in the database

No errors occurred

End of status report

Exact Audio Copy V0.99 prebeta 5 from 4. May 2009

EAC extraction logfile from 23. July 2013, 8:55

Paul Desmond / The Complete RCA Albums Collection (CD6)

Used drive : PLEXTOR DVDR PX-L890SA Adapter: 6 ID: 0

Read mode : Secure
Utilize accurate stream : Yes
Defeat audio cache : Yes
Make use of C2 pointers : No

Read offset correction : 6
Overread into Lead-In and Lead-Out : No
Fill up missing offset samples with silence : Yes
Delete leading and trailing silent blocks : No
Null samples used in CRC calculations : Yes
Used interface : Native Win32 interface for Win NT & 2000
Gap handling : Appended to previous track

Used output format : User Defined Encoder
Selected bitrate : 1024 kBit/s
Quality : High
Add ID3 tag : No
Command line compressor : C:\Program Files (x86)\FLAC\flac.exe
Additional command line options : -8 -V -T "ARTIST=%a" -T "TITLE=%t" -T "ALBUM=%g" -T "DATE=%y" -T "TRACKNUMBER=%n" -T "GENRE=%m" -T "COMMENT=EAC FLAC -8" %s


TOC of the extracted CD

Track | Start | Length | Start sector | End sector
––––––––––––––––––––––––––––-
1 | 0:00.00 | 5:54.74 | 0 | 26623
2 | 5:54.74 | 8:26.57 | 26624 | 64630
3 | 14:21.56 | 5:51.38 | 64631 | 90993
4 | 20:13.19 | 6:39.04 | 90994 | 120922
5 | 26:52.23 | 7:24.56 | 120923 | 154278
6 | 34:17.04 | 6:47.24 | 154279 | 184827
7 | 41:04.28 | 7:04.52 | 184828 | 216679
8 | 48:09.05 | 6:59.15 | 216680 | 248119
9 | 55:08.20 | 7:50.33 | 248120 | 283402
10 | 62:58.53 | 9:45.58 | 283403 | 327335
11 | 72:44.36 | 1:38.41 | 327336 | 334726


Track 1

Filename G:\Paul Desmond - The Complete RCA Albums Collection (2011) [6CD]\CD6\01 - All the Things You Are.wav

Pre-gap length 0:00:02.00

Peak level 85.7 %
Track quality 99.9 %
Test CRC 1DB5EAA2
Copy CRC 1DB5EAA2
Track not present in AccurateRip database
Copy OK

Track 2

Filename G:\Paul Desmond - The Complete RCA Albums Collection (2011) [6CD]\CD6\02 - Stardust.wav

Peak level 80.3 %
Track quality 100.0 %
Test CRC DB71BE45
Copy CRC DB71BE45
Track not present in AccurateRip database
Copy OK

Track 3

Filename G:\Paul Desmond - The Complete RCA Albums Collection (2011) [6CD]\CD6\03 - Two of a Mind.wav

Peak level 96.3 %
Track quality 100.0 %
Test CRC AE9B2017
Copy CRC AE9B2017
Track not present in AccurateRip database
Copy OK

Track 4

Filename G:\Paul Desmond - The Complete RCA Albums Collection (2011) [6CD]\CD6\04 - Blight of the Fumble Bee.wav

Peak level 88.9 %
Track quality 100.0 %
Test CRC 9B77E9E1
Copy CRC 9B77E9E1
Track not present in AccurateRip database
Copy OK

Track 5

Filename G:\Paul Desmond - The Complete RCA Albums Collection (2011) [6CD]\CD6\05 - The Way You Look Tonight.wav

Peak level 86.8 %
Track quality 100.0 %
Test CRC 1F8AEB4E
Copy CRC 1F8AEB4E
Track not present in AccurateRip database
Copy OK

Track 6

Filename G:\Paul Desmond - The Complete RCA Albums Collection (2011) [6CD]\CD6\06 - Out of Nowhere.wav

Peak level 84.6 %
Track quality 100.0 %
Test CRC 37926CE9
Copy CRC 37926CE9
Track not present in AccurateRip database
Copy OK

Track 7

Filename G:\Paul Desmond - The Complete RCA Albums Collection (2011) [6CD]\CD6\07 - Easy Living.wav

Peak level 70.3 %
Track quality 99.9 %
Test CRC 6E173DE2
Copy CRC 6E173DE2
Track not present in AccurateRip database
Copy OK

Track 8

Filename G:\Paul Desmond - The Complete RCA Albums Collection (2011) [6CD]\CD6\08 - All the Things You Are [alt. take].wav

Peak level 65.7 %
Track quality 100.0 %
Test CRC 1B9D55D8
Copy CRC 1B9D55D8
Track not present in AccurateRip database
Copy OK

Track 9

Filename G:\Paul Desmond - The Complete RCA Albums Collection (2011) [6CD]\CD6\09 - The Way You Look Tonight [alt. take].wav

Peak level 61.2 %
Track quality 100.0 %
Test CRC 573EF4A1
Copy CRC 573EF4A1
Track not present in AccurateRip database
Copy OK

Track 10

Filename G:\Paul Desmond - The Complete RCA Albums Collection (2011) [6CD]\CD6\10 - Untitled Blues Waltz.wav

Peak level 79.8 %
Track quality 99.9 %
Test CRC 92B9353B
Copy CRC 92B9353B
Track not present in AccurateRip database
Copy OK

Track 11

Filename G:\Paul Desmond - The Complete RCA Albums Collection (2011) [6CD]\CD6\11 - Untitled Blues Waltz [br.].wav

Peak level 58.8 %
Track quality 100.0 %
Test CRC 578DCA1B
Copy CRC 578DCA1B
Track not present in AccurateRip database
Copy OK


None of the tracks are present in the AccurateRip database

No errors occurred

End of status report


Paul Desmond - The Complete RCA Albums Collection (2011) {6CD Box Set, Sony Music 88697939412 rec 1961-1964}

Paul Desmond - The Complete RCA Albums Collection (2011) {6CD Box Set, Sony Music 88697939412 rec 1961-1964}



===