Subcategories
Tags
Language
Tags

Paul Motian - The Complete Remastered Recordings on Black Saint & Soul Note (2010) {6CD Set CAM Jazz BXS 1008}

Posted By: ruskaval
Paul Motian - The Complete Remastered Recordings on Black Saint & Soul Note (2010) {6CD Set CAM Jazz BXS 1008}

Paul Motian - The Complete Remastered Recordings on Black Saint & Soul Note (2010) {6CD Set CAM Jazz BXS 1008}
EAC rip (secure mode) | FLAC (tracks)+CUE+LOG -> 1.69 Gb | MP3 @320 -> 698 Mb
Full Artwork @ 600 dpi (png) -> 117 Mb | 5% repair rar
© 2010 CAM Jazz / Black Saint / Soul Note | BXS 1008
Jazz / Post Bop / Drums

THE COMPLETE REMASTERED RECORDINGS ON BLACK SAINT & SOUL NOTE is a monographic box-set collection aimed at recounting the most beautiful chapters that revolutionised the history of jazz.
This new series was launched in March 2010 with the simultaneous release of four box-sets, including albums by some of the artists who participated in the success of the outstanding labels. A philological work, beginning with the original recordings on multi-track master tapes, patiently integrally remastered paying strict attention to the sound quality.
6-CD box set with miniature LP-like artwork remastered from the original masters in 2010.
Includes the following albums:

* The Story Of Maryam
* Jack of Clubs
* Misterioso
* Notes
* One Time Out
* Flux and Change
Paul Motian's a drummer best known for his work with Bill Evans in the 60s – but in later decades, overseas, he really came into his own as a leader – first on a set of 70s sides for ECM, and later on this batch of excellent recordings for the Black Saint/Soul Note label! This 6CD package brings together all of Motian's recordings for the company – a really nice range of material that runs from intimate duets with pianist Paul Bley, to trio sides with Bill Frisell and Joe Lovano, to some larger group material with Lovano and Frisell, plus Jim Pepper as well! The package offers up all albums remastered, and packaged in cool LP-styled sleeves – presenting work that hasn't been on CD for years – the complete contents of the albums The Story Of Maryam, Jack Of Clubs, Misterioso, Notes, One Time Out, and Flux & Change.
tracklist:
CD1
PAUL MOTIAN QUINTET
THE STORY OF MARYAM


Paul Motian - The Complete Remastered Recordings on Black Saint & Soul Note (2010) {6CD Set CAM Jazz BXS 1008}


01. 9 X 9
02. 5 MILES TO WRENTHAM
03. THE OWL OF CRANSTON
04. TRIESTE
05. LOOK TO THE BLACK WALL
06. THE STORY OF MARYAM

CD2
PAUL MOTIAN QUINTET
JACK OF CLUBS


Paul Motian - The Complete Remastered Recordings on Black Saint & Soul Note (2010) {6CD Set CAM Jazz BXS 1008}


01. JACK OF CLUBS
02. CATHEDRAL SONG
03. SPLIT DECISION
04. HIDE AND GO SEEK
05. LAMENT
06. TANNER STREET
07. DRUM MUSIC

CD3
PAUL MOTIAN QUINTET
MISTERIOSO


Paul Motian - The Complete Remastered Recordings on Black Saint & Soul Note (2010) {6CD Set CAM Jazz BXS 1008}


01. MISTERIOSO
02. ABACUS
03. ONCE AROUND THE PARK
04. GANG OF FIVE
05. PANNONICA
06. FOLK SONG FOR ROSIE
07. BYABLUE
08. DANCE
09. JOHNNY BROKEN WING

CD4
PAUL BLEY, PAUL MOTIAN
NOTES


Paul Motian - The Complete Remastered Recordings on Black Saint & Soul Note (2010) {6CD Set CAM Jazz BXS 1008}


01. NOTES
02. BATTERIE
03. PIANO SOLO NO. 1
04. WEST 107TH STREET
05. JUST US
06. NO. 3
07. TURNS
08. BALLAD
09. EXCERPT
10. LOVE HURTS
11. INSIDE
12. FINALE
13. DIANE

CD5
PAUL MOTIAN
ONE TIME OUT


Paul Motian - The Complete Remastered Recordings on Black Saint & Soul Note (2010) {6CD Set CAM Jazz BXS 1008}


01. ONE TIME OUT
02. IF YOU COULD SEE ME NOW
03. FOR THE LOVE OF SARAH
04. THE STORYTELLER
05. PORTRAIT OF T.
06. MORPION
07. MONK'S MOOD
08. GOOD IDEA
09. CIRCLE DANCE

CD6
ENRICO PIERANUNZI, PAUL MOTIAN
FLUX AND CHANGE


Paul Motian - The Complete Remastered Recordings on Black Saint & Soul Note (2010) {6CD Set CAM Jazz BXS 1008}


01. HAZARD RATE
02. WHAT IS THIS THING CALLED LOVE?
03. DOUBLE ACT 1
04. ABACUS
05. PIANOLOGUE I
06. SOMEDAY MY PRINCE WILL COME
07. DRUMLOGUE 1
08. DOUBLE ACT 2
09. WHEN I FALL IN LOVE
10. DOUBLE ACT 3
11. DRUMLOGUE 2
12. THINGS AIN'T WHAT THEY USED TO BE
13. SWEET LITTLE SWAN
14. THE INCH WORM
15. DOUBLE ACT 4
16. ALL THE THINGS YOU ARE
17. FOR YOUR PEACE
18. DRUMLOGUE 3
19. ST. THOMAS
20. FREEDOM JAZZ DANCE
21. ALICE IN WONDERLAND
22. ANTHROPOLOGY
23. STRAIGHT NO CHASER

Exact Audio Copy V0.99 prebeta 5 from 4. May 2009

EAC extraction logfile from 17. January 2011, 17:14

Paul Motian / The Complete Remastered Recordings on Black Saint & Soul Note (CD1)

Used drive : TSSTcorpCD/DVDW TS-H552L Adapter: 3 ID: 0

Read mode : Secure
Utilize accurate stream : Yes
Defeat audio cache : Yes
Make use of C2 pointers : No

Read offset correction : 6
Overread into Lead-In and Lead-Out : No
Fill up missing offset samples with silence : Yes
Delete leading and trailing silent blocks : No
Null samples used in CRC calculations : Yes
Used interface : Native Win32 interface for Win NT & 2000
Gap handling : Appended to previous track

Used output format : User Defined Encoder
Selected bitrate : 1024 kBit/s
Quality : High
Add ID3 tag : No
Command line compressor : C:\Program Files\FLAC\flac.exe
Additional command line options : -5 -V -T "ARTIST=%a" -T "TITLE=%t" -T "ALBUM=%g" -T "DATE=%y" -T "TRACKNUMBER=%n" -T "TOTALTRACKS=%x" -T "GENRE=%m" -T "ALBUMARTIST=%v" -T "ALBUM ARTIST=%v" -T "COMMENT=EAC Secure Mode, Test & Copy, AccurateRip, FLAC -5" %s


TOC of the extracted CD

Track | Start | Length | Start sector | End sector
––––––––––––––––––––––––––––-
1 | 0:00.00 | 7:15.18 | 0 | 32642
2 | 7:15.18 | 4:58.42 | 32643 | 55034
3 | 12:13.60 | 8:21.12 | 55035 | 92621
4 | 20:34.72 | 5:48.70 | 92622 | 118791
5 | 26:23.67 | 6:46.21 | 118792 | 149262
6 | 33:10.13 | 5:49.70 | 149263 | 175507


Track 1

Filename E:\EAC\Paul Motian - The Complete Remastered Recordings on Black Saint & Soul Note (2010) [6 CD Set] {CAM Jazz}\CD1 (The Story of Maryam)\01 - 9x9.wav

Pre-gap length 0:00:02.00

Peak level 95.2 %
Track quality 100.0 %
Test CRC 0FE1333A
Copy CRC 0FE1333A
Accurately ripped (confidence 1) [5D89B5CE]
Copy OK

Track 2

Filename E:\EAC\Paul Motian - The Complete Remastered Recordings on Black Saint & Soul Note (2010) [6 CD Set] {CAM Jazz}\CD1 (The Story of Maryam)\02 - 5 Miles To Wrentham.wav

Pre-gap length 0:00:02.28

Peak level 88.7 %
Track quality 100.0 %
Test CRC C5C18A5A
Copy CRC C5C18A5A
Accurately ripped (confidence 1) [0A5C7F9D]
Copy OK

Track 3

Filename E:\EAC\Paul Motian - The Complete Remastered Recordings on Black Saint & Soul Note (2010) [6 CD Set] {CAM Jazz}\CD1 (The Story of Maryam)\03 - The Owl Of Cranston.wav

Pre-gap length 0:00:02.62

Peak level 95.2 %
Track quality 100.0 %
Test CRC 3A9B6BBF
Copy CRC 3A9B6BBF
Accurately ripped (confidence 1) [3409CB5E]
Copy OK

Track 4

Filename E:\EAC\Paul Motian - The Complete Remastered Recordings on Black Saint & Soul Note (2010) [6 CD Set] {CAM Jazz}\CD1 (The Story of Maryam)\04 - Triste.wav

Pre-gap length 0:00:03.39

Peak level 92.6 %
Track quality 100.0 %
Test CRC 366164BC
Copy CRC 366164BC
Accurately ripped (confidence 1) [678B37F2]
Copy OK

Track 5

Filename E:\EAC\Paul Motian - The Complete Remastered Recordings on Black Saint & Soul Note (2010) [6 CD Set] {CAM Jazz}\CD1 (The Story of Maryam)\05 - Look To The Black Wall.wav

Pre-gap length 0:00:02.33

Peak level 95.2 %
Track quality 100.0 %
Test CRC 093CFB7C
Copy CRC 093CFB7C
Accurately ripped (confidence 1) [BACBD7BE]
Copy OK

Track 6

Filename E:\EAC\Paul Motian - The Complete Remastered Recordings on Black Saint & Soul Note (2010) [6 CD Set] {CAM Jazz}\CD1 (The Story of Maryam)\06 - The Story Of Maryam.wav

Pre-gap length 0:00:02.40

Peak level 95.2 %
Track quality 100.0 %
Test CRC 1337B22A
Copy CRC 1337B22A
Accurately ripped (confidence 1) [6DD7068C]
Copy OK


All tracks accurately ripped

No errors occurred

End of status report

Exact Audio Copy V0.99 prebeta 5 from 4. May 2009

EAC extraction logfile from 17. January 2011, 17:20

Paul Motian / The Complete Remastered Recordings on Black Saint & Soul Note (CD2)

Used drive : TSSTcorpCD/DVDW TS-H552L Adapter: 3 ID: 0

Read mode : Secure
Utilize accurate stream : Yes
Defeat audio cache : Yes
Make use of C2 pointers : No

Read offset correction : 6
Overread into Lead-In and Lead-Out : No
Fill up missing offset samples with silence : Yes
Delete leading and trailing silent blocks : No
Null samples used in CRC calculations : Yes
Used interface : Native Win32 interface for Win NT & 2000
Gap handling : Appended to previous track

Used output format : User Defined Encoder
Selected bitrate : 1024 kBit/s
Quality : High
Add ID3 tag : No
Command line compressor : C:\Program Files\FLAC\flac.exe
Additional command line options : -5 -V -T "ARTIST=%a" -T "TITLE=%t" -T "ALBUM=%g" -T "DATE=%y" -T "TRACKNUMBER=%n" -T "TOTALTRACKS=%x" -T "GENRE=%m" -T "ALBUMARTIST=%v" -T "ALBUM ARTIST=%v" -T "COMMENT=EAC Secure Mode, Test & Copy, AccurateRip, FLAC -5" %s


TOC of the extracted CD

Track | Start | Length | Start sector | End sector
––––––––––––––––––––––––––––-
1 | 0:00.00 | 6:54.74 | 0 | 31123
2 | 6:54.74 | 8:37.68 | 31124 | 69966
3 | 15:32.67 | 6:10.29 | 69967 | 97745
4 | 21:43.21 | 4:30.71 | 97746 | 118066
5 | 26:14.17 | 4:50.04 | 118067 | 139820
6 | 31:04.21 | 3:26.16 | 139821 | 155286
7 | 34:30.37 | 6:26.14 | 155287 | 184250


Track 1

Filename E:\EAC\Paul Motian - The Complete Remastered Recordings on Black Saint & Soul Note (2010) [6 CD Set] {CAM Jazz}\CD2 (Jack of Clubs)\01 - Jack of Clubs.wav

Pre-gap length 0:00:02.00

Peak level 95.2 %
Track quality 100.0 %
Test CRC D3D95524
Copy CRC D3D95524
Accurately ripped (confidence 1) [20BF1648]
Copy OK

Track 2

Filename E:\EAC\Paul Motian - The Complete Remastered Recordings on Black Saint & Soul Note (2010) [6 CD Set] {CAM Jazz}\CD2 (Jack of Clubs)\02 - Cathedral Song.wav

Pre-gap length 0:00:01.59

Peak level 64.8 %
Track quality 100.0 %
Test CRC B48835C4
Copy CRC B48835C4
Accurately ripped (confidence 1) [2B1EE1EA]
Copy OK

Track 3

Filename E:\EAC\Paul Motian - The Complete Remastered Recordings on Black Saint & Soul Note (2010) [6 CD Set] {CAM Jazz}\CD2 (Jack of Clubs)\03 - Split Decision.wav

Pre-gap length 0:00:02.05

Peak level 89.9 %
Track quality 100.0 %
Test CRC 7FAF07AF
Copy CRC 7FAF07AF
Accurately ripped (confidence 1) [780DB15A]
Copy OK

Track 4

Filename E:\EAC\Paul Motian - The Complete Remastered Recordings on Black Saint & Soul Note (2010) [6 CD Set] {CAM Jazz}\CD2 (Jack of Clubs)\04 - Hide and Go Seek.wav

Pre-gap length 0:00:02.70

Peak level 95.2 %
Track quality 99.9 %
Test CRC 751300D7
Copy CRC 751300D7
Accurately ripped (confidence 1) [8717FFD1]
Copy OK

Track 5

Filename E:\EAC\Paul Motian - The Complete Remastered Recordings on Black Saint & Soul Note (2010) [6 CD Set] {CAM Jazz}\CD2 (Jack of Clubs)\05 - Lament.wav

Pre-gap length 0:00:02.15

Peak level 49.7 %
Track quality 100.0 %
Test CRC 477FA988
Copy CRC 477FA988
Accurately ripped (confidence 1) [1695DB72]
Copy OK

Track 6

Filename E:\EAC\Paul Motian - The Complete Remastered Recordings on Black Saint & Soul Note (2010) [6 CD Set] {CAM Jazz}\CD2 (Jack of Clubs)\06 - Tanner Street.wav

Pre-gap length 0:00:01.41

Peak level 94.5 %
Track quality 99.9 %
Test CRC 1F68DF2E
Copy CRC 1F68DF2E
Accurately ripped (confidence 1) [A4E2EFDB]
Copy OK

Track 7

Filename E:\EAC\Paul Motian - The Complete Remastered Recordings on Black Saint & Soul Note (2010) [6 CD Set] {CAM Jazz}\CD2 (Jack of Clubs)\07 - Drum Music.wav

Pre-gap length 0:00:03.45

Peak level 95.2 %
Track quality 99.9 %
Test CRC 1410CD0A
Copy CRC 1410CD0A
Accurately ripped (confidence 1) [E2E9B531]
Copy OK


All tracks accurately ripped

No errors occurred

End of status report

Exact Audio Copy V0.99 prebeta 5 from 4. May 2009

EAC extraction logfile from 17. January 2011, 17:24

Paul Motian / The Complete Remastered Recordings on Black Saint & Soul Note (CD3)

Used drive : TSSTcorpCD/DVDW TS-H552L Adapter: 3 ID: 0

Read mode : Secure
Utilize accurate stream : Yes
Defeat audio cache : Yes
Make use of C2 pointers : No

Read offset correction : 6
Overread into Lead-In and Lead-Out : No
Fill up missing offset samples with silence : Yes
Delete leading and trailing silent blocks : No
Null samples used in CRC calculations : Yes
Used interface : Native Win32 interface for Win NT & 2000
Gap handling : Appended to previous track

Used output format : User Defined Encoder
Selected bitrate : 1024 kBit/s
Quality : High
Add ID3 tag : No
Command line compressor : C:\Program Files\FLAC\flac.exe
Additional command line options : -5 -V -T "ARTIST=%a" -T "TITLE=%t" -T "ALBUM=%g" -T "DATE=%y" -T "TRACKNUMBER=%n" -T "TOTALTRACKS=%x" -T "GENRE=%m" -T "ALBUMARTIST=%v" -T "ALBUM ARTIST=%v" -T "COMMENT=EAC Secure Mode, Test & Copy, AccurateRip, FLAC -5" %s


TOC of the extracted CD

Track | Start | Length | Start sector | End sector
––––––––––––––––––––––––––––-
1 | 0:00.00 | 6:54.25 | 0 | 31074
2 | 6:54.25 | 3:36.36 | 31075 | 47310
3 | 10:30.61 | 6:53.52 | 47311 | 78337
4 | 17:24.38 | 4:34.60 | 78338 | 98947
5 | 21:59.23 | 3:50.00 | 98948 | 116197
6 | 25:49.23 | 5:10.62 | 116198 | 139509
7 | 31:00.10 | 2:21.48 | 139510 | 150132
8 | 33:21.58 | 10:22.55 | 150133 | 196837
9 | 43:44.38 | 2:15.62 | 196838 | 207024


Track 1

Filename E:\EAC\Paul Motian - The Complete Remastered Recordings on Black Saint & Soul Note (2010) [6 CD Set] {CAM Jazz}\CD3 (Misterioso)\01 - Misterioso.wav

Pre-gap length 0:00:02.00

Peak level 95.2 %
Track quality 100.0 %
Test CRC 117D6589
Copy CRC 117D6589
Track not present in AccurateRip database
Copy OK

Track 2

Filename E:\EAC\Paul Motian - The Complete Remastered Recordings on Black Saint & Soul Note (2010) [6 CD Set] {CAM Jazz}\CD3 (Misterioso)\02 - Abacus.wav

Pre-gap length 0:00:03.73

Peak level 95.2 %
Track quality 100.0 %
Test CRC 16C29C9A
Copy CRC 16C29C9A
Track not present in AccurateRip database
Copy OK

Track 3

Filename E:\EAC\Paul Motian - The Complete Remastered Recordings on Black Saint & Soul Note (2010) [6 CD Set] {CAM Jazz}\CD3 (Misterioso)\03 - Once Around the Park.wav

Pre-gap length 0:00:03.33

Peak level 84.0 %
Track quality 100.0 %
Test CRC C98958D3
Copy CRC C98958D3
Track not present in AccurateRip database
Copy OK

Track 4

Filename E:\EAC\Paul Motian - The Complete Remastered Recordings on Black Saint & Soul Note (2010) [6 CD Set] {CAM Jazz}\CD3 (Misterioso)\04 - Gang of Five.wav

Pre-gap length 0:00:03.25

Peak level 80.4 %
Track quality 100.0 %
Test CRC 8D1F3B60
Copy CRC 8D1F3B60
Track not present in AccurateRip database
Copy OK

Track 5

Filename E:\EAC\Paul Motian - The Complete Remastered Recordings on Black Saint & Soul Note (2010) [6 CD Set] {CAM Jazz}\CD3 (Misterioso)\05 - Pannonica.wav

Pre-gap length 0:00:03.38

Peak level 95.2 %
Track quality 100.0 %
Test CRC 376BA15F
Copy CRC 376BA15F
Track not present in AccurateRip database
Copy OK

Track 6

Filename E:\EAC\Paul Motian - The Complete Remastered Recordings on Black Saint & Soul Note (2010) [6 CD Set] {CAM Jazz}\CD3 (Misterioso)\06 - Folk Song for Rosie.wav

Pre-gap length 0:00:03.24

Peak level 56.1 %
Track quality 99.9 %
Test CRC C71078E5
Copy CRC C71078E5
Track not present in AccurateRip database
Copy OK

Track 7

Filename E:\EAC\Paul Motian - The Complete Remastered Recordings on Black Saint & Soul Note (2010) [6 CD Set] {CAM Jazz}\CD3 (Misterioso)\07 - Byablue.wav

Peak level 59.2 %
Track quality 100.0 %
Test CRC E268C6A3
Copy CRC E268C6A3
Track not present in AccurateRip database
Copy OK

Track 8

Filename E:\EAC\Paul Motian - The Complete Remastered Recordings on Black Saint & Soul Note (2010) [6 CD Set] {CAM Jazz}\CD3 (Misterioso)\08 - Dance.wav

Peak level 95.2 %
Track quality 100.0 %
Test CRC 0A8F2C7B
Copy CRC 0A8F2C7B
Track not present in AccurateRip database
Copy OK

Track 9

Filename E:\EAC\Paul Motian - The Complete Remastered Recordings on Black Saint & Soul Note (2010) [6 CD Set] {CAM Jazz}\CD3 (Misterioso)\09 - Johnny Broken Wing.wav

Peak level 57.8 %
Track quality 99.9 %
Test CRC EFBB1FF4
Copy CRC EFBB1FF4
Track not present in AccurateRip database
Copy OK


None of the tracks are present in the AccurateRip database

No errors occurred

End of status report

Exact Audio Copy V0.99 prebeta 5 from 4. May 2009

EAC extraction logfile from 17. January 2011, 17:35

Paul Motian / The Complete Remastered Recordings on Black Saint & Soul Note (CD4)

Used drive : TSSTcorpCD/DVDW TS-H552L Adapter: 3 ID: 0

Read mode : Secure
Utilize accurate stream : Yes
Defeat audio cache : Yes
Make use of C2 pointers : No

Read offset correction : 6
Overread into Lead-In and Lead-Out : No
Fill up missing offset samples with silence : Yes
Delete leading and trailing silent blocks : No
Null samples used in CRC calculations : Yes
Used interface : Native Win32 interface for Win NT & 2000
Gap handling : Appended to previous track

Used output format : User Defined Encoder
Selected bitrate : 1024 kBit/s
Quality : High
Add ID3 tag : No
Command line compressor : C:\Program Files\FLAC\flac.exe
Additional command line options : -5 -V -T "ARTIST=%a" -T "TITLE=%t" -T "ALBUM=%g" -T "DATE=%y" -T "TRACKNUMBER=%n" -T "TOTALTRACKS=%x" -T "GENRE=%m" -T "ALBUMARTIST=%v" -T "ALBUM ARTIST=%v" -T "COMMENT=EAC Secure Mode, Test & Copy, AccurateRip, FLAC -5" %s


TOC of the extracted CD

Track | Start | Length | Start sector | End sector
––––––––––––––––––––––––––––-
1 | 0:00.00 | 4:19.60 | 0 | 19484
2 | 4:19.60 | 4:40.68 | 19485 | 40552
3 | 9:00.53 | 5:23.73 | 40553 | 64850
4 | 14:24.51 | 5:00.00 | 64851 | 87350
5 | 19:24.51 | 4:29.23 | 87351 | 107548
6 | 23:53.74 | 4:09.45 | 107549 | 126268
7 | 28:03.44 | 4:44.71 | 126269 | 147639
8 | 32:48.40 | 2:35.20 | 147640 | 159284
9 | 35:23.60 | 2:48.05 | 159285 | 171889
10 | 38:11.65 | 4:54.54 | 171890 | 193993
11 | 43:06.44 | 5:19.61 | 193994 | 217979
12 | 48:26.30 | 3:16.40 | 217980 | 232719
13 | 51:42.70 | 4:10.12 | 232720 | 251481


Track 1

Filename E:\EAC\Paul Motian - The Complete Remastered Recordings on Black Saint & Soul Note (2010) [6 CD Set] {CAM Jazz}\CD4 (Notes)\01 - Notes.wav

Pre-gap length 0:00:02.00

Peak level 95.2 %
Track quality 100.0 %
Test CRC EBF06527
Copy CRC EBF06527
Track not present in AccurateRip database
Copy OK

Track 2

Filename E:\EAC\Paul Motian - The Complete Remastered Recordings on Black Saint & Soul Note (2010) [6 CD Set] {CAM Jazz}\CD4 (Notes)\02 - Batterie.wav

Pre-gap length 0:00:03.05

Peak level 95.2 %
Track quality 99.9 %
Test CRC 8F3B3A3F
Copy CRC 8F3B3A3F
Track not present in AccurateRip database
Copy OK

Track 3

Filename E:\EAC\Paul Motian - The Complete Remastered Recordings on Black Saint & Soul Note (2010) [6 CD Set] {CAM Jazz}\CD4 (Notes)\03 - Piano Solo No. 1.wav

Peak level 61.3 %
Track quality 100.0 %
Test CRC F9CAC13C
Copy CRC F9CAC13C
Track not present in AccurateRip database
Copy OK

Track 4

Filename E:\EAC\Paul Motian - The Complete Remastered Recordings on Black Saint & Soul Note (2010) [6 CD Set] {CAM Jazz}\CD4 (Notes)\04 - West 107th Street.wav

Peak level 95.2 %
Track quality 100.0 %
Test CRC EFB39746
Copy CRC EFB39746
Track not present in AccurateRip database
Copy OK

Track 5

Filename E:\EAC\Paul Motian - The Complete Remastered Recordings on Black Saint & Soul Note (2010) [6 CD Set] {CAM Jazz}\CD4 (Notes)\05 - Just Us.wav

Pre-gap length 0:00:03.11

Peak level 95.2 %
Track quality 99.9 %
Test CRC 34EDCAD1
Copy CRC 34EDCAD1
Track not present in AccurateRip database
Copy OK

Track 6

Filename E:\EAC\Paul Motian - The Complete Remastered Recordings on Black Saint & Soul Note (2010) [6 CD Set] {CAM Jazz}\CD4 (Notes)\06 - No. 3.wav

Pre-gap length 0:00:05.16

Peak level 83.2 %
Track quality 100.0 %
Test CRC 9BDD2BA6
Copy CRC 9BDD2BA6
Track not present in AccurateRip database
Copy OK

Track 7

Filename E:\EAC\Paul Motian - The Complete Remastered Recordings on Black Saint & Soul Note (2010) [6 CD Set] {CAM Jazz}\CD4 (Notes)\07 - Turns.wav

Pre-gap length 0:00:02.70

Peak level 94.8 %
Track quality 100.0 %
Test CRC 40CD14B5
Copy CRC 40CD14B5
Track not present in AccurateRip database
Copy OK

Track 8

Filename E:\EAC\Paul Motian - The Complete Remastered Recordings on Black Saint & Soul Note (2010) [6 CD Set] {CAM Jazz}\CD4 (Notes)\08 - Ballade.wav

Pre-gap length 0:00:02.35

Peak level 51.6 %
Track quality 100.0 %
Test CRC 0BD8C130
Copy CRC 0BD8C130
Track not present in AccurateRip database
Copy OK

Track 9

Filename E:\EAC\Paul Motian - The Complete Remastered Recordings on Black Saint & Soul Note (2010) [6 CD Set] {CAM Jazz}\CD4 (Notes)\09 - Excerpt.wav

Pre-gap length 0:00:03.05

Peak level 72.7 %
Track quality 100.0 %
Test CRC 7317F598
Copy CRC 7317F598
Track not present in AccurateRip database
Copy OK

Track 10

Filename E:\EAC\Paul Motian - The Complete Remastered Recordings on Black Saint & Soul Note (2010) [6 CD Set] {CAM Jazz}\CD4 (Notes)\10 - Love Hurts.wav

Pre-gap length 0:00:03.50

Peak level 91.9 %
Track quality 100.0 %
Test CRC 2603AB6F
Copy CRC 2603AB6F
Track not present in AccurateRip database
Copy OK

Track 11

Filename E:\EAC\Paul Motian - The Complete Remastered Recordings on Black Saint & Soul Note (2010) [6 CD Set] {CAM Jazz}\CD4 (Notes)\11 - Inside.wav

Pre-gap length 0:00:09.35

Peak level 55.0 %
Track quality 100.0 %
Test CRC FF561413
Copy CRC FF561413
Track not present in AccurateRip database
Copy OK

Track 12

Filename E:\EAC\Paul Motian - The Complete Remastered Recordings on Black Saint & Soul Note (2010) [6 CD Set] {CAM Jazz}\CD4 (Notes)\12 - Finale.wav

Pre-gap length 0:00:09.16

Peak level 71.6 %
Track quality 100.0 %
Test CRC A7627EFB
Copy CRC A7627EFB
Track not present in AccurateRip database
Copy OK

Track 13

Filename E:\EAC\Paul Motian - The Complete Remastered Recordings on Black Saint & Soul Note (2010) [6 CD Set] {CAM Jazz}\CD4 (Notes)\13 - Diane.wav

Pre-gap length 0:00:02.60

Peak level 64.3 %
Track quality 100.0 %
Test CRC 9EE3F5A3
Copy CRC 9EE3F5A3
Track not present in AccurateRip database
Copy OK


None of the tracks are present in the AccurateRip database

No errors occurred

End of status report

Exact Audio Copy V0.99 prebeta 5 from 4. May 2009

EAC extraction logfile from 17. January 2011, 17:51

Paul Motian / The Complete Remastered Recordings on Black Saint & Soul Note (CD5)

Used drive : TSSTcorpCD/DVDW TS-H552L Adapter: 3 ID: 0

Read mode : Secure
Utilize accurate stream : Yes
Defeat audio cache : Yes
Make use of C2 pointers : No

Read offset correction : 6
Overread into Lead-In and Lead-Out : No
Fill up missing offset samples with silence : Yes
Delete leading and trailing silent blocks : No
Null samples used in CRC calculations : Yes
Used interface : Native Win32 interface for Win NT & 2000
Gap handling : Appended to previous track

Used output format : User Defined Encoder
Selected bitrate : 1024 kBit/s
Quality : High
Add ID3 tag : No
Command line compressor : C:\Program Files\FLAC\flac.exe
Additional command line options : -5 -V -T "ARTIST=%a" -T "TITLE=%t" -T "ALBUM=%g" -T "DATE=%y" -T "TRACKNUMBER=%n" -T "TOTALTRACKS=%x" -T "GENRE=%m" -T "ALBUMARTIST=%v" -T "ALBUM ARTIST=%v" -T "COMMENT=EAC Secure Mode, Test & Copy, AccurateRip, FLAC -5" %s


TOC of the extracted CD

Track | Start | Length | Start sector | End sector
––––––––––––––––––––––––––––-
1 | 0:00.00 | 5:45.49 | 0 | 25923
2 | 5:45.49 | 5:24.63 | 25924 | 50286
3 | 11:10.37 | 4:22.28 | 50287 | 69964
4 | 15:32.65 | 5:03.72 | 69965 | 92761
5 | 20:36.62 | 5:05.61 | 92762 | 115697
6 | 25:42.48 | 5:53.43 | 115698 | 142215
7 | 31:36.16 | 7:34.23 | 142216 | 176288
8 | 39:10.39 | 4:22.36 | 176289 | 195974
9 | 43:33.00 | 5:41.65 | 195975 | 221614


Track 1

Filename E:\EAC\Paul Motian - The Complete Remastered Recordings on Black Saint & Soul Note (2010) [6 CD Set] {CAM Jazz}\CD5 (One Time Out)\01 - One Time Out.wav

Pre-gap length 0:00:02.00

Peak level 95.2 %
Track quality 99.9 %
Test CRC A7EA8EF8
Copy CRC A7EA8EF8
Track not present in AccurateRip database
Copy OK

Track 2

Filename E:\EAC\Paul Motian - The Complete Remastered Recordings on Black Saint & Soul Note (2010) [6 CD Set] {CAM Jazz}\CD5 (One Time Out)\02 - If You Could See Me Now.wav

Pre-gap length 0:00:03.71

Peak level 66.8 %
Track quality 100.0 %
Test CRC 9EA641AE
Copy CRC 9EA641AE
Track not present in AccurateRip database
Copy OK

Track 3

Filename E:\EAC\Paul Motian - The Complete Remastered Recordings on Black Saint & Soul Note (2010) [6 CD Set] {CAM Jazz}\CD5 (One Time Out)\03 - For the Love of Sarah.wav

Pre-gap length 0:00:03.59

Peak level 95.2 %
Track quality 100.0 %
Test CRC F39124C1
Copy CRC F39124C1
Track not present in AccurateRip database
Copy OK

Track 4

Filename E:\EAC\Paul Motian - The Complete Remastered Recordings on Black Saint & Soul Note (2010) [6 CD Set] {CAM Jazz}\CD5 (One Time Out)\04 - The Storyteller.wav

Pre-gap length 0:00:04.18

Peak level 86.0 %
Track quality 100.0 %
Test CRC 4D796890
Copy CRC 4D796890
Track not present in AccurateRip database
Copy OK

Track 5

Filename E:\EAC\Paul Motian - The Complete Remastered Recordings on Black Saint & Soul Note (2010) [6 CD Set] {CAM Jazz}\CD5 (One Time Out)\05 - Portrait of T..wav

Pre-gap length 0:00:03.61

Peak level 34.1 %
Track quality 99.9 %
Test CRC F85ED136
Copy CRC F85ED136
Track not present in AccurateRip database
Copy OK

Track 6

Filename E:\EAC\Paul Motian - The Complete Remastered Recordings on Black Saint & Soul Note (2010) [6 CD Set] {CAM Jazz}\CD5 (One Time Out)\06 - Morpion.wav

Peak level 95.2 %
Track quality 100.0 %
Test CRC 7B487189
Copy CRC 7B487189
Track not present in AccurateRip database
Copy OK

Track 7

Filename E:\EAC\Paul Motian - The Complete Remastered Recordings on Black Saint & Soul Note (2010) [6 CD Set] {CAM Jazz}\CD5 (One Time Out)\07 - Monk's Mood.wav

Pre-gap length 0:00:03.15

Peak level 45.8 %
Track quality 100.0 %
Test CRC 4219D1FB
Copy CRC 4219D1FB
Track not present in AccurateRip database
Copy OK

Track 8

Filename E:\EAC\Paul Motian - The Complete Remastered Recordings on Black Saint & Soul Note (2010) [6 CD Set] {CAM Jazz}\CD5 (One Time Out)\08 - Good Idea.wav

Pre-gap length 0:00:03.36

Peak level 95.2 %
Track quality 100.0 %
Test CRC C3445E4A
Copy CRC C3445E4A
Track not present in AccurateRip database
Copy OK

Track 9

Filename E:\EAC\Paul Motian - The Complete Remastered Recordings on Black Saint & Soul Note (2010) [6 CD Set] {CAM Jazz}\CD5 (One Time Out)\09 - Circle Dance.wav

Pre-gap length 0:00:04.36

Peak level 79.1 %
Track quality 100.0 %
Test CRC 9204A79B
Copy CRC 9204A79B
Track not present in AccurateRip database
Copy OK


None of the tracks are present in the AccurateRip database

No errors occurred

End of status report

Exact Audio Copy V0.99 prebeta 5 from 4. May 2009

EAC extraction logfile from 17. January 2011, 17:56

Paul Motian / The Complete Remastered Recordings on Black Saint & Soul Note (CD6)

Used drive : TSSTcorpCD/DVDW TS-H552L Adapter: 3 ID: 0

Read mode : Secure
Utilize accurate stream : Yes
Defeat audio cache : Yes
Make use of C2 pointers : No

Read offset correction : 6
Overread into Lead-In and Lead-Out : No
Fill up missing offset samples with silence : Yes
Delete leading and trailing silent blocks : No
Null samples used in CRC calculations : Yes
Used interface : Native Win32 interface for Win NT & 2000
Gap handling : Appended to previous track

Used output format : User Defined Encoder
Selected bitrate : 1024 kBit/s
Quality : High
Add ID3 tag : No
Command line compressor : C:\Program Files\FLAC\flac.exe
Additional command line options : -5 -V -T "ARTIST=%a" -T "TITLE=%t" -T "ALBUM=%g" -T "DATE=%y" -T "TRACKNUMBER=%n" -T "TOTALTRACKS=%x" -T "GENRE=%m" -T "ALBUMARTIST=%v" -T "ALBUM ARTIST=%v" -T "COMMENT=EAC Secure Mode, Test & Copy, AccurateRip, FLAC -5" %s


TOC of the extracted CD

Track | Start | Length | Start sector | End sector
––––––––––––––––––––––––––––-
1 | 0:00.00 | 1:41.00 | 0 | 7574
2 | 1:41.00 | 1:42.52 | 7575 | 15276
3 | 3:23.52 | 2:29.39 | 15277 | 26490
4 | 5:53.16 | 1:03.10 | 26491 | 31225
5 | 6:56.26 | 2:00.38 | 31226 | 40263
6 | 8:56.64 | 1:01.14 | 40264 | 44852
7 | 9:58.03 | 1:33.13 | 44853 | 51840
8 | 11:31.16 | 2:09.05 | 51841 | 61520
9 | 13:40.21 | 1:57.11 | 61521 | 70306
10 | 15:37.32 | 4:11.36 | 70307 | 89167
11 | 19:48.68 | 0:49.17 | 89168 | 92859
12 | 20:38.10 | 2:52.45 | 92860 | 105804
13 | 23:30.55 | 2:26.27 | 105805 | 116781
14 | 25:57.07 | 3:41.06 | 116782 | 133362
15 | 29:38.13 | 1:16.03 | 133363 | 139065
16 | 30:54.16 | 6:57.35 | 139066 | 170375
17 | 37:51.51 | 3:36.21 | 170376 | 186596
18 | 41:27.72 | 2:32.46 | 186597 | 198042
19 | 44:00.43 | 1:30.63 | 198043 | 204855
20 | 45:31.31 | 1:31.15 | 204856 | 211695
21 | 47:02.46 | 5:04.14 | 211696 | 234509
22 | 52:06.60 | 6:58.68 | 234510 | 265927
23 | 59:05.53 | 4:50.58 | 265928 | 287735


Track 1

Filename E:\EAC\Paul Motian - The Complete Remastered Recordings on Black Saint & Soul Note (2010) [6 CD Set] {CAM Jazz}\CD6 (Flux and Change)\01 - Hazard Rate.wav

Pre-gap length 0:00:02.00

Peak level 77.7 %
Track quality 100.0 %
Test CRC 8F305F0A
Copy CRC 8F305F0A
Accurately ripped (confidence 2) [F8A4F98A]
Copy OK

Track 2

Filename E:\EAC\Paul Motian - The Complete Remastered Recordings on Black Saint & Soul Note (2010) [6 CD Set] {CAM Jazz}\CD6 (Flux and Change)\02 - What Is This Thing Called Love .wav

Peak level 82.7 %
Track quality 100.0 %
Test CRC 87F0E2BC
Copy CRC 87F0E2BC
Accurately ripped (confidence 2) [95812106]
Copy OK

Track 3

Filename E:\EAC\Paul Motian - The Complete Remastered Recordings on Black Saint & Soul Note (2010) [6 CD Set] {CAM Jazz}\CD6 (Flux and Change)\03 - Double Act 1.wav

Peak level 55.4 %
Track quality 100.0 %
Test CRC F9D97417
Copy CRC F9D97417
Accurately ripped (confidence 2) [3D3216B6]
Copy OK

Track 4

Filename E:\EAC\Paul Motian - The Complete Remastered Recordings on Black Saint & Soul Note (2010) [6 CD Set] {CAM Jazz}\CD6 (Flux and Change)\04 - Abacus.wav

Peak level 89.5 %
Track quality 100.0 %
Test CRC DDAF76DD
Copy CRC DDAF76DD
Accurately ripped (confidence 2) [B0048774]
Copy OK

Track 5

Filename E:\EAC\Paul Motian - The Complete Remastered Recordings on Black Saint & Soul Note (2010) [6 CD Set] {CAM Jazz}\CD6 (Flux and Change)\05 - Pianologue I.wav

Peak level 66.2 %
Track quality 99.9 %
Test CRC F376A424
Copy CRC F376A424
Accurately ripped (confidence 2) [718BBA41]
Copy OK

Track 6

Filename E:\EAC\Paul Motian - The Complete Remastered Recordings on Black Saint & Soul Note (2010) [6 CD Set] {CAM Jazz}\CD6 (Flux and Change)\06 - Someday My Prince Will Come.wav

Peak level 81.0 %
Track quality 100.0 %
Test CRC 3834FFD0
Copy CRC 3834FFD0
Accurately ripped (confidence 2) [896F4D97]
Copy OK

Track 7

Filename E:\EAC\Paul Motian - The Complete Remastered Recordings on Black Saint & Soul Note (2010) [6 CD Set] {CAM Jazz}\CD6 (Flux and Change)\07 - Drumlogue 1.wav

Peak level 87.3 %
Track quality 100.0 %
Test CRC DC7368B8
Copy CRC DC7368B8
Accurately ripped (confidence 2) [8048EE4A]
Copy OK

Track 8

Filename E:\EAC\Paul Motian - The Complete Remastered Recordings on Black Saint & Soul Note (2010) [6 CD Set] {CAM Jazz}\CD6 (Flux and Change)\08 - Double Act 2.wav

Peak level 76.4 %
Track quality 100.0 %
Test CRC 95E97F4B
Copy CRC 95E97F4B
Accurately ripped (confidence 2) [49AB10A2]
Copy OK

Track 9

Filename E:\EAC\Paul Motian - The Complete Remastered Recordings on Black Saint & Soul Note (2010) [6 CD Set] {CAM Jazz}\CD6 (Flux and Change)\09 - When I Fall in Love.wav

Peak level 54.9 %
Track quality 100.0 %
Test CRC 72F3AB9D
Copy CRC 72F3AB9D
Accurately ripped (confidence 2) [C77D667D]
Copy OK

Track 10

Filename E:\EAC\Paul Motian - The Complete Remastered Recordings on Black Saint & Soul Note (2010) [6 CD Set] {CAM Jazz}\CD6 (Flux and Change)\10 - Double Act 3.wav

Peak level 79.9 %
Track quality 100.0 %
Test CRC 01A1789F
Copy CRC 01A1789F
Accurately ripped (confidence 2) [74AA2B79]
Copy OK

Track 11

Filename E:\EAC\Paul Motian - The Complete Remastered Recordings on Black Saint & Soul Note (2010) [6 CD Set] {CAM Jazz}\CD6 (Flux and Change)\11 - Drumlogue 2.wav

Peak level 73.6 %
Track quality 100.0 %
Test CRC 73413CFA
Copy CRC 73413CFA
Accurately ripped (confidence 2) [F53AEDEF]
Copy OK

Track 12

Filename E:\EAC\Paul Motian - The Complete Remastered Recordings on Black Saint & Soul Note (2010) [6 CD Set] {CAM Jazz}\CD6 (Flux and Change)\12 - Things Ain't What They Used to Be.wav

Peak level 89.7 %
Track quality 100.0 %
Test CRC 83B453C1
Copy CRC 83B453C1
Accurately ripped (confidence 2) [C5E23917]
Copy OK

Track 13

Filename E:\EAC\Paul Motian - The Complete Remastered Recordings on Black Saint & Soul Note (2010) [6 CD Set] {CAM Jazz}\CD6 (Flux and Change)\13 - Sweet Little SwanSweet Little Swan.wav

Peak level 61.5 %
Track quality 100.0 %
Test CRC F09D135B
Copy CRC F09D135B
Accurately ripped (confidence 3) [F326DA25]
Copy OK

Track 14

Filename E:\EAC\Paul Motian - The Complete Remastered Recordings on Black Saint & Soul Note (2010) [6 CD Set] {CAM Jazz}\CD6 (Flux and Change)\14 - Sweet Little Swan.wav

Peak level 82.8 %
Track quality 100.0 %
Test CRC E135B9B9
Copy CRC E135B9B9
Accurately ripped (confidence 2) [AD969E2D]
Copy OK

Track 15

Filename E:\EAC\Paul Motian - The Complete Remastered Recordings on Black Saint & Soul Note (2010) [6 CD Set] {CAM Jazz}\CD6 (Flux and Change)\15 - Double act 4.wav

Peak level 54.0 %
Track quality 99.8 %
Test CRC BD122F20
Copy CRC BD122F20
Accurately ripped (confidence 2) [DFD625AC]
Copy OK

Track 16

Filename E:\EAC\Paul Motian - The Complete Remastered Recordings on Black Saint & Soul Note (2010) [6 CD Set] {CAM Jazz}\CD6 (Flux and Change)\16 - All the things you are.wav

Peak level 88.4 %
Track quality 100.0 %
Test CRC 561F3EC7
Copy CRC 561F3EC7
Accurately ripped (confidence 2) [DE447DD6]
Copy OK

Track 17

Filename E:\EAC\Paul Motian - The Complete Remastered Recordings on Black Saint & Soul Note (2010) [6 CD Set] {CAM Jazz}\CD6 (Flux and Change)\17 - For your peace.wav

Peak level 56.3 %
Track quality 100.0 %
Test CRC 9751F7B5
Copy CRC 9751F7B5
Accurately ripped (confidence 2) [8353C940]
Copy OK

Track 18

Filename E:\EAC\Paul Motian - The Complete Remastered Recordings on Black Saint & Soul Note (2010) [6 CD Set] {CAM Jazz}\CD6 (Flux and Change)\18 - Drumlougue 3.wav

Peak level 84.1 %
Track quality 100.0 %
Test CRC BBAC5102
Copy CRC BBAC5102
Accurately ripped (confidence 2) [C4CFD42A]
Copy OK

Track 19

Filename E:\EAC\Paul Motian - The Complete Remastered Recordings on Black Saint & Soul Note (2010) [6 CD Set] {CAM Jazz}\CD6 (Flux and Change)\19 - St. Thomas.wav

Peak level 64.6 %
Track quality 100.0 %
Test CRC 99EDC4E6
Copy CRC 99EDC4E6
Accurately ripped (confidence 2) [5BB61FD2]
Copy OK

Track 20

Filename E:\EAC\Paul Motian - The Complete Remastered Recordings on Black Saint & Soul Note (2010) [6 CD Set] {CAM Jazz}\CD6 (Flux and Change)\20 - Freedom Jazz Dance.wav

Peak level 49.6 %
Track quality 100.0 %
Test CRC FA529946
Copy CRC FA529946
Accurately ripped (confidence 2) [8D0B1B59]
Copy OK

Track 21

Filename E:\EAC\Paul Motian - The Complete Remastered Recordings on Black Saint & Soul Note (2010) [6 CD Set] {CAM Jazz}\CD6 (Flux and Change)\21 - Alice in wonderland.wav

Peak level 66.3 %
Track quality 99.9 %
Test CRC 8240862F
Copy CRC 8240862F
Accurately ripped (confidence 2) [F66F0061]
Copy OK

Track 22

Filename E:\EAC\Paul Motian - The Complete Remastered Recordings on Black Saint & Soul Note (2010) [6 CD Set] {CAM Jazz}\CD6 (Flux and Change)\22 - Anthropology.wav

Peak level 86.8 %
Track quality 100.0 %
Test CRC 60B4A560
Copy CRC 60B4A560
Accurately ripped (confidence 2) [6AC021AD]
Copy OK

Track 23

Filename E:\EAC\Paul Motian - The Complete Remastered Recordings on Black Saint & Soul Note (2010) [6 CD Set] {CAM Jazz}\CD6 (Flux and Change)\23 - Straight no chaser.wav

Peak level 78.0 %
Track quality 100.0 %
Test CRC F533AA3F
Copy CRC F533AA3F
Accurately ripped (confidence 2) [236DDAF9]
Copy OK


All tracks accurately ripped

No errors occurred

End of status report


Paul Motian - The Complete Remastered Recordings on Black Saint & Soul Note (2010) {6CD Set CAM Jazz BXS 1008}

Paul Motian - The Complete Remastered Recordings on Black Saint & Soul Note (2010) {6CD Set CAM Jazz BXS 1008}

Paul Motian - The Complete Remastered Recordings on Black Saint & Soul Note (2010) {6CD Set CAM Jazz BXS 1008}



===