Subcategories
Tags
Language
Tags

Paul Weller - On Sunset (2020)

Posted By: delpotro
Paul Weller - On Sunset (2020)

Paul Weller - On Sunset (2020)
EAC Rip | FLAC (tracks+log+.cue) - 311 Mb | MP3 CBR 320 kbps - 129 Mb | Covers included | 00:47:58
Pop Rock | Label: Polydor Records

On Sunset features ten classic yet modern Paul Weller songs. On Sunset is a soul album. At the same time it’s also an electronic album, an orchestral album, an album packed with masterly pop songs and heart-tugging ballads, and an album filled with touches of experimentalism. It’s also an album that sees Weller taking a rare glance into the rear-view mirror as he speeds into the 2020s.

Weller started work on On Sunset soon after finishing 2018’s masterpiece True Meanings. Opening track Mirror Ball was from the True Meanings sessions and originally slated as a b-side. Thankfully it was rescued for On Sunset as it’s shimmering opener. As ever, Weller retains a rigorous forward-looking focus when it comes to seeking out the best contemporary sounds and music. But lyrically, Weller – back on his old home, Polydor Records for the first time since the Style Council days – is also starting to look back on the past with the insight of age especially on songs like Old Father Thyme.

Most of the album sees Weller multi-tasking on various instruments with accompaniment from his regular band - Ben Gordelier appears on all tracks and Andy Crofts on most whilst Steve Cradock pops up with his guitar on 4 songs. An eclectic and sometimes surprising gathering of guests appear on On Sunset including Slade’s Jim Lea contributing violin to the Bonzos-esque Equanimity, and Paul’s old Style Council chum Mick Talbot adds his signature Hammond Organ sound to 3 tracks. The beautifully lush More features a verse sung by French singer Julie Gros, from the band Le Superhomard (whose album Meadow Lane Park was one of Weller’s favourites of 2019) as well as the return of The Strype’s guitarist Josh McClorey. English folk trio The Staves contribute backing vocals for 3 tracks. Once again Hannah Peel sprinkles her magic over the album with string arrangements and The Paraorchestra were invited to add their expertise to 4 tracks.
Tracklist:
1. Mirror Ball (07:37)
2. Baptiste (03:05)
3. Old Father Tyme (03:56)
4. Village (03:19)
5. More (06:54)
6. On Sunset (06:34)
7. Equanimity (03:54)
8. Walkin' (03:56)
9. Earth Beat (04:18)
10. Rockets (04:20)

Exact Audio Copy V1.3 from 2. September 2016

EAC extraction logfile from 30. August 2020, 16:24

Paul Weller / On Sunset

Used drive : PLEXTOR PX-891SAF Adapter: 1 ID: 0

Read mode : Secure
Utilize accurate stream : Yes
Defeat audio cache : Yes
Make use of C2 pointers : No

Read offset correction : 6
Overread into Lead-In and Lead-Out : No
Fill up missing offset samples with silence : Yes
Delete leading and trailing silent blocks : No
Null samples used in CRC calculations : Yes
Used interface : Native Win32 interface for Win NT & 2000
Gap handling : Appended to previous track

Used output format : User Defined Encoder
Selected bitrate : 1024 kBit/s
Quality : High
Add ID3 tag : No
Command line compressor : C:\Program Files (x86)\Exact Audio Copy\Flac\flac.exe
Additional command line options : -8 -V -T "ARTIST=%artist%" -T "TITLE=%title%" -T "ALBUM=%albumtitle%" -T "DATE=%year%" -T "TRACKNUMBER=%tracknr%" -T "GENRE=%genre%" -T "PERFORMER=%albuminterpret%" -T "COMPOSER=%composer%" %haslyrics%–tag-from-file=LYRICS="%lyricsfile%"%haslyrics% -T "ALBUMARTIST=%albumartist%" -T "DISCNUMBER=%cdnumber%" -T "TOTALDISCS=%totalcds%" -T "TOTALTRACKS=%numtracks%" -T "COMMENT=%comment%" %source% -o %dest%


TOC of the extracted CD

Track | Start | Length | Start sector | End sector
––––––––––––––––––––––––––––-
1 | 0:00.13 | 7:37.24 | 13 | 34311
2 | 7:37.37 | 3:05.51 | 34312 | 48237
3 | 10:43.13 | 3:56.10 | 48238 | 65947
4 | 14:39.23 | 3:19.35 | 65948 | 80907
5 | 17:58.58 | 6:54.64 | 80908 | 112021
6 | 24:53.47 | 6:34.42 | 112022 | 141613
7 | 31:28.14 | 3:54.58 | 141614 | 159221
8 | 35:22.72 | 3:56.55 | 159222 | 176976
9 | 39:19.52 | 4:18.35 | 176977 | 196361
10 | 43:38.12 | 4:20.69 | 196362 | 215930


Track 1

Filename D:\#EAC new\#wav+flac\#Add\Paul Weller - On Sunset\01. Paul Weller - Mirror Ball.wav

Pre-gap length 0:00:02.17

Peak level 96.6 %
Extraction speed 3.8 X
Track quality 100.0 %
Test CRC FD7E8343
Copy CRC FD7E8343
Accurately ripped (confidence 1) [7A15B374] (AR v2)
Copy OK

Track 2

Filename D:\#EAC new\#wav+flac\#Add\Paul Weller - On Sunset\02. Paul Weller - Baptiste.wav

Peak level 96.6 %
Extraction speed 4.0 X
Track quality 100.0 %
Test CRC F94A2481
Copy CRC F94A2481
Accurately ripped (confidence 1) [7941C40D] (AR v2)
Copy OK

Track 3

Filename D:\#EAC new\#wav+flac\#Add\Paul Weller - On Sunset\03. Paul Weller - Old Father Tyme.wav

Peak level 96.6 %
Extraction speed 4.4 X
Track quality 100.0 %
Test CRC 597CB833
Copy CRC 597CB833
Accurately ripped (confidence 1) [28B31D7B] (AR v2)
Copy OK

Track 4

Filename D:\#EAC new\#wav+flac\#Add\Paul Weller - On Sunset\04. Paul Weller - Village.wav

Peak level 96.6 %
Extraction speed 4.6 X
Track quality 100.0 %
Test CRC 2182E08A
Copy CRC 2182E08A
Accurately ripped (confidence 1) [73C8513F] (AR v2)
Copy OK

Track 5

Filename D:\#EAC new\#wav+flac\#Add\Paul Weller - On Sunset\05. Paul Weller - More.wav

Peak level 96.6 %
Extraction speed 5.3 X
Track quality 100.0 %
Test CRC 20270C58
Copy CRC 20270C58
Accurately ripped (confidence 1) [7CA0933A] (AR v2)
Copy OK

Track 6

Filename D:\#EAC new\#wav+flac\#Add\Paul Weller - On Sunset\06. Paul Weller - On Sunset.wav

Peak level 98.8 %
Extraction speed 5.7 X
Track quality 100.0 %
Test CRC 6A1636FF
Copy CRC 6A1636FF
Accurately ripped (confidence 1) [3D6FA09A] (AR v2)
Copy OK

Track 7

Filename D:\#EAC new\#wav+flac\#Add\Paul Weller - On Sunset\07. Paul Weller - Equanimity.wav

Peak level 96.6 %
Extraction speed 5.7 X
Track quality 100.0 %
Test CRC 32D54A82
Copy CRC 32D54A82
Accurately ripped (confidence 1) [5F76A585] (AR v2)
Copy OK

Track 8

Filename D:\#EAC new\#wav+flac\#Add\Paul Weller - On Sunset\08. Paul Weller - Walkin'.wav

Peak level 96.6 %
Extraction speed 4.8 X
Track quality 99.9 %
Test CRC 683EBAD1
Copy CRC 683EBAD1
Accurately ripped (confidence 1) [77B11711] (AR v2)
Copy OK

Track 9

Filename D:\#EAC new\#wav+flac\#Add\Paul Weller - On Sunset\09. Paul Weller - Earth Beat.wav

Peak level 97.8 %
Extraction speed 6.2 X
Track quality 100.0 %
Test CRC 632E23A5
Copy CRC 632E23A5
Accurately ripped (confidence 1) [6466896F] (AR v2)
Copy OK

Track 10

Filename D:\#EAC new\#wav+flac\#Add\Paul Weller - On Sunset\10. Paul Weller - Rockets.wav

Peak level 96.6 %
Extraction speed 5.3 X
Track quality 99.9 %
Test CRC FB68D89F
Copy CRC FB68D89F
Accurately ripped (confidence 1) [BB3CBE2A] (AR v2)
Copy OK


All tracks accurately ripped

No errors occurred

End of status report

–– CUETools DB Plugin V2.1.6

[CTDB TOCID: n6QsmP7BaPwR_l3Mk.ZhFHOqyRw-] found
Submit result: n6QsmP7BaPwR_l3Mk.ZhFHOqyRw- has been confirmed
Track | CTDB Status
1 | (23/23) Accurately ripped
2 | (23/23) Accurately ripped
3 | (23/23) Accurately ripped
4 | (23/23) Accurately ripped
5 | (23/23) Accurately ripped
6 | (23/23) Accurately ripped
7 | (23/23) Accurately ripped
8 | (23/23) Accurately ripped
9 | (23/23) Accurately ripped
10 | (23/23) Accurately ripped


==== Log checksum 67153F68F9EC08D305DED3AD49AF7CCB9998816477C25E7772D1DA83845777D5 ====

––––––––––––––––––––––––––––––

Exact Audio Copy V1.3 from 2. September 2016

EAC extraction logfile from 30. August 2020, 16:24

Paul Weller / On Sunset

Used drive : PLEXTOR PX-891SAF Adapter: 1 ID: 0

Read mode : Secure
Utilize accurate stream : Yes
Defeat audio cache : Yes
Make use of C2 pointers : No

Read offset correction : 6
Overread into Lead-In and Lead-Out : No
Fill up missing offset samples with silence : Yes
Delete leading and trailing silent blocks : No
Null samples used in CRC calculations : Yes
Used interface : Native Win32 interface for Win NT & 2000
Gap handling : Appended to previous track

Used output format : User Defined Encoder
Selected bitrate : 1024 kBit/s
Quality : High
Add ID3 tag : No
Command line compressor : C:\Program Files (x86)\Exact Audio Copy\Flac\flac.exe
Additional command line options : -8 -V -T "ARTIST=%artist%" -T "TITLE=%title%" -T "ALBUM=%albumtitle%" -T "DATE=%year%" -T "TRACKNUMBER=%tracknr%" -T "GENRE=%genre%" -T "PERFORMER=%albuminterpret%" -T "COMPOSER=%composer%" %haslyrics%–tag-from-file=LYRICS="%lyricsfile%"%haslyrics% -T "ALBUMARTIST=%albumartist%" -T "DISCNUMBER=%cdnumber%" -T "TOTALDISCS=%totalcds%" -T "TOTALTRACKS=%numtracks%" -T "COMMENT=%comment%" %source% -o %dest%


TOC of the extracted CD

Track | Start | Length | Start sector | End sector
––––––––––––––––––––––––––––-
1 | 0:00.13 | 7:37.24 | 13 | 34311
2 | 7:37.37 | 3:05.51 | 34312 | 48237
3 | 10:43.13 | 3:56.10 | 48238 | 65947
4 | 14:39.23 | 3:19.35 | 65948 | 80907
5 | 17:58.58 | 6:54.64 | 80908 | 112021
6 | 24:53.47 | 6:34.42 | 112022 | 141613
7 | 31:28.14 | 3:54.58 | 141614 | 159221
8 | 35:22.72 | 3:56.55 | 159222 | 176976
9 | 39:19.52 | 4:18.35 | 176977 | 196361
10 | 43:38.12 | 4:20.69 | 196362 | 215930


Track 1

Filename D:\#EAC new\#wav+flac\#Add\Paul Weller - On Sunset\01. Paul Weller - Mirror Ball.wav

Pre-gap length 0:00:02.17

Peak level 96.6 %
Extraction speed 3.8 X
Track quality 100.0 %
Test CRC FD7E8343
Copy CRC FD7E8343
Accurately ripped (confidence 1) [7A15B374] (AR v2)
Copy OK

Track 2

Filename D:\#EAC new\#wav+flac\#Add\Paul Weller - On Sunset\02. Paul Weller - Baptiste.wav

Peak level 96.6 %
Extraction speed 4.0 X
Track quality 100.0 %
Test CRC F94A2481
Copy CRC F94A2481
Accurately ripped (confidence 1) [7941C40D] (AR v2)
Copy OK

Track 3

Filename D:\#EAC new\#wav+flac\#Add\Paul Weller - On Sunset\03. Paul Weller - Old Father Tyme.wav

Peak level 96.6 %
Extraction speed 4.4 X
Track quality 100.0 %
Test CRC 597CB833
Copy CRC 597CB833
Accurately ripped (confidence 1) [28B31D7B] (AR v2)
Copy OK

Track 4

Filename D:\#EAC new\#wav+flac\#Add\Paul Weller - On Sunset\04. Paul Weller - Village.wav

Peak level 96.6 %
Extraction speed 4.6 X
Track quality 100.0 %
Test CRC 2182E08A
Copy CRC 2182E08A
Accurately ripped (confidence 1) [73C8513F] (AR v2)
Copy OK

Track 5

Filename D:\#EAC new\#wav+flac\#Add\Paul Weller - On Sunset\05. Paul Weller - More.wav

Peak level 96.6 %
Extraction speed 5.3 X
Track quality 100.0 %
Test CRC 20270C58
Copy CRC 20270C58
Accurately ripped (confidence 1) [7CA0933A] (AR v2)
Copy OK

Track 6

Filename D:\#EAC new\#wav+flac\#Add\Paul Weller - On Sunset\06. Paul Weller - On Sunset.wav

Peak level 98.8 %
Extraction speed 5.7 X
Track quality 100.0 %
Test CRC 6A1636FF
Copy CRC 6A1636FF
Accurately ripped (confidence 1) [3D6FA09A] (AR v2)
Copy OK

Track 7

Filename D:\#EAC new\#wav+flac\#Add\Paul Weller - On Sunset\07. Paul Weller - Equanimity.wav

Peak level 96.6 %
Extraction speed 5.7 X
Track quality 100.0 %
Test CRC 32D54A82
Copy CRC 32D54A82
Accurately ripped (confidence 1) [5F76A585] (AR v2)
Copy OK

Track 8

Filename D:\#EAC new\#wav+flac\#Add\Paul Weller - On Sunset\08. Paul Weller - Walkin'.wav

Peak level 96.6 %
Extraction speed 4.8 X
Track quality 99.9 %
Test CRC 683EBAD1
Copy CRC 683EBAD1
Accurately ripped (confidence 1) [77B11711] (AR v2)
Copy OK

Track 9

Filename D:\#EAC new\#wav+flac\#Add\Paul Weller - On Sunset\09. Paul Weller - Earth Beat.wav

Peak level 97.8 %
Extraction speed 6.2 X
Track quality 100.0 %
Test CRC 632E23A5
Copy CRC 632E23A5
Accurately ripped (confidence 1) [6466896F] (AR v2)
Copy OK

Track 10

Filename D:\#EAC new\#wav+flac\#Add\Paul Weller - On Sunset\10. Paul Weller - Rockets.wav

Peak level 96.6 %
Extraction speed 5.3 X
Track quality 99.9 %
Test CRC FB68D89F
Copy CRC FB68D89F
Accurately ripped (confidence 1) [BB3CBE2A] (AR v2)
Copy OK


All tracks accurately ripped

No errors occurred

End of status report

–– CUETools DB Plugin V2.1.6

[CTDB TOCID: n6QsmP7BaPwR_l3Mk.ZhFHOqyRw-] found
Submit result: n6QsmP7BaPwR_l3Mk.ZhFHOqyRw- has been confirmed
Track | CTDB Status
1 | (23/23) Accurately ripped
2 | (23/23) Accurately ripped
3 | (23/23) Accurately ripped
4 | (23/23) Accurately ripped
5 | (23/23) Accurately ripped
6 | (23/23) Accurately ripped
7 | (23/23) Accurately ripped
8 | (23/23) Accurately ripped
9 | (23/23) Accurately ripped
10 | (23/23) Accurately ripped


==== Log checksum 67153F68F9EC08D305DED3AD49AF7CCB9998816477C25E7772D1DA83845777D5 ====

Thanks to the Original ripper !