Subcategories

Paul Stephenson - These Days [Stockfisch SFR 357.6029.2] (2004)

Posted By: luckburz
Paul Stephenson - These Days [Stockfisch SFR 357.6029.2] (2004)

Paul Stephenson - These Days
EAC+LOG+CUE | APE: 258 MB | Full Artwork | 5% Recovery Info
Label/Cat#: Stockfisch # SFR 357.6029.2 | Country/Year: Germany 2004
Genre: Folk, Rock | Style: Singer/Songwriter, Folk Rock

MD5 [X] CUE [X] LOG [X] INFO TEXT [X] ARTWORK [X]

selfrip [] not my rip [X]

Paul Stephenson - These Days [Stockfisch SFR 357.6029.2] (2004)


EAC extraction logfile from 23. May 2006, 12:30 for CD
Paul Stephenson / These Days

Used drive : _NEC DVD_RW ND-4551A Adapter: 1 ID: 0
Read mode : Secure with NO C2, accurate stream, disable cache
Read offset correction : 48
Overread into Lead-In and Lead-Out : No

Used output format : Internal WAV Routines
44.100 Hz; 16 Bit; Stereo

Other options :
Fill up missing offset samples with silence : Yes
Delete leading and trailing silent blocks : No
Installed external ASPI interface


Range status and errors
Selected range
Filename F:\Paul Stephenson - These Days\Paul Stephenson - These Days.wav

Peak level 94.3 %
Range quality 100.0 %
CRC 5EA1E6B2
Copy OK

No errors occured

End of status report

auCDtect: CD records authenticity detector, version 0.8.2
Copyright © 2004 Oleg Berngardt. All rights reserved.
Copyright © 2004 Alexander Djourik. All rights reserved.

Detect mode (0..40 with 0 = most accurate): 8 (default)


––––––––––––––––––––––––––––––
[Paul Stephenson - These Days.wav]
Detected average hi-boundary frequency: 2.048998e+004 Hz
Detected average lo-boundary frequency: 1.454749e+004 Hz
Detected average hi-cut frequency: 2.191493e+004 Hz
Detected average lo-cut frequency: 1.646733e+004 Hz
Maximum probablis boundary frequency: 2.189100e+004 Hz
Coefficient of nonlinearity of a phase: 7.793433e-001
First order smothness: 4.035990e-001
Second order smothness: 7.927378e-001
––––––––––––––––––––––––––––––
This track looks like CDDA with probability 99%.

foobar2000 1.1.14a / Dynamic Range Meter 1.1.1
log date: 2012-12-04 19:53:23

––––––––––––––––––––––––––––––––––––––––
Analyzed: Paul Stephenson / These Days
––––––––––––––––––––––––––––––––––––––––

DR Peak RMS Duration Track
––––––––––––––––––––––––––––––––––––––––
DR10 -0.53 dB -12.44 dB 4:00 01-These Days
DR10 -0.52 dB -12.02 dB 4:11 02-Engineering Frank
DR9 -0.53 dB -12.44 dB 4:53 03-Not Long Now
DR10 -0.53 dB -12.40 dB 3:40 04-Don`t Mind If You Do
DR10 -0.53 dB -12.78 dB 3:46 05-Captain Of The Loving Kind
DR11 -0.53 dB -13.67 dB 4:29 06-Ready To Rain
DR10 -0.52 dB -12.30 dB 4:28 07-The Making Of Zachary
DR9 -0.52 dB -11.82 dB 3:59 08-Millionaire
DR10 -0.53 dB -12.36 dB 3:28 09-Perfect Place
DR10 -0.52 dB -12.05 dB 2:39 10-Love You Not Love You True
DR9 -0.51 dB -12.23 dB 3:53 11-Big Meeting Day
––––––––––––––––––––––––––––––––––––––––

Number of tracks: 11
Official DR value: DR10

Samplerate: 44100 Hz
Channels: 2
Bits per sample: 16
Bitrate: 832 kbps
Codec: Monkey's Audio
================================================================================



CD Info:

Paul Stephenson - These Days

Label: Stockfisch
Catalog#: SFR 357.6029.2
Format: CD, Album
Country: Germany
Released: 2004
Genre: Folk, Rock
Style: Singer/Songwriter, Folk Rock

Tracklist:

1 - These Days 4:00
2 - Engineering Frank 4:11
3 - Not Long Now 4:53
4 - Don`t Mind If You Do 3:40
5 - Captain Of The Loving Kind 3:46
6 - Ready To Rain 4:29
7 - The Making Of Zachary 4:28
8 - Millionaire 3:59
9 - Perfect Place 3:28
10 - Love You Not Love You True 2:39
11 - Big Meeting Day 3:53

Paul Stephenson - vocals, guitars
Chris Jones - guitar
Siard de Jong - violin, viola, mandolin, mandola
Anne Harer - violin
Martin Huch - pedal steel
Hrolfur Vagnsson - accordion
Hans-Jörg Maucksch - fretless bass
Christina Lux - backing vocals
Mike Silver - backing vocals
Thomas Klippel - Hammond B3
Christian Rien - trumpet, flugelhorn
Michael Kleinhans - tuba, backing vocals
Carsten Porath - tenor horn
Christian Archontidis - drums, percussion
Beo Brockhausen - saxophone, accordion, flute, percussion

Paul Stephenson - These Days [Stockfisch SFR 357.6029.2] (2004)


The singer-songwriter from Durham, England, now living in France, presents his second CD "These Days". All those who, two years ago, felt like struck by lightning by Stephenson’s first CD "Light Green Ball" will find again so many things which are easy to love – the Beatles, James Taylor, being head over heels in love on a glorious spring day.

How does the sensitive Englishman’s song-writing work? Stephenson takes stories he has lived through himself or has been told by others, and poeticizes his material into a finely woven texture so appealing that one feels like singing along with Paul on first listening to his songs.

As usual Stockfisch’s renowned musicians on this CD deliver the whole spectrum between the slightest sonic impressionism and the bold, dynamic brushstrokes of the artist-composer.

A true mark of genius is to be found in the last track with its joyful tune reminiscent of folk dances of old – then fading into the noise of fireworks. Even in the midst of summer you can feel the icy air of winter, typically full of fire, smoke and champagne to be drunk in a "wonderful world".

"Light Green Ball” was a poem, and this is also true of "These Days”. Like planning a journey into the unknown with the friends of one’s golden youth, perhaps a journey to one’s own self. Verse of a time full of promise, written of what was or what could have been. Maybe you will find your loved ones there too? In Paul Stephenson’s music the answer is a comforting "yes", beautiful like light itself, captured in the cut of a diamond: Heaven on Earth Today. elusivedisc.com

Thanks to fatchuang!
Paul Stephenson - These Days [Stockfisch SFR 357.6029.2] (2004)

// my Stockfisch uploads \\
// classical music \\
// all of my uploads \\
________________

Download:

Filepost
________________