Subcategories

Pete Rodriguez - Right On! Ahi Na' Ma! (1971) {Fania Records ‎463 950 6035-2 rel 2010}

Posted By: ruskaval
Pete Rodriguez - Right On! Ahi Na' Ma! (1971) {Fania Records ‎463 950 6035-2 rel 2010}

Pete Rodriguez - Right On! Ahi Na' Ma! (1971) {Fania Records ‎463 950 6035-2 rel 2010}
EAC rip (secure mode) | FLAC (tracks)+CUE+LOG -> 269 Mb | MP3 @320 -> 110 Mb
Full Artwork @ 300 dpi (jpg) -> 49 Mb | 5% repair rar
© 1971, 2010 Fania Records / Código Music ‎| 463 950 6035-2
Boogaloo / Latin / New York Salsa

Pete Rodriguez was part of a wave of Nuyoricans who came of age in the early '60s twilight of the mambo era. The boogaloo sound was just starting to bubble up in El Barrio (East Harlem) amongst this generation of Nuyorican bandleaders, and Rodriguez's group was on the very front line, alongside the Joe Cuba Sextet and Ricardo 'Richie' Ray. Pete had one of the great boogaloo bands of all time; he truly generated high-calibre energy on the dance floor.
Pete Rodriguez was a couple years removed from "Pete's Boogaloo" in 1971, when he recorded Right On! Ahi Na' Ma!, and the album found him readily embracing the freewheeling descargas and guaguancos of salsa. Although he had lost a couple members of his long-standing band (which had been active in Spanish Harlem since the early '60s), the replacements acquitted themselves well, and the group's vocalists – Alberto Gonzales along with his brothers Manny and Richie Rodriguez – formed just the anchor needed for a good salsa LP. "Aprende a Bailar" is a torrid opener, with excellent work from all quarters: Pete's piano, heavy-weight brass, and intricate percussion. There were no real crossovers to mainstream material here, as Pete had done in the past, no cover of "Here Comes the Judge" or something similar. Still, the band modernizes in different (and no less interesting) ways, pitting brass against electric guitar and bass in "Algun Dia" for an interesting effect.
Pete Rodriguez - Right On! Ahi Na' Ma! (1971) {Fania Records ‎463 950 6035-2 rel 2010}


Tracks
01 - Aprende a Bailar
02 - Algun Dia
03 - Canta Lo Sentimental-Asi Canta Corazon
04 - Bomba con Sabrosura
05 - Mi Guaguanco Te Llama
06 - Los Santos
07 - Parampanpan
08 - Aqui Estoy Yo

EAC extraction logfile from 24. April 2011, 17:17 for CD
Pete Rodriguez and His Orchestra / Right On!

Used drive : HP DVD Writer 1170d Adapter: 1 ID: 0
Read mode : Secure with NO C2, accurate stream, disable cache
Read offset correction : 6
Overread into Lead-In and Lead-Out : No

Used output format : C:\Program Files\FLAC\flac.exe (User Defined Encoder)
128 kBit/s
Additional command line options : -8 -V -T "ARTIST=%a" -T "TITLE=%t" -T "ALBUM=%g" -T "DATE=%y" -T "TRACKNUMBER=%n" -T "TOTALTRACKS=%x" -T "GENRE=%m" -T "ALBUM ARTIST=%v" -T "ALBUMARTIST=%v" -T "COMMENT=EAC V0.99 prebeta 4, Secure Mode,

Other options :
Fill up missing offset samples with silence : Yes
Delete leading and trailing silent blocks : No
Installed external ASPI interface


Track 1
Filename C:\Documents and Settings\Pete Rodriguez\01 - Aprende a Bailar.wav

Pre-gap length 0:00:02.00

Peak level 94.0 %
Track quality 100.0 %
Test CRC 62167B30
Copy CRC 62167B30
Copy OK

Track 2
Filename C:\Documents and Settings\Pete Rodriguez\02 - Algun Dia.wav

Peak level 92.6 %
Track quality 100.0 %
Test CRC 6E3A2854
Copy CRC 6E3A2854
Copy OK

Track 3
Filename C:\Documents and Settings\Pete Rodriguez\03 - Canta Lo Sentimental-Asi Canta Corazon.wav

Peak level 86.5 %
Track quality 100.0 %
Test CRC C98BB8AD
Copy CRC C98BB8AD
Copy OK

Track 4
Filename C:\Documents and Settings\Pete Rodriguez\04 - Bomba con Sabrosura.wav

Peak level 84.0 %
Track quality 100.0 %
Test CRC BC1FDF57
Copy CRC BC1FDF57
Copy OK

Track 5
Filename C:\Documents and Settings\Pete Rodriguez\05 - Mi Guaguanco Te Llama.wav

Peak level 77.9 %
Track quality 100.0 %
Test CRC 2FA57A71
Copy CRC 2FA57A71
Copy OK

Track 6
Filename C:\Documents and Settings\Pete Rodriguez\06 - Los Santos.wav

Peak level 81.6 %
Track quality 100.0 %
Test CRC 656A65BA
Copy CRC 656A65BA
Copy OK

Track 7
Filename C:\Documents and Settings\Pete Rodriguez\07 - Parampanpan.wav

Peak level 71.3 %
Track quality 100.0 %
Test CRC AB15A3C7
Copy CRC AB15A3C7
Copy OK

Track 8
Filename C:\Documents and Settings\Pete Rodriguez\08 - Aqui Estoy Yo.wav

Peak level 89.7 %
Track quality 100.0 %
Test CRC C12BFCA0
Copy CRC C12BFCA0
Copy OK

No errors occured


End of status report


Pete Rodriguez - Right On! Ahi Na' Ma! (1971) {Fania Records ‎463 950 6035-2 rel 2010}

Pete Rodriguez - Right On! Ahi Na' Ma! (1971) {Fania Records ‎463 950 6035-2 rel 2010}



===