Subcategories
Tags
Language
Tags

Phil Collins - Take a Look at Me Now... - The Complete Studio Collection (2017) {8CD Box Set Atlantic-Warner 0603497865192}

Posted By: ruskaval
Phil Collins - Take a Look at Me Now... - The Complete Studio Collection (2017) {8CD Box Set Atlantic-Warner 0603497865192}

Phil Collins - Take a Look at Me Now… - The Complete Studio Collection (2017) {8CD Box Set Atlantic-Warner 0603497865192}
XLD rip (secure mode) | FLAC (tracks)+CUE+LOG -> 2.92 Gb | MP3 @320 -> 1.00 Gb
Full Artwork @ 300 dpi (jpg) -> 29 Mb | 5% repair rar
© 2017 Atlantic / Warner / Phil Collins | 0603497865192
Rock / Adult Contemporary Pop / Contemporary Pop/Rock / Soft Rock

The Complete Studio Collection.

All eight studio albums from 1981’s ‘Face Value’ to 2010’s ‘Going Back’ in one Box Set for the first time on CD.

After an incredible comeback in 2016 that included a #2 charting compilation album, 300,000 catalogue sales, sold-out shows at the Royal Albert Hall and a headline slot at British Summer Time; Rhino looks to round out a hugely successful catalogue campaign with a new Complete Studio Collection the brings together all eight of Phil Collins’ albums for the first time.

The set includes all eight studio albums from 1981’s ‘Face Value’ to 2010’s ‘Going Back’ – five of which were UK #1. This CD slipcase box features mini gatefold wallets and the remastered music from last year’s re-issue campaign.
Phil Collins - Take a Look at Me Now... - The Complete Studio Collection (2017) {8CD Box Set Atlantic-Warner 0603497865192}


Track Listing:

Phil Collins - Take a Look at Me Now... - The Complete Studio Collection (2017) {8CD Box Set Atlantic-Warner 0603497865192}


CD1 - Face Value (2015 Remaster)

01 In The Air Tonight
02 This Must Be Love
03 Behind The Lines
04 The Roof Is Leaking
05 Droned
06 Hand In Hand
07 I Missed Again
08 You Know What I Mean
09 Thunder And Lightning
10 I'm Not Leaving
11 If Leaving Me Is Easy
12 Tomorrow Never Knows

Phil Collins - Take a Look at Me Now... - The Complete Studio Collection (2017) {8CD Box Set Atlantic-Warner 0603497865192}


CD2 - Hello, I must be going! (2015 Remaster)

01 I Don't Care Anymore
02 I Cannot Believe It's True
03 Like China
04 Do Your Know, Do You Care
05 You Can't Hurry Love
06 It Don't Matter To Me
07 Thru These Walls
08 Don't Let Him Steal Your Heart Away
09 The West Side
10 Why Can't It Wait Til Morning

Phil Collins - Take a Look at Me Now... - The Complete Studio Collection (2017) {8CD Box Set Atlantic-Warner 0603497865192}


CD3 - No Jacket Required (2016 Remaster)

01 Sussudio
02 Only You Know And I Know
03 Long Long Way To Go
04 I Don't Wanna Know
05 One More Night
06 Don't Lose My Number
07 Who Said I Would
08 Doesn't Anybody Stay Together Anymore
09 Inside Out
10 Take Me Home
11 We Said Hello Goodbye

Phil Collins - Take a Look at Me Now... - The Complete Studio Collection (2017) {8CD Box Set Atlantic-Warner 0603497865192}


CD4 - … But Seriously (2016 Remaster)

01 Hang in Long Enough
02 That's Just the Way It Is
03 Do You Remember?
04 Something Happened on the Way to Heaven
05 Colours
06 I Wish It Would Rain Down
07 Another Day in Paradise
08 Heat on the Street
09 All of My Life
10 Saturday Night and Sunday Morning
11 Father to Son
12 Find a Way to My Heart

Phil Collins - Take a Look at Me Now... - The Complete Studio Collection (2017) {8CD Box Set Atlantic-Warner 0603497865192}


CD5 - Both Sides (2015 Remaster)

01 Both Sides Of The Story
02 Can't Turn Back The Years
03 Everyday
04 I've Forgotten Everything
05 We're Sons Of Our Fathers
06 Can't Find My Way
07 Survivors
08 We Fly So Close
09 There's A Place For Us
10 We Wait And We Wonder
11 Please Come Out Tonight

Phil Collins - Take a Look at Me Now... - The Complete Studio Collection (2017) {8CD Box Set Atlantic-Warner 0603497865192}


CD6 - Dance Into the Light (2015 Remaster)

01 Dance Into The Light
02 That's What You Said
03 Lorenzo
04 Just Another Story
05 Love Police
06 Wear My Hat
07 It's In Your Eyes
08 Oughta Know By Now
09 Take Me Down
10 The Same Moon
11 River So Wide
12 No Matter Who
13 The Times They Are A-Changin'

Phil Collins - Take a Look at Me Now... - The Complete Studio Collection (2017) {8CD Box Set Atlantic-Warner 0603497865192}


CD7 - Testify (2016 Remaster)

01 Wake Up Call
02 Come with Me
03 Testify
04 Don't Get Me Started
05 Swing Low
06 It's Not Too Late
07 This Love This Heart
08 Driving Me Crazy
09 The Least You Can Do
10 Can't Stop Loving You
11 Thru My Eyes
12 You Touch My Heart

Phil Collins - Take a Look at Me Now... - The Complete Studio Collection (2017) {8CD Box Set Atlantic-Warner 0603497865192}


CD8 - Going Back (The Essential) (2016 Remaster)

01 Going Back
02 Girl (Why You Wanna Make Me Blue)
03 (Love Is Like a) Heatwave
04 Some of Your Lovin'
05 Going to a Go‐Go
06 Papa Was a Rolling Stone
07 Loving You Is Sweeter Than Ever
08 Something About You
09 Talkin' About My Baby
10 Do I Love You
11 Never Dreamed You'd Leave in Summer
12 Take Me in Your Arms (Rock Me for a Little While)
13 Too Many Fish in the Sea
14 Uptight (Everything's Alright)

X Lossless Decoder version 20170729 (150.3)

XLD extraction logfile from 2017-11-28 19:55:10 +0000

Phil Collins / Face Value

Used drive : HL-DT-ST DVDRW GS23N (revision SB11)
Media type : Pressed CD

Ripper mode : XLD Secure Ripper
Disable audio cache : OK for the drive with a cache less than 1375KiB
Make use of C2 pointers : NO
Read offset correction : 667
Max retry count : 100
Gap status : Analyzed, Appended (except HTOA)

TOC of the extracted CD
Track | Start | Length | Start sector | End sector
––––––––––––––––––––––––––––-
1 | 00:00:00 | 05:36:34 | 0 | 25233
2 | 05:36:34 | 03:56:25 | 25234 | 42958
3 | 09:32:59 | 03:55:59 | 42959 | 60642
4 | 13:28:43 | 03:16:44 | 60643 | 75386
5 | 16:45:12 | 02:49:47 | 75387 | 88108
6 | 19:34:59 | 05:22:45 | 88109 | 112303
7 | 24:57:29 | 03:46:17 | 112304 | 129270
8 | 28:43:46 | 02:33:08 | 129271 | 140753
9 | 31:16:54 | 04:13:63 | 140754 | 159791
10 | 35:30:42 | 02:35:28 | 159792 | 171444
11 | 38:05:70 | 04:55:21 | 171445 | 193590
12 | 43:01:16 | 04:52:12 | 193591 | 215502

List of alternate offset correction values
# | Absolute | Relative | Confidence
–––––––––––––––––––––
1 | 655 | -12 | 103

AccurateRip Summary (DiscID: 00159750-00c6b73b-ab0b390c)
Track 01 : OK (v2, confidence 33/136)
Track 02 : OK (v2, confidence 32/135)
Track 03 : OK (v2, confidence 32/135)
Track 04 : OK (v2, confidence 32/135)
Track 05 : OK (v2, confidence 32/135)
Track 06 : OK (v2, confidence 32/135)
Track 07 : OK (v2, confidence 33/136)
Track 08 : OK (v2, confidence 32/135)
Track 09 : OK (v2, confidence 32/135)
Track 10 : OK (v2, confidence 32/135)
Track 11 : OK (v2, confidence 32/135)
Track 12 : OK (v2, confidence 32/135)
->All tracks accurately ripped.

All Tracks
Album gain : -6.13 dB
Peak : 0.989380
Statistics
Read error : 0
Jitter error (maybe fixed) : 0
Retry sector count : 0
Damaged sector count : 0

Track 01
Filename : /Volumes/rip/Phil Collins/Take a Look at Me Now… Boxset/CD1 - Face Value/01 - In The Air Tonight.flac
Pre-gap length : 00:02:00

Track gain : -5.23 dB
Peak : 0.989380
CRC32 hash (test run) : D995DE57
CRC32 hash : D995DE57
CRC32 hash (skip zero) : B29E1DC1
AccurateRip v1 signature : 96579AFE
AccurateRip v2 signature : B79A6024
->Accurately ripped (v2, confidence 33/136)
Statistics
Read error : 0
Jitter error (maybe fixed) : 0
Retry sector count : 0
Damaged sector count : 0

Track 02
Filename : /Volumes/rip/Phil Collins/Take a Look at Me Now… Boxset/CD1 - Face Value/02 - This Must Be Love.flac

Track gain : -3.52 dB
Peak : 0.989288
CRC32 hash (test run) : D9993F7D
CRC32 hash : D9993F7D
CRC32 hash (skip zero) : E64A3047
AccurateRip v1 signature : F675629F
AccurateRip v2 signature : 45FE7476
->Accurately ripped (v2, confidence 32/135)
Statistics
Read error : 0
Jitter error (maybe fixed) : 0
Retry sector count : 0
Damaged sector count : 0

Track 03
Filename : /Volumes/rip/Phil Collins/Take a Look at Me Now… Boxset/CD1 - Face Value/03 - Behind The Lines.flac

Track gain : -5.76 dB
Peak : 0.963867
CRC32 hash (test run) : 195DC77E
CRC32 hash : 195DC77E
CRC32 hash (skip zero) : 0F65052C
AccurateRip v1 signature : 72F1FA52
AccurateRip v2 signature : 6D0BB1E1
->Accurately ripped (v2, confidence 32/135)
Statistics
Read error : 0
Jitter error (maybe fixed) : 0
Retry sector count : 0
Damaged sector count : 0

Track 04
Filename : /Volumes/rip/Phil Collins/Take a Look at Me Now… Boxset/CD1 - Face Value/04 - The Roof Is Leaking.flac

Track gain : -4.34 dB
Peak : 0.936951
CRC32 hash (test run) : AA240301
CRC32 hash : AA240301
CRC32 hash (skip zero) : A5C8FABC
AccurateRip v1 signature : 71B198A8
AccurateRip v2 signature : C147A511
->Accurately ripped (v2, confidence 32/135)
Statistics
Read error : 0
Jitter error (maybe fixed) : 0
Retry sector count : 0
Damaged sector count : 0

Track 05
Filename : /Volumes/rip/Phil Collins/Take a Look at Me Now… Boxset/CD1 - Face Value/05 - Droned.flac

Track gain : -4.54 dB
Peak : 0.953827
CRC32 hash (test run) : 117C49A9
CRC32 hash : 117C49A9
CRC32 hash (skip zero) : AD635F51
AccurateRip v1 signature : 81D092E4
AccurateRip v2 signature : 079EC897
->Accurately ripped (v2, confidence 32/135)
Statistics
Read error : 0
Jitter error (maybe fixed) : 0
Retry sector count : 0
Damaged sector count : 0

Track 06
Filename : /Volumes/rip/Phil Collins/Take a Look at Me Now… Boxset/CD1 - Face Value/06 - Hand In Hand.flac

Track gain : -6.51 dB
Peak : 0.973022
CRC32 hash (test run) : F6BE7A7C
CRC32 hash : F6BE7A7C
CRC32 hash (skip zero) : B9228267
AccurateRip v1 signature : 3C5943E8
AccurateRip v2 signature : EDC9740D
->Accurately ripped (v2, confidence 32/135)
Statistics
Read error : 0
Jitter error (maybe fixed) : 0
Retry sector count : 0
Damaged sector count : 0

Track 07
Filename : /Volumes/rip/Phil Collins/Take a Look at Me Now… Boxset/CD1 - Face Value/07 - I Missed Again.flac

Track gain : -6.32 dB
Peak : 0.957458
CRC32 hash (test run) : 4832489E
CRC32 hash : 4832489E
CRC32 hash (skip zero) : F3B5FF1D
AccurateRip v1 signature : 9704694F
AccurateRip v2 signature : 9B49F2ED
->Accurately ripped (v2, confidence 33/136)
Statistics
Read error : 0
Jitter error (maybe fixed) : 0
Retry sector count : 0
Damaged sector count : 0

Track 08
Filename : /Volumes/rip/Phil Collins/Take a Look at Me Now… Boxset/CD1 - Face Value/08 - You Know What I Mean.flac

Track gain : -4.75 dB
Peak : 0.937347
CRC32 hash (test run) : 009ACFF3
CRC32 hash : 009ACFF3
CRC32 hash (skip zero) : D8EBADD2
AccurateRip v1 signature : B52BBDA1
AccurateRip v2 signature : B8FFABA8
->Accurately ripped (v2, confidence 32/135)
Statistics
Read error : 0
Jitter error (maybe fixed) : 0
Retry sector count : 0
Damaged sector count : 0

Track 09
Filename : /Volumes/rip/Phil Collins/Take a Look at Me Now… Boxset/CD1 - Face Value/09 - Thunder And Lightning.flac

Track gain : -6.46 dB
Peak : 0.983765
CRC32 hash (test run) : B23F2B7D
CRC32 hash : B23F2B7D
CRC32 hash (skip zero) : 99D769EC
AccurateRip v1 signature : C9F1FB4E
AccurateRip v2 signature : 8F435893
->Accurately ripped (v2, confidence 32/135)
Statistics
Read error : 0
Jitter error (maybe fixed) : 0
Retry sector count : 0
Damaged sector count : 0

Track 10
Filename : /Volumes/rip/Phil Collins/Take a Look at Me Now… Boxset/CD1 - Face Value/10 - I'm Not Leaving.flac

Track gain : -6.43 dB
Peak : 0.982330
CRC32 hash (test run) : 62374CB5
CRC32 hash : 62374CB5
CRC32 hash (skip zero) : C73D16F4
AccurateRip v1 signature : 7BF93795
AccurateRip v2 signature : BBA0643F
->Accurately ripped (v2, confidence 32/135)
Statistics
Read error : 0
Jitter error (maybe fixed) : 0
Retry sector count : 0
Damaged sector count : 0

Track 11
Filename : /Volumes/rip/Phil Collins/Take a Look at Me Now… Boxset/CD1 - Face Value/11 - If Leaving Me Is Easy.flac

Track gain : -0.49 dB
Peak : 0.948425
CRC32 hash (test run) : AFA56421
CRC32 hash : AFA56421
CRC32 hash (skip zero) : E151BA2F
AccurateRip v1 signature : 637FEBF0
AccurateRip v2 signature : C9983C66
->Accurately ripped (v2, confidence 32/135)
Statistics
Read error : 0
Jitter error (maybe fixed) : 0
Retry sector count : 0
Damaged sector count : 0

Track 12
Filename : /Volumes/rip/Phil Collins/Take a Look at Me Now… Boxset/CD1 - Face Value/12 - Tomorrow Never Knows.flac

Track gain : -7.74 dB
Peak : 0.960876
CRC32 hash (test run) : AAE6F17C
CRC32 hash : AAE6F17C
CRC32 hash (skip zero) : 3C31B545
AccurateRip v1 signature : DBE53DEF
AccurateRip v2 signature : C5C5D8E0
->Accurately ripped (v2, confidence 32/135)
Statistics
Read error : 0
Jitter error (maybe fixed) : 0
Retry sector count : 0
Damaged sector count : 0

No errors occurred

End of status report

––-BEGIN XLD SIGNATURE––-
rYx93Zd.i6qximhv9y8KjpOE40P62uyivcj7xnaGwiGq5iWxeiw2pU9tMILW.C0UBF0FHCR7wE.mO61gn2JdZ0XbDxSax.MP2FCp7yS
––-END XLD SIGNATURE––-


X Lossless Decoder version 20170729 (150.3)

XLD extraction logfile from 2017-11-28 20:28:11 +0000

Phil Collins / Hello, I Must Be Going

Used drive : HL-DT-ST DVDRW GS23N (revision SB11)
Media type : Pressed CD

Ripper mode : XLD Secure Ripper
Disable audio cache : OK for the drive with a cache less than 1375KiB
Make use of C2 pointers : NO
Read offset correction : 667
Max retry count : 100
Gap status : Analyzed, Appended (except HTOA)

TOC of the extracted CD
Track | Start | Length | Start sector | End sector
––––––––––––––––––––––––––––-
1 | 00:00:00 | 05:05:53 | 0 | 22927
2 | 05:05:53 | 05:16:32 | 22928 | 46659
3 | 10:22:10 | 05:08:52 | 46660 | 69811
4 | 15:30:62 | 04:58:16 | 69812 | 92177
5 | 20:29:03 | 02:55:56 | 92178 | 105358
6 | 23:24:59 | 04:17:24 | 105359 | 124657
7 | 27:42:08 | 05:05:03 | 124658 | 147535
8 | 32:47:11 | 04:44:73 | 147536 | 168908
9 | 37:32:09 | 05:02:19 | 168909 | 191577
10 | 42:34:28 | 03:11:68 | 191578 | 205970

List of alternate offset correction values
# | Absolute | Relative | Confidence
–––––––––––––––––––––
1 | 679 | 12 | 23

AccurateRip Summary (DiscID: 0011f025-008e1999-810aba0a)
Track 01 : OK (v2, confidence 44/67)
Track 02 : OK (v2, confidence 44/67)
Track 03 : OK (v2, confidence 44/67)
Track 04 : OK (v2, confidence 44/67)
Track 05 : OK (v2, confidence 44/67)
Track 06 : OK (v2, confidence 44/67)
Track 07 : OK (v2, confidence 44/67)
Track 08 : OK (v2, confidence 44/67)
Track 09 : OK (v2, confidence 44/67)
Track 10 : OK (v2, confidence 44/67)
->All tracks accurately ripped.

All Tracks
Album gain : -7.67 dB
Peak : 0.989716
Statistics
Read error : 0
Jitter error (maybe fixed) : 0
Retry sector count : 0
Damaged sector count : 0

Track 01
Filename : /Volumes/rip/Phil Collins/Take a Look at Me Now… Boxset/CD2 - Hello, I Must be Going/01 - I Don't Care Anymore.flac
Pre-gap length : 00:02:00

Track gain : -7.30 dB
Peak : 0.970306
CRC32 hash (test run) : 661ECEFA
CRC32 hash : 661ECEFA
CRC32 hash (skip zero) : 0F4B6635
AccurateRip v1 signature : 68E9CCBF
AccurateRip v2 signature : C23A5D3F
->Accurately ripped (v2, confidence 44/67)
Statistics
Read error : 0
Jitter error (maybe fixed) : 0
Retry sector count : 0
Damaged sector count : 0

Track 02
Filename : /Volumes/rip/Phil Collins/Take a Look at Me Now… Boxset/CD2 - Hello, I Must be Going/02 - I Cannot Believe It's True.flac

Track gain : -7.85 dB
Peak : 0.989716
CRC32 hash (test run) : 446F9A09
CRC32 hash : 446F9A09
CRC32 hash (skip zero) : CBCBB75E
AccurateRip v1 signature : 87A79C7D
AccurateRip v2 signature : 51812E72
->Accurately ripped (v2, confidence 44/67)
Statistics
Read error : 0
Jitter error (maybe fixed) : 0
Retry sector count : 0
Damaged sector count : 0

Track 03
Filename : /Volumes/rip/Phil Collins/Take a Look at Me Now… Boxset/CD2 - Hello, I Must be Going/03 - Like China.flac

Track gain : -7.55 dB
Peak : 0.952759
CRC32 hash (test run) : 693294B4
CRC32 hash : 693294B4
CRC32 hash (skip zero) : B200B7AE
AccurateRip v1 signature : D29A4FFD
AccurateRip v2 signature : 8CE61131
->Accurately ripped (v2, confidence 44/67)
Statistics
Read error : 0
Jitter error (maybe fixed) : 0
Retry sector count : 0
Damaged sector count : 0

Track 04
Filename : /Volumes/rip/Phil Collins/Take a Look at Me Now… Boxset/CD2 - Hello, I Must be Going/04 - Do Your Know, Do You Care.flac

Track gain : -7.12 dB
Peak : 0.945007
CRC32 hash (test run) : 6EE202AE
CRC32 hash : 6EE202AE
CRC32 hash (skip zero) : CB356ED6
AccurateRip v1 signature : 960453E0
AccurateRip v2 signature : 99BAFF1F
->Accurately ripped (v2, confidence 44/67)
Statistics
Read error : 0
Jitter error (maybe fixed) : 0
Retry sector count : 0
Damaged sector count : 0

Track 05
Filename : /Volumes/rip/Phil Collins/Take a Look at Me Now… Boxset/CD2 - Hello, I Must be Going/05 - You Can't Hurry Love.flac

Track gain : -8.80 dB
Peak : 0.989716
CRC32 hash (test run) : 61E23CBE
CRC32 hash : 61E23CBE
CRC32 hash (skip zero) : AC86DAB7
AccurateRip v1 signature : FED2EB8D
AccurateRip v2 signature : AA925AD1
->Accurately ripped (v2, confidence 44/67)
Statistics
Read error : 0
Jitter error (maybe fixed) : 0
Retry sector count : 0
Damaged sector count : 0

Track 06
Filename : /Volumes/rip/Phil Collins/Take a Look at Me Now… Boxset/CD2 - Hello, I Must be Going/06 - It Don't Matter To Me.flac

Track gain : -8.95 dB
Peak : 0.989716
CRC32 hash (test run) : BD4A463A
CRC32 hash : BD4A463A
CRC32 hash (skip zero) : A5BDB98E
AccurateRip v1 signature : 1C165E75
AccurateRip v2 signature : 375657D9
->Accurately ripped (v2, confidence 44/67)
Statistics
Read error : 0
Jitter error (maybe fixed) : 0
Retry sector count : 0
Damaged sector count : 0

Track 07
Filename : /Volumes/rip/Phil Collins/Take a Look at Me Now… Boxset/CD2 - Hello, I Must be Going/07 - Thru These Walls.flac

Track gain : -5.45 dB
Peak : 0.979645
CRC32 hash (test run) : EA6D3CD9
CRC32 hash : EA6D3CD9
CRC32 hash (skip zero) : 51E80007
AccurateRip v1 signature : E2030402
AccurateRip v2 signature : B7084799
->Accurately ripped (v2, confidence 44/67)
Statistics
Read error : 0
Jitter error (maybe fixed) : 0
Retry sector count : 0
Damaged sector count : 0

Track 08
Filename : /Volumes/rip/Phil Collins/Take a Look at Me Now… Boxset/CD2 - Hello, I Must be Going/08 - Don't Let Him Steal Your Heart Away.flac

Track gain : -7.73 dB
Peak : 0.989716
CRC32 hash (test run) : B55E6932
CRC32 hash : B55E6932
CRC32 hash (skip zero) : 64EF1AEE
AccurateRip v1 signature : 8F248174
AccurateRip v2 signature : 605072DF
->Accurately ripped (v2, confidence 44/67)
Statistics
Read error : 0
Jitter error (maybe fixed) : 0
Retry sector count : 0
Damaged sector count : 0

Track 09
Filename : /Volumes/rip/Phil Collins/Take a Look at Me Now… Boxset/CD2 - Hello, I Must be Going/09 - The West Side.flac

Track gain : -5.93 dB
Peak : 0.968262
CRC32 hash (test run) : 45CAEE0F
CRC32 hash : 45CAEE0F
CRC32 hash (skip zero) : C0780F24
AccurateRip v1 signature : 4AFB23D7
AccurateRip v2 signature : 1C0131C4
->Accurately ripped (v2, confidence 44/67)
Statistics
Read error : 0
Jitter error (maybe fixed) : 0
Retry sector count : 0
Damaged sector count : 0

Track 10
Filename : /Volumes/rip/Phil Collins/Take a Look at Me Now… Boxset/CD2 - Hello, I Must be Going/10 - Why Can't It Wait Til Morning.flac

Track gain : -6.02 dB
Peak : 0.937653
CRC32 hash (test run) : E8FCE27E
CRC32 hash : E8FCE27E
CRC32 hash (skip zero) : BB20A801
AccurateRip v1 signature : 7ECAC350
AccurateRip v2 signature : 53EF7AD6
->Accurately ripped (v2, confidence 44/67)
Statistics
Read error : 0
Jitter error (maybe fixed) : 0
Retry sector count : 0
Damaged sector count : 0

No errors occurred

End of status report

––-BEGIN XLD SIGNATURE––-
CidG2ik9Ih9VyrhbuCoYWDLqiY8mpMBBgtUBsNEDaQPTT_ayu32kVFRL4Qr37hno7gdZ5P83PE2jkAjFOSmmvWJ2EjdqVpEUljRKIJe
––-END XLD SIGNATURE––-


X Lossless Decoder version 20170729 (150.3)

XLD extraction logfile from 2017-11-28 21:07:00 +0000

Phil Collins / No Jacket Required

Used drive : HL-DT-ST DVDRW GS23N (revision SB11)
Media type : Pressed CD

Ripper mode : XLD Secure Ripper
Disable audio cache : OK for the drive with a cache less than 1375KiB
Make use of C2 pointers : NO
Read offset correction : 667
Max retry count : 100
Gap status : Analyzed, Appended (except HTOA)

TOC of the extracted CD
Track | Start | Length | Start sector | End sector
––––––––––––––––––––––––––––-
1 | 00:00:00 | 04:24:10 | 0 | 19809
2 | 04:24:10 | 04:21:34 | 19810 | 39418
3 | 08:45:44 | 04:22:65 | 39419 | 59133
4 | 13:08:34 | 04:15:05 | 59134 | 78263
5 | 17:23:39 | 04:51:19 | 78264 | 100107
6 | 22:14:58 | 04:48:68 | 100108 | 121775
7 | 27:03:51 | 04:01:44 | 121776 | 139894
8 | 31:05:20 | 04:18:45 | 139895 | 159289
9 | 35:23:65 | 05:15:67 | 159290 | 182981
10 | 40:39:57 | 05:51:29 | 182982 | 209335
11 | 46:31:11 | 04:21:19 | 209336 | 228929

List of alternate offset correction values
# | Absolute | Relative | Confidence
–––––––––––––––––––––
1 | 655 | -12 | 40

AccurateRip Summary (DiscID: 00146e40-00b216dc-930bec0b)
Track 01 : OK (v2, confidence 29/69)
Track 02 : OK (v2, confidence 29/69)
Track 03 : OK (v2, confidence 29/69)
Track 04 : OK (v2, confidence 29/69)
Track 05 : OK (v2, confidence 29/69)
Track 06 : OK (v2, confidence 29/69)
Track 07 : OK (v2, confidence 29/69)
Track 08 : OK (v2, confidence 29/69)
Track 09 : OK (v2, confidence 29/69)
Track 10 : OK (v2, confidence 29/69)
Track 11 : OK (v2, confidence 29/69)
->All tracks accurately ripped.

All Tracks
Album gain : -9.30 dB
Peak : 0.989716
Statistics
Read error : 0
Jitter error (maybe fixed) : 0
Retry sector count : 0
Damaged sector count : 0

Track 01
Filename : /Volumes/rip/Phil Collins/Take a Look at Me Now… Boxset/CD3 - No Jacket Required/01 - Sussudio.flac
Pre-gap length : 00:02:00

Track gain : -9.02 dB
Peak : 0.989716
CRC32 hash (test run) : BF14FFC0
CRC32 hash : BF14FFC0
CRC32 hash (skip zero) : 7F8732EB
AccurateRip v1 signature : DCF433FF
AccurateRip v2 signature : E432A0F9
->Accurately ripped (v2, confidence 29/69)
Statistics
Read error : 0
Jitter error (maybe fixed) : 0
Retry sector count : 0
Damaged sector count : 0

Track 02
Filename : /Volumes/rip/Phil Collins/Take a Look at Me Now… Boxset/CD3 - No Jacket Required/02 - Only You Know And I Know.flac

Track gain : -10.20 dB
Peak : 0.969788
CRC32 hash (test run) : 26775D00
CRC32 hash : 26775D00
CRC32 hash (skip zero) : 34DC2E2F
AccurateRip v1 signature : 08E311FE
AccurateRip v2 signature : 3A7BB066
->Accurately ripped (v2, confidence 29/69)
Statistics
Read error : 0
Jitter error (maybe fixed) : 0
Retry sector count : 0
Damaged sector count : 0

Track 03
Filename : /Volumes/rip/Phil Collins/Take a Look at Me Now… Boxset/CD3 - No Jacket Required/03 - Long Long Way To Go.flac

Track gain : -4.84 dB
Peak : 0.937073
CRC32 hash (test run) : 9838E38D
CRC32 hash : 9838E38D
CRC32 hash (skip zero) : 6A274530
AccurateRip v1 signature : 6A5301EE
AccurateRip v2 signature : 095C1853
->Accurately ripped (v2, confidence 29/69)
Statistics
Read error : 0
Jitter error (maybe fixed) : 0
Retry sector count : 0
Damaged sector count : 0

Track 04
Filename : /Volumes/rip/Phil Collins/Take a Look at Me Now… Boxset/CD3 - No Jacket Required/04 - I Don't Wanna Know.flac

Track gain : -10.33 dB
Peak : 0.968231
CRC32 hash (test run) : A64B238E
CRC32 hash : A64B238E
CRC32 hash (skip zero) : CA7BD148
AccurateRip v1 signature : 1D3D5794
AccurateRip v2 signature : 82F4F420
->Accurately ripped (v2, confidence 29/69)
Statistics
Read error : 0
Jitter error (maybe fixed) : 0
Retry sector count : 0
Damaged sector count : 0

Track 05
Filename : /Volumes/rip/Phil Collins/Take a Look at Me Now… Boxset/CD3 - No Jacket Required/05 - One More Night.flac

Track gain : -5.56 dB
Peak : 0.957001
CRC32 hash (test run) : 276F73B4
CRC32 hash : 276F73B4
CRC32 hash (skip zero) : 95E4AB08
AccurateRip v1 signature : DCDB5DD4
AccurateRip v2 signature : 9737EB8B
->Accurately ripped (v2, confidence 29/69)
Statistics
Read error : 0
Jitter error (maybe fixed) : 0
Retry sector count : 0
Damaged sector count : 0

Track 06
Filename : /Volumes/rip/Phil Collins/Take a Look at Me Now… Boxset/CD3 - No Jacket Required/06 - Don't Lose My Number.flac

Track gain : -9.45 dB
Peak : 0.958008
CRC32 hash (test run) : D540CCBE
CRC32 hash : D540CCBE
CRC32 hash (skip zero) : DD945F78
AccurateRip v1 signature : C31C362F
AccurateRip v2 signature : 31A4F088
->Accurately ripped (v2, confidence 29/69)
Statistics
Read error : 0
Jitter error (maybe fixed) : 0
Retry sector count : 0
Damaged sector count : 0

Track 07
Filename : /Volumes/rip/Phil Collins/Take a Look at Me Now… Boxset/CD3 - No Jacket Required/07 - Who Said I Would.flac

Track gain : -9.84 dB
Peak : 0.985260
CRC32 hash (test run) : 3B893F74
CRC32 hash : 3B893F74
CRC32 hash (skip zero) : EF345F9E
AccurateRip v1 signature : 7B50ACE4
AccurateRip v2 signature : A8575871
->Accurately ripped (v2, confidence 29/69)
Statistics
Read error : 0
Jitter error (maybe fixed) : 0
Retry sector count : 0
Damaged sector count : 0

Track 08
Filename : /Volumes/rip/Phil Collins/Take a Look at Me Now… Boxset/CD3 - No Jacket Required/08 - Doesn't Anybody Stay Together Anymore.flac

Track gain : -7.34 dB
Peak : 0.956757
CRC32 hash (test run) : 2F9D4647
CRC32 hash : 2F9D4647
CRC32 hash (skip zero) : A0468A50
AccurateRip v1 signature : 65A45FC6
AccurateRip v2 signature : 63CFFF00
->Accurately ripped (v2, confidence 29/69)
Statistics
Read error : 0
Jitter error (maybe fixed) : 0
Retry sector count : 0
Damaged sector count : 0

Track 09
Filename : /Volumes/rip/Phil Collins/Take a Look at Me Now… Boxset/CD3 - No Jacket Required/09 - Inside Out.flac

Track gain : -9.43 dB
Peak : 0.960388
CRC32 hash (test run) : B101F12E
CRC32 hash : B101F12E
CRC32 hash (skip zero) : 26D60FF0
AccurateRip v1 signature : 57415C83
AccurateRip v2 signature : 4CD9AF27
->Accurately ripped (v2, confidence 29/69)
Statistics
Read error : 0
Jitter error (maybe fixed) : 0
Retry sector count : 0
Damaged sector count : 0

Track 10
Filename : /Volumes/rip/Phil Collins/Take a Look at Me Now… Boxset/CD3 - No Jacket Required/10 - Take Me Home.flac

Track gain : -7.97 dB
Peak : 0.957245
CRC32 hash (test run) : F0FB5F74
CRC32 hash : F0FB5F74
CRC32 hash (skip zero) : 98AEDBF2
AccurateRip v1 signature : 09DA018A
AccurateRip v2 signature : EA6DEF29
->Accurately ripped (v2, confidence 29/69)
Statistics
Read error : 0
Jitter error (maybe fixed) : 0
Retry sector count : 0
Damaged sector count : 0

Track 11
Filename : /Volumes/rip/Phil Collins/Take a Look at Me Now… Boxset/CD3 - No Jacket Required/11 - We Said Hello Goodbye.flac

Track gain : -6.88 dB
Peak : 0.979919
CRC32 hash (test run) : 0ADD3676
CRC32 hash : 0ADD3676
CRC32 hash (skip zero) : 667961EB
AccurateRip v1 signature : 1CDFF2CF
AccurateRip v2 signature : 5212AE13
->Accurately ripped (v2, confidence 29/69)
Statistics
Read error : 0
Jitter error (maybe fixed) : 0
Retry sector count : 0
Damaged sector count : 0

No errors occurred

End of status report

––-BEGIN XLD SIGNATURE––-
Cvk0DvLHVVCqIRAROK_uEWZ9r6QZRtOUSIXFZFsNq2dswFnyn.kQOQgsP4sh6kM5HqWXnc_QylUhRSaXRlZ66LbrkdTSAorXy_xrMHC
––-END XLD SIGNATURE––-


X Lossless Decoder version 20170729 (150.3)

XLD extraction logfile from 2017-11-28 21:39:05 +0000

Phil Collins / …But Seriously

Used drive : HL-DT-ST DVDRW GS23N (revision SB11)
Media type : Pressed CD

Ripper mode : XLD Secure Ripper
Disable audio cache : OK for the drive with a cache less than 1375KiB
Make use of C2 pointers : NO
Read offset correction : 667
Max retry count : 100
Gap status : Analyzed, Appended (except HTOA)

TOC of the extracted CD
Track | Start | Length | Start sector | End sector
––––––––––––––––––––––––––––-
1 | 00:00:00 | 04:45:00 | 0 | 21374
2 | 04:45:00 | 05:20:22 | 21375 | 45396
3 | 10:05:22 | 04:36:00 | 45397 | 66096
4 | 14:41:22 | 04:51:44 | 66097 | 87965
5 | 19:32:66 | 08:51:07 | 87966 | 127797
6 | 28:23:73 | 05:27:56 | 127798 | 152378
7 | 33:51:54 | 05:22:10 | 152379 | 176538
8 | 39:13:64 | 03:51:47 | 176539 | 193910
9 | 43:05:36 | 05:35:37 | 193911 | 219072
10 | 48:40:73 | 01:25:63 | 219073 | 225510
11 | 50:06:61 | 03:27:72 | 225511 | 241107
12 | 53:34:58 | 06:14:51 | 241108 | 269208

List of alternate offset correction values
# | Absolute | Relative | Confidence
–––––––––––––––––––––
1 | 655 | -12 | 37

AccurateRip Summary (DiscID: 001bde3b-010275ec-a00e050c)
Track 01 : OK (v2, confidence 18/54)
Track 02 : OK (v2, confidence 18/55)
Track 03 : OK (v2, confidence 18/55)
Track 04 : OK (v2, confidence 17/54)
Track 05 : OK (v2, confidence 18/55)
Track 06 : OK (v2, confidence 18/54)
Track 07 : OK (v2, confidence 18/55)
Track 08 : OK (v2, confidence 18/55)
Track 09 : OK (v2, confidence 18/55)
Track 10 : OK (v2, confidence 18/55)
Track 11 : OK (v2, confidence 18/55)
Track 12 : OK (v2, confidence 18/55)
->All tracks accurately ripped.

All Tracks
Album gain : -8.51 dB
Peak : 0.956146
Statistics
Read error : 0
Jitter error (maybe fixed) : 0
Retry sector count : 0
Damaged sector count : 0

Track 01
Filename : /Volumes/rip/Phil Collins/Take a Look at Me Now… Boxset/CD4 - …But Seriously/01 - Hang in Long Enough.flac
Pre-gap length : 00:02:00

Track gain : -8.50 dB
Peak : 0.938324
CRC32 hash (test run) : FA961BA4
CRC32 hash : FA961BA4
CRC32 hash (skip zero) : 3371EED4
AccurateRip v1 signature : 2D1ACB70
AccurateRip v2 signature : FA9B735D
->Accurately ripped (v2, confidence 18/54)
Statistics
Read error : 0
Jitter error (maybe fixed) : 0
Retry sector count : 0
Damaged sector count : 0

Track 02
Filename : /Volumes/rip/Phil Collins/Take a Look at Me Now… Boxset/CD4 - …But Seriously/02 - That's Just the Way It Is.flac

Track gain : -2.66 dB
Peak : 0.907043
CRC32 hash (test run) : 192B2CF9
CRC32 hash : 192B2CF9
CRC32 hash (skip zero) : A7D3A581
AccurateRip v1 signature : DCC1659F
AccurateRip v2 signature : B2E28363
->Accurately ripped (v2, confidence 18/55)
Statistics
Read error : 0
Jitter error (maybe fixed) : 0
Retry sector count : 0
Damaged sector count : 0

Track 03
Filename : /Volumes/rip/Phil Collins/Take a Look at Me Now… Boxset/CD4 - …But Seriously/03 - Do You Remember_.flac

Track gain : -5.94 dB
Peak : 0.932678
CRC32 hash (test run) : D6EDA5D3
CRC32 hash : D6EDA5D3
CRC32 hash (skip zero) : E7A10E28
AccurateRip v1 signature : 31D2CBD9
AccurateRip v2 signature : 1D428BD6
->Accurately ripped (v2, confidence 18/55)
Statistics
Read error : 0
Jitter error (maybe fixed) : 0
Retry sector count : 0
Damaged sector count : 0

Track 04
Filename : /Volumes/rip/Phil Collins/Take a Look at Me Now… Boxset/CD4 - …But Seriously/04 - Something Happened on the Way to Heaven.flac

Track gain : -9.70 dB
Peak : 0.956116
CRC32 hash (test run) : 0E2C2E4C
CRC32 hash : 0E2C2E4C
CRC32 hash (skip zero) : C126E590
AccurateRip v1 signature : 134B734A
AccurateRip v2 signature : 751CA0FD
->Accurately ripped (v2, confidence 17/54)
Statistics
Read error : 0
Jitter error (maybe fixed) : 0
Retry sector count : 0
Damaged sector count : 0

Track 05
Filename : /Volumes/rip/Phil Collins/Take a Look at Me Now… Boxset/CD4 - …But Seriously/05 - Colours.flac

Track gain : -8.27 dB
Peak : 0.936951
CRC32 hash (test run) : D79207BA
CRC32 hash : D79207BA
CRC32 hash (skip zero) : E66A2922
AccurateRip v1 signature : B6977FD3
AccurateRip v2 signature : 21F53A62
->Accurately ripped (v2, confidence 18/55)
Statistics
Read error : 0
Jitter error (maybe fixed) : 0
Retry sector count : 0
Damaged sector count : 0

Track 06
Filename : /Volumes/rip/Phil Collins/Take a Look at Me Now… Boxset/CD4 - …But Seriously/06 - I Wish It Would Rain Down.flac

Track gain : -9.73 dB
Peak : 0.956055
CRC32 hash (test run) : 3DDC1683
CRC32 hash : 3DDC1683
CRC32 hash (skip zero) : 540D4BA4
AccurateRip v1 signature : 174953B4
AccurateRip v2 signature : 5D785453
->Accurately ripped (v2, confidence 18/54)
Statistics
Read error : 0
Jitter error (maybe fixed) : 0
Retry sector count : 0
Damaged sector count : 0

Track 07
Filename : /Volumes/rip/Phil Collins/Take a Look at Me Now… Boxset/CD4 - …But Seriously/07 - Another Day in Paradise.flac

Track gain : -7.60 dB
Peak : 0.946594
CRC32 hash (test run) : C3173329
CRC32 hash : C3173329
CRC32 hash (skip zero) : DC67E982
AccurateRip v1 signature : D214E1A4
AccurateRip v2 signature : D84B79D2
->Accurately ripped (v2, confidence 18/55)
Statistics
Read error : 0
Jitter error (maybe fixed) : 0
Retry sector count : 0
Damaged sector count : 0

Track 08
Filename : /Volumes/rip/Phil Collins/Take a Look at Me Now… Boxset/CD4 - …But Seriously/08 - Heat on the Street.flac

Track gain : -8.71 dB
Peak : 0.956116
CRC32 hash (test run) : E0BAD6CE
CRC32 hash : E0BAD6CE
CRC32 hash (skip zero) : FFE25F79
AccurateRip v1 signature : 80461C94
AccurateRip v2 signature : 15F0B7AE
->Accurately ripped (v2, confidence 18/55)
Statistics
Read error : 0
Jitter error (maybe fixed) : 0
Retry sector count : 0
Damaged sector count : 0

Track 09
Filename : /Volumes/rip/Phil Collins/Take a Look at Me Now… Boxset/CD4 - …But Seriously/09 - All of My Life.flac

Track gain : -6.89 dB
Peak : 0.956116
CRC32 hash (test run) : DDBFABA0
CRC32 hash : DDBFABA0
CRC32 hash (skip zero) : 27FE0C63
AccurateRip v1 signature : 9C39F7FE
AccurateRip v2 signature : BBA83065
->Accurately ripped (v2, confidence 18/55)
Statistics
Read error : 0
Jitter error (maybe fixed) : 0
Retry sector count : 0
Damaged sector count : 0

Track 10
Filename : /Volumes/rip/Phil Collins/Take a Look at Me Now… Boxset/CD4 - …But Seriously/10 - Saturday Night and Sunday Morning.flac

Track gain : -7.95 dB
Peak : 0.956146
CRC32 hash (test run) : 0252EABB
CRC32 hash : 0252EABB
CRC32 hash (skip zero) : 65A0A0FB
AccurateRip v1 signature : B0398C4E
AccurateRip v2 signature : 83B90025
->Accurately ripped (v2, confidence 18/55)
Statistics
Read error : 0
Jitter error (maybe fixed) : 0
Retry sector count : 0
Damaged sector count : 0

Track 11
Filename : /Volumes/rip/Phil Collins/Take a Look at Me Now… Boxset/CD4 - …But Seriously/11 - Father to Son.flac

Track gain : -5.09 dB
Peak : 0.909698
CRC32 hash (test run) : 7D6AE76B
CRC32 hash : 7D6AE76B
CRC32 hash (skip zero) : 04DDB53B
AccurateRip v1 signature : ADE87C7F
AccurateRip v2 signature : 8BB418CE
->Accurately ripped (v2, confidence 18/55)
Statistics
Read error : 0
Jitter error (maybe fixed) : 0
Retry sector count : 0
Damaged sector count : 0

Track 12
Filename : /Volumes/rip/Phil Collins/Take a Look at Me Now… Boxset/CD4 - …But Seriously/12 - Find a Way to My Heart.flac

Track gain : -8.31 dB
Peak : 0.922943
CRC32 hash (test run) : 2CE8F120
CRC32 hash : 2CE8F120
CRC32 hash (skip zero) : 9803C54B
AccurateRip v1 signature : 293971CA
AccurateRip v2 signature : 2395FBCC
->Accurately ripped (v2, confidence 18/55)
Statistics
Read error : 0
Jitter error (maybe fixed) : 0
Retry sector count : 0
Damaged sector count : 0

No errors occurred

End of status report

––-BEGIN XLD SIGNATURE––-
As32ReEme7_7JoKoTJt6ZnlVKmxSPSlBbQJJobW3z.hIlldqH9EKVmWMmIqOaRMdgOEoV.fV1IL1TcrfcNNfgQ0qSAqFtnfBa9xHp2e
––-END XLD SIGNATURE––-


X Lossless Decoder version 20170729 (150.3)

XLD extraction logfile from 2017-11-28 22:21:23 +0000

Phil Collins / Both Sides

Used drive : HL-DT-ST DVDRW GS23N (revision SB11)
Media type : Pressed CD

Ripper mode : XLD Secure Ripper
Disable audio cache : OK for the drive with a cache less than 1375KiB
Make use of C2 pointers : NO
Read offset correction : 667
Max retry count : 100
Gap status : Analyzed, Appended (except HTOA)

TOC of the extracted CD
Track | Start | Length | Start sector | End sector
––––––––––––––––––––––––––––-
1 | 00:00:00 | 06:43:69 | 0 | 30293
2 | 06:43:69 | 04:40:38 | 30294 | 51331
3 | 11:24:32 | 05:43:67 | 51332 | 77123
4 | 17:08:24 | 05:15:03 | 77124 | 100751
5 | 22:23:27 | 06:24:45 | 100752 | 129596
6 | 28:47:72 | 05:09:17 | 129597 | 152788
7 | 33:57:14 | 06:04:74 | 152789 | 180162
8 | 40:02:13 | 07:33:57 | 180163 | 214194
9 | 47:35:70 | 06:52:67 | 214195 | 245161
10 | 54:28:62 | 07:01:07 | 245162 | 276743
11 | 61:29:69 | 05:49:21 | 276744 | 302939

List of alternate offset correction values
# | Absolute | Relative | Confidence
–––––––––––––––––––––
1 | 679 | 12 | 14

AccurateRip Summary (DiscID: 001adf44-00ea9709-900fc70b)
Track 01 : OK (v2, confidence 59/73)
Track 02 : OK (v2, confidence 59/73)
Track 03 : OK (v2, confidence 59/73)
Track 04 : OK (v2, confidence 59/73)
Track 05 : OK (v2, confidence 59/73)
Track 06 : OK (v2, confidence 59/73)
Track 07 : OK (v2, confidence 59/73)
Track 08 : OK (v2, confidence 59/73)
Track 09 : OK (v2, confidence 59/73)
Track 10 : OK (v2, confidence 59/73)
Track 11 : OK (v2, confidence 58/70)
->All tracks accurately ripped.

All Tracks
Album gain : -6.20 dB
Peak : 0.964844
Statistics
Read error : 0
Jitter error (maybe fixed) : 0
Retry sector count : 0
Damaged sector count : 0

Track 01
Filename : /Volumes/rip/Phil Collins/Take a Look at Me Now… Boxset/CD5 - Both Sides/01 - Both Sides Of The Story.flac
Pre-gap length : 00:02:00

Track gain : -8.03 dB
Peak : 0.964844
CRC32 hash (test run) : 8E98063C
CRC32 hash : 8E98063C
CRC32 hash (skip zero) : 25BDBD5E
AccurateRip v1 signature : B38A9C24
AccurateRip v2 signature : F786754B
->Accurately ripped (v2, confidence 59/73)
Statistics
Read error : 0
Jitter error (maybe fixed) : 0
Retry sector count : 0
Damaged sector count : 0

Track 02
Filename : /Volumes/rip/Phil Collins/Take a Look at Me Now… Boxset/CD5 - Both Sides/02 - Can't Turn Back The Years.flac

Track gain : -2.89 dB
Peak : 0.937714
CRC32 hash (test run) : 858E64A7
CRC32 hash : 858E64A7
CRC32 hash (skip zero) : E05A5E1F
AccurateRip v1 signature : 4A025C58
AccurateRip v2 signature : BF75C594
->Accurately ripped (v2, confidence 59/73)
Statistics
Read error : 0
Jitter error (maybe fixed) : 0
Retry sector count : 0
Damaged sector count : 0

Track 03
Filename : /Volumes/rip/Phil Collins/Take a Look at Me Now… Boxset/CD5 - Both Sides/03 - Everyday.flac

Track gain : -6.36 dB
Peak : 0.947815
CRC32 hash (test run) : D6283D84
CRC32 hash : D6283D84
CRC32 hash (skip zero) : 9F03F19D
AccurateRip v1 signature : DE72B0D6
AccurateRip v2 signature : 0F71D448
->Accurately ripped (v2, confidence 59/73)
Statistics
Read error : 0
Jitter error (maybe fixed) : 0
Retry sector count : 0
Damaged sector count : 0

Track 04
Filename : /Volumes/rip/Phil Collins/Take a Look at Me Now… Boxset/CD5 - Both Sides/04 - I've Forgotten Everything.flac

Track gain : -4.70 dB
Peak : 0.945557
CRC32 hash (test run) : 0CFCB812
CRC32 hash : 0CFCB812
CRC32 hash (skip zero) : E51B5F55
AccurateRip v1 signature : 8FB01731
AccurateRip v2 signature : 74CF661A
->Accurately ripped (v2, confidence 59/73)
Statistics
Read error : 0
Jitter error (maybe fixed) : 0
Retry sector count : 0
Damaged sector count : 0

Track 05
Filename : /Volumes/rip/Phil Collins/Take a Look at Me Now… Boxset/CD5 - Both Sides/05 - We're Sons Of Our Fathers.flac

Track gain : -5.08 dB
Peak : 0.940643
CRC32 hash (test run) : 06E4F2EE
CRC32 hash : 06E4F2EE
CRC32 hash (skip zero) : D1B2F0E6
AccurateRip v1 signature : 24006E06
AccurateRip v2 signature : C8005A01
->Accurately ripped (v2, confidence 59/73)
Statistics
Read error : 0
Jitter error (maybe fixed) : 0
Retry sector count : 0
Damaged sector count : 0

Track 06
Filename : /Volumes/rip/Phil Collins/Take a Look at Me Now… Boxset/CD5 - Both Sides/06 - Can't Find My Way.flac

Track gain : -2.68 dB
Peak : 0.943726
CRC32 hash (test run) : EABF590F
CRC32 hash : EABF590F
CRC32 hash (skip zero) : ECA3B935
AccurateRip v1 signature : E5F39F48
AccurateRip v2 signature : 8F1436BB
->Accurately ripped (v2, confidence 59/73)
Statistics
Read error : 0
Jitter error (maybe fixed) : 0
Retry sector count : 0
Damaged sector count : 0

Track 07
Filename : /Volumes/rip/Phil Collins/Take a Look at Me Now… Boxset/CD5 - Both Sides/07 - Survivors.flac

Track gain : -6.51 dB
Peak : 0.946716
CRC32 hash (test run) : 4DC27554
CRC32 hash : 4DC27554
CRC32 hash (skip zero) : 6CAAE9E9
AccurateRip v1 signature : D3848EB2
AccurateRip v2 signature : 55F018DE
->Accurately ripped (v2, confidence 59/73)
Statistics
Read error : 0
Jitter error (maybe fixed) : 0
Retry sector count : 0
Damaged sector count : 0

Track 08
Filename : /Volumes/rip/Phil Collins/Take a Look at Me Now… Boxset/CD5 - Both Sides/08 - We Fly So Close.flac

Track gain : -3.95 dB
Peak : 0.944305
CRC32 hash (test run) : 6D50B805
CRC32 hash : 6D50B805
CRC32 hash (skip zero) : 3E22DFD4
AccurateRip v1 signature : 7E947E40
AccurateRip v2 signature : FFF70117
->Accurately ripped (v2, confidence 59/73)
Statistics
Read error : 0
Jitter error (maybe fixed) : 0
Retry sector count : 0
Damaged sector count : 0

Track 09
Filename : /Volumes/rip/Phil Collins/Take a Look at Me Now… Boxset/CD5 - Both Sides/09 - There's A Place For Us.flac

Track gain : -5.58 dB
Peak : 0.941071
CRC32 hash (test run) : 9F01FD0C
CRC32 hash : 9F01FD0C
CRC32 hash (skip zero) : 4FFA391D
AccurateRip v1 signature : 1E9BDFB2
AccurateRip v2 signature : 2F38046B
->Accurately ripped (v2, confidence 59/73)
Statistics
Read error : 0
Jitter error (maybe fixed) : 0
Retry sector count : 0
Damaged sector count : 0

Track 10
Filename : /Volumes/rip/Phil Collins/Take a Look at Me Now… Boxset/CD5 - Both Sides/10 - We Wait And We Wonder.flac

Track gain : -7.12 dB
Peak : 0.952545
CRC32 hash (test run) : 4FAE1D84
CRC32 hash : 4FAE1D84
CRC32 hash (skip zero) : 409AC23D
AccurateRip v1 signature : 01C91FB3
AccurateRip v2 signature : DB0A70B4
->Accurately ripped (v2, confidence 59/73)
Statistics
Read error : 0
Jitter error (maybe fixed) : 0
Retry sector count : 0
Damaged sector count : 0

Track 11
Filename : /Volumes/rip/Phil Collins/Take a Look at Me Now… Boxset/CD5 - Both Sides/11 - Please Come Out Tonight.flac

Track gain : -4.05 dB
Peak : 0.938660
CRC32 hash (test run) : A2C5A866
CRC32 hash : A2C5A866
CRC32 hash (skip zero) : F27FA96D
AccurateRip v1 signature : 83330481
AccurateRip v2 signature : 4A6B0784
->Accurately ripped (v2, confidence 58/70)
Statistics
Read error : 0
Jitter error (maybe fixed) : 0
Retry sector count : 0
Damaged sector count : 0

No errors occurred

End of status report

––-BEGIN XLD SIGNATURE––-
Zpv.LZ.aNtJdcCUFcDpYJctZw9BjLw0RMTInspI.bNjnamFGGLmNfr94R62XTUptRH4nZsPdCdDvWbWJmBV_XE8DMwSEcni6L.q9sFO
––-END XLD SIGNATURE––-


X Lossless Decoder version 20170729 (150.3)

XLD extraction logfile from 2017-11-30 18:28:23 +0000

Phil Collins / Dance Into The Light

Used drive : HL-DT-ST DVDRW GS23N (revision SB11)
Media type : Pressed CD

Ripper mode : XLD Secure Ripper
Disable audio cache : OK for the drive with a cache less than 1375KiB
Make use of C2 pointers : NO
Read offset correction : 667
Max retry count : 100
Gap status : Analyzed, Appended (except HTOA)

TOC of the extracted CD
Track | Start | Length | Start sector | End sector
––––––––––––––––––––––––––––-
1 | 00:00:00 | 04:24:62 | 0 | 19861
2 | 04:24:62 | 04:20:74 | 19862 | 39435
3 | 08:45:61 | 05:52:36 | 39436 | 65871
4 | 14:38:22 | 06:24:74 | 65872 | 94745
5 | 21:03:21 | 04:11:01 | 94746 | 113571
6 | 25:14:22 | 04:44:00 | 113572 | 134871
7 | 29:58:22 | 03:02:74 | 134872 | 148595
8 | 33:01:21 | 05:30:40 | 148596 | 173385
9 | 38:31:61 | 03:27:00 | 173386 | 188910
10 | 41:58:61 | 04:09:43 | 188911 | 207628
11 | 46:08:29 | 04:57:10 | 207629 | 229913
12 | 51:05:39 | 04:40:48 | 229914 | 250961
13 | 55:46:12 | 05:10:41 | 250962 | 274252

List of alternate offset correction values
# | Absolute | Relative | Confidence
–––––––––––––––––––––
1 | 679 | 12 | 11

AccurateRip Summary (DiscID: 001da1fb-01268e8a-ab0e480d)
Track 01 : OK (v2, confidence 41/52)
Track 02 : OK (v2, confidence 41/52)
Track 03 : OK (v2, confidence 41/52)
Track 04 : OK (v2, confidence 41/52)
Track 05 : OK (v2, confidence 41/52)
Track 06 : OK (v2, confidence 41/52)
Track 07 : OK (v2, confidence 41/52)
Track 08 : OK (v2, confidence 41/52)
Track 09 : OK (v2, confidence 41/52)
Track 10 : OK (v2, confidence 41/52)
Track 11 : OK (v2, confidence 41/52)
Track 12 : OK (v2, confidence 41/52)
Track 13 : OK (v2, confidence 41/52)
->All tracks accurately ripped.

All Tracks
Album gain : -7.95 dB
Peak : 0.989716
Statistics
Read error : 0
Jitter error (maybe fixed) : 0
Retry sector count : 0
Damaged sector count : 0

Track 01
Filename : /Volumes/rip/Phil Collins/Take a Look at Me Now… Boxset/CD6 - Dance Into the Light/01 - Dance Into The Light.flac
Pre-gap length : 00:02:00

Track gain : -8.83 dB
Peak : 0.964081
CRC32 hash (test run) : 0CD7C562
CRC32 hash : 0CD7C562
CRC32 hash (skip zero) : 0231CBCB
AccurateRip v1 signature : 28AF07F0
AccurateRip v2 signature : 0B535843
->Accurately ripped (v2, confidence 41/52)
Statistics
Read error : 0
Jitter error (maybe fixed) : 0
Retry sector count : 0
Damaged sector count : 0

Track 02
Filename : /Volumes/rip/Phil Collins/Take a Look at Me Now… Boxset/CD6 - Dance Into the Light/02 - That's What You Said.flac

Track gain : -7.90 dB
Peak : 0.977386
CRC32 hash (test run) : 224EEF54
CRC32 hash : 224EEF54
CRC32 hash (skip zero) : 3C151214
AccurateRip v1 signature : 09924F44
AccurateRip v2 signature : D6D1BDE2
->Accurately ripped (v2, confidence 41/52)
Statistics
Read error : 0
Jitter error (maybe fixed) : 0
Retry sector count : 0
Damaged sector count : 0

Track 03
Filename : /Volumes/rip/Phil Collins/Take a Look at Me Now… Boxset/CD6 - Dance Into the Light/03 - Lorenzo.flac

Track gain : -7.21 dB
Peak : 0.956573
CRC32 hash (test run) : 43A22AD0
CRC32 hash : 43A22AD0
CRC32 hash (skip zero) : E934A532
AccurateRip v1 signature : 30BA8461
AccurateRip v2 signature : 7DDA645E
->Accurately ripped (v2, confidence 41/52)
Statistics
Read error : 0
Jitter error (maybe fixed) : 0
Retry sector count : 0
Damaged sector count : 0

Track 04
Filename : /Volumes/rip/Phil Collins/Take a Look at Me Now… Boxset/CD6 - Dance Into the Light/04 - Just Another Story.flac

Track gain : -5.18 dB
Peak : 0.950165
CRC32 hash (test run) : 184729EF
CRC32 hash : 184729EF
CRC32 hash (skip zero) : 75DE7B8C
AccurateRip v1 signature : C13D31B1
AccurateRip v2 signature : 4E2FF701
->Accurately ripped (v2, confidence 41/52)
Statistics
Read error : 0
Jitter error (maybe fixed) : 0
Retry sector count : 0
Damaged sector count : 0

Track 05
Filename : /Volumes/rip/Phil Collins/Take a Look at Me Now… Boxset/CD6 - Dance Into the Light/05 - Love Police.flac

Track gain : -7.82 dB
Peak : 0.960754
CRC32 hash (test run) : 1FD5C488
CRC32 hash : 1FD5C488
CRC32 hash (skip zero) : F5C2C904
AccurateRip v1 signature : DC48F704
AccurateRip v2 signature : 83DC34C0
->Accurately ripped (v2, confidence 41/52)
Statistics
Read error : 0
Jitter error (maybe fixed) : 0
Retry sector count : 0
Damaged sector count : 0

Track 06
Filename : /Volumes/rip/Phil Collins/Take a Look at Me Now… Boxset/CD6 - Dance Into the Light/06 - Wear My Hat.flac

Track gain : -7.56 dB
Peak : 0.952057
CRC32 hash (test run) : 042BC7E7
CRC32 hash : 042BC7E7
CRC32 hash (skip zero) : 337A5F6F
AccurateRip v1 signature : 5FA245CA
AccurateRip v2 signature : 0C3360F0
->Accurately ripped (v2, confidence 41/52)
Statistics
Read error : 0
Jitter error (maybe fixed) : 0
Retry sector count : 0
Damaged sector count : 0

Track 07
Filename : /Volumes/rip/Phil Collins/Take a Look at Me Now… Boxset/CD6 - Dance Into the Light/07 - It's In Your Eyes.flac

Track gain : -8.84 dB
Peak : 0.957947
CRC32 hash (test run) : EDD1AF36
CRC32 hash : EDD1AF36
CRC32 hash (skip zero) : B38ED0C5
AccurateRip v1 signature : 789E4AED
AccurateRip v2 signature : D8141F49
->Accurately ripped (v2, confidence 41/52)
Statistics
Read error : 0
Jitter error (maybe fixed) : 0
Retry sector count : 0
Damaged sector count : 0

Track 08
Filename : /Volumes/rip/Phil Collins/Take a Look at Me Now… Boxset/CD6 - Dance Into the Light/08 - Oughta Know By Now.flac

Track gain : -7.83 dB
Peak : 0.989716
CRC32 hash (test run) : F37C5E07
CRC32 hash : F37C5E07
CRC32 hash (skip zero) : B7FB883A
AccurateRip v1 signature : CEED7B26
AccurateRip v2 signature : 544DC582
->Accurately ripped (v2, confidence 41/52)
Statistics
Read error : 0
Jitter error (maybe fixed) : 0
Retry sector count : 0
Damaged sector count : 0

Track 09
Filename : /Volumes/rip/Phil Collins/Take a Look at Me Now… Boxset/CD6 - Dance Into the Light/09 - Take Me Down.flac

Track gain : -9.03 dB
Peak : 0.986847
CRC32 hash (test run) : 023B33D6
CRC32 hash : 023B33D6
CRC32 hash (skip zero) : 21487FD9
AccurateRip v1 signature : 2605736C
AccurateRip v2 signature : 5A5D5502
->Accurately ripped (v2, confidence 41/52)
Statistics
Read error : 0
Jitter error (maybe fixed) : 0
Retry sector count : 0
Damaged sector count : 0

Track 10
Filename : /Volumes/rip/Phil Collins/Take a Look at Me Now… Boxset/CD6 - Dance Into the Light/10 - The Same Moon.flac

Track gain : -7.14 dB
Peak : 0.957062
CRC32 hash (test run) : B0CE9B68
CRC32 hash : B0CE9B68
CRC32 hash (skip zero) : EAFFE008
AccurateRip v1 signature : C2D716DF
AccurateRip v2 signature : B4C87D33
->Accurately ripped (v2, confidence 41/52)
Statistics
Read error : 0
Jitter error (maybe fixed) : 0
Retry sector count : 0
Damaged sector count : 0

Track 11
Filename : /Volumes/rip/Phil Collins/Take a Look at Me Now… Boxset/CD6 - Dance Into the Light/11 - River So Wide.flac

Track gain : -7.09 dB
Peak : 0.949371
CRC32 hash (test run) : 24E234BA
CRC32 hash : 24E234BA
CRC32 hash (skip zero) : 3CB2A69E
AccurateRip v1 signature : 2C914011
AccurateRip v2 signature : E91F8FD9
->Accurately ripped (v2, confidence 41/52)
Statistics
Read error : 0
Jitter error (maybe fixed) : 0
Retry sector count : 0
Damaged sector count : 0

Track 12
Filename : /Volumes/rip/Phil Collins/Take a Look at Me Now… Boxset/CD6 - Dance Into the Light/12 - No Matter Who.flac

Track gain : -7.94 dB
Peak : 0.970459
CRC32 hash (test run) : 5382E09C
CRC32 hash : 5382E09C
CRC32 hash (skip zero) : F0472815
AccurateRip v1 signature : 50C7E96D
AccurateRip v2 signature : 44A1EABA
->Accurately ripped (v2, confidence 41/52)
Statistics
Read error : 0
Jitter error (maybe fixed) : 0
Retry sector count : 0
Damaged sector count : 0

Track 13
Filename : /Volumes/rip/Phil Collins/Take a Look at Me Now… Boxset/CD6 - Dance Into the Light/13 - The Times They Are A-Changin'.flac

Track gain : -8.58 dB
Peak : 0.959595
CRC32 hash (test run) : D9E58627
CRC32 hash : D9E58627
CRC32 hash (skip zero) : 2EE8A1DA
AccurateRip v1 signature : CB1DB3F0
AccurateRip v2 signature : E7722E8F
->Accurately ripped (v2, confidence 41/52)
Statistics
Read error : 0
Jitter error (maybe fixed) : 0
Retry sector count : 0
Damaged sector count : 0

No errors occurred

End of status report

––-BEGIN XLD SIGNATURE––-
AD.ka2M4ve2hjU5SahfHMdyR6AvxgG45k8AB_Wes0nVzOddyxiDcmyPB.sGhQH497ucfX.Bn301lbnG5uF0cMGfuN1MeKxxI1_orNvq
––-END XLD SIGNATURE––-


X Lossless Decoder version 20170729 (150.3)

XLD extraction logfile from 2017-11-30 19:15:45 +0000

Phil Collins / Testify

Used drive : HL-DT-ST DVDRW GS23N (revision SB11)
Media type : Pressed CD

Ripper mode : XLD Secure Ripper
Disable audio cache : OK for the drive with a cache less than 1375KiB
Make use of C2 pointers : NO
Read offset correction : 667
Max retry count : 100
Gap status : Analyzed, Appended (except HTOA)

TOC of the extracted CD
Track | Start | Length | Start sector | End sector
––––––––––––––––––––––––––––-
1 | 00:00:00 | 05:15:70 | 0 | 23694
2 | 05:15:70 | 04:34:17 | 23695 | 44261
3 | 09:50:12 | 06:31:39 | 44262 | 73625
4 | 16:21:51 | 04:41:34 | 73626 | 94734
5 | 21:03:10 | 05:08:24 | 94735 | 117858
6 | 26:11:34 | 03:59:49 | 117859 | 135832
7 | 30:11:08 | 04:04:55 | 135833 | 154187
8 | 34:15:63 | 04:37:50 | 154188 | 175012
9 | 38:53:38 | 04:21:73 | 175013 | 194660
10 | 43:15:36 | 04:16:34 | 194661 | 213894
11 | 47:31:70 | 05:07:65 | 213895 | 236984
12 | 52:39:60 | 04:46:30 | 236985 | 258464

List of alternate offset correction values
# | Absolute | Relative | Confidence
–––––––––––––––––––––
1 | 679 | 12 | 20

AccurateRip Summary (DiscID: 001a4b51-00f2e4ca-ab0d760c)
Track 01 : OK (v2, confidence 33/53)
Track 02 : OK (v2, confidence 33/53)
Track 03 : OK (v2, confidence 33/53)
Track 04 : OK (v2, confidence 33/53)
Track 05 : OK (v2, confidence 33/53)
Track 06 : OK (v2, confidence 33/53)
Track 07 : OK (v2, confidence 33/53)
Track 08 : OK (v2, confidence 33/53)
Track 09 : OK (v2, confidence 33/53)
Track 10 : OK (v2, confidence 32/52)
Track 11 : OK (v2, confidence 33/53)
Track 12 : OK (v2, confidence 32/51)
->All tracks accurately ripped.

All Tracks
Album gain : -9.42 dB
Peak : 0.987183
Statistics
Read error : 0
Jitter error (maybe fixed) : 0
Retry sector count : 0
Damaged sector count : 0

Track 01
Filename : /Volumes/rip/Phil Collins/Take a Look at Me Now… Boxset/CD7 - Testify/01 - Wake Up Call.flac
Pre-gap length : 00:02:00

Track gain : -9.32 dB
Peak : 0.969635
CRC32 hash (test run) : 1E3DD2C0
CRC32 hash : 1E3DD2C0
CRC32 hash (skip zero) : 0EBF0573
AccurateRip v1 signature : 46F62223
AccurateRip v2 signature : DA431C7A
->Accurately ripped (v2, confidence 33/53)
Statistics
Read error : 0
Jitter error (maybe fixed) : 0
Retry sector count : 0
Damaged sector count : 0

Track 02
Filename : /Volumes/rip/Phil Collins/Take a Look at Me Now… Boxset/CD7 - Testify/02 - Come with Me.flac

Track gain : -8.40 dB
Peak : 0.987183
CRC32 hash (test run) : 74928731
CRC32 hash : 74928731
CRC32 hash (skip zero) : 37408C42
AccurateRip v1 signature : BE1CAAF6
AccurateRip v2 signature : 4B47E2AF
->Accurately ripped (v2, confidence 33/53)
Statistics
Read error : 0
Jitter error (maybe fixed) : 0
Retry sector count : 0
Damaged sector count : 0

Track 03
Filename : /Volumes/rip/Phil Collins/Take a Look at Me Now… Boxset/CD7 - Testify/03 - Testify.flac

Track gain : -9.49 dB
Peak : 0.976105
CRC32 hash (test run) : 7FB54BD4
CRC32 hash : 7FB54BD4
CRC32 hash (skip zero) : EE3277F9
AccurateRip v1 signature : AE0993F2
AccurateRip v2 signature : 658BD966
->Accurately ripped (v2, confidence 33/53)
Statistics
Read error : 0
Jitter error (maybe fixed) : 0
Retry sector count : 0
Damaged sector count : 0

Track 04
Filename : /Volumes/rip/Phil Collins/Take a Look at Me Now… Boxset/CD7 - Testify/04 - Don't Get Me Started.flac

Track gain : -10.70 dB
Peak : 0.977142
CRC32 hash (test run) : 2FB8D4F5
CRC32 hash : 2FB8D4F5
CRC32 hash (skip zero) : B53660A3
AccurateRip v1 signature : B18D0303
AccurateRip v2 signature : F67B2B6B
->Accurately ripped (v2, confidence 33/53)
Statistics
Read error : 0
Jitter error (maybe fixed) : 0
Retry sector count : 0
Damaged sector count : 0

Track 05
Filename : /Volumes/rip/Phil Collins/Take a Look at Me Now… Boxset/CD7 - Testify/05 - Swing Low.flac

Track gain : -8.60 dB
Peak : 0.946503
CRC32 hash (test run) : 3EA7AAF8
CRC32 hash : 3EA7AAF8
CRC32 hash (skip zero) : A53B658D
AccurateRip v1 signature : 904ECD78
AccurateRip v2 signature : 7D6332C8
->Accurately ripped (v2, confidence 33/53)
Statistics
Read error : 0
Jitter error (maybe fixed) : 0
Retry sector count : 0
Damaged sector count : 0

Track 06
Filename : /Volumes/rip/Phil Collins/Take a Look at Me Now… Boxset/CD7 - Testify/06 - It's Not Too Late.flac

Track gain : -7.89 dB
Peak : 0.958130
CRC32 hash (test run) : B6C36824
CRC32 hash : B6C36824
CRC32 hash (skip zero) : A50D82DD
AccurateRip v1 signature : FE027F6D
AccurateRip v2 signature : B9AE69C4
->Accurately ripped (v2, confidence 33/53)
Statistics
Read error : 0
Jitter error (maybe fixed) : 0
Retry sector count : 0
Damaged sector count : 0

Track 07
Filename : /Volumes/rip/Phil Collins/Take a Look at Me Now… Boxset/CD7 - Testify/07 - This Love This Heart.flac

Track gain : -8.77 dB
Peak : 0.954742
CRC32 hash (test run) : BF588CDD
CRC32 hash : BF588CDD
CRC32 hash (skip zero) : EE72EA79
AccurateRip v1 signature : 109DD5C9
AccurateRip v2 signature : B86E8C85
->Accurately ripped (v2, confidence 33/53)
Statistics
Read error : 0
Jitter error (maybe fixed) : 0
Retry sector count : 0
Damaged sector count : 0

Track 08
Filename : /Volumes/rip/Phil Collins/Take a Look at Me Now… Boxset/CD7 - Testify/08 - Driving Me Crazy.flac

Track gain : -9.67 dB
Peak : 0.958252
CRC32 hash (test run) : 72261714
CRC32 hash : 72261714
CRC32 hash (skip zero) : 96D80A72
AccurateRip v1 signature : EE73696A
AccurateRip v2 signature : 4A43D093
->Accurately ripped (v2, confidence 33/53)
Statistics
Read error : 0
Jitter error (maybe fixed) : 0
Retry sector count : 0
Damaged sector count : 0

Track 09
Filename : /Volumes/rip/Phil Collins/Take a Look at Me Now… Boxset/CD7 - Testify/09 - The Least You Can Do.flac

Track gain : -10.02 dB
Peak : 0.968933
CRC32 hash (test run) : 0680E68A
CRC32 hash : 0680E68A
CRC32 hash (skip zero) : BA634082
AccurateRip v1 signature : 20730A7B
AccurateRip v2 signature : 7908A752
->Accurately ripped (v2, confidence 33/53)
Statistics
Read error : 0
Jitter error (maybe fixed) : 0
Retry sector count : 0
Damaged sector count : 0

Track 10
Filename : /Volumes/rip/Phil Collins/Take a Look at Me Now… Boxset/CD7 - Testify/10 - Can't Stop Loving You.flac

Track gain : -9.75 dB
Peak : 0.959930
CRC32 hash (test run) : 0945B6EB
CRC32 hash : 0945B6EB
CRC32 hash (skip zero) : BF9A9C1B
AccurateRip v1 signature : BC173531
AccurateRip v2 signature : 1CFBD5B9
->Accurately ripped (v2, confidence 32/52)
Statistics
Read error : 0
Jitter error (maybe fixed) : 0
Retry sector count : 0
Damaged sector count : 0

Track 11
Filename : /Volumes/rip/Phil Collins/Take a Look at Me Now… Boxset/CD7 - Testify/11 - Thru My Eyes.flac

Track gain : -9.68 dB
Peak : 0.957855
CRC32 hash (test run) : C73DD539
CRC32 hash : C73DD539
CRC32 hash (skip zero) : 5ECD3987
AccurateRip v1 signature : 0F9B954F
AccurateRip v2 signature : E0A778EB
->Accurately ripped (v2, confidence 33/53)
Statistics
Read error : 0
Jitter error (maybe fixed) : 0
Retry sector count : 0
Damaged sector count : 0

Track 12
Filename : /Volumes/rip/Phil Collins/Take a Look at Me Now… Boxset/CD7 - Testify/12 - You Touch My Heart.flac

Track gain : -7.28 dB
Peak : 0.943665
CRC32 hash (test run) : 212030C6
CRC32 hash : 212030C6
CRC32 hash (skip zero) : 49A0853C
AccurateRip v1 signature : B5BD86F5
AccurateRip v2 signature : AE3523C0
->Accurately ripped (v2, confidence 32/51)
Statistics
Read error : 0
Jitter error (maybe fixed) : 0
Retry sector count : 0
Damaged sector count : 0

No errors occurred

End of status report

––-BEGIN XLD SIGNATURE––-
jTKu2irBzlCogpMdXTyB.qYGCww5VXm0Glr404ZXerm7aX8vR7azMXTJ2y2FMCBDvEUTOT8DUp4BCxBtmRlRJSMI0Ktpj5vRhcJnfC0
––-END XLD SIGNATURE––-


X Lossless Decoder version 20170729 (150.3)

XLD extraction logfile from 2017-11-28 19:23:11 +0000

Phil Collins / The Essential - Going Back

Used drive : HL-DT-ST DVDRW GS23N (revision SB11)
Media type : Pressed CD

Ripper mode : XLD Secure Ripper
Disable audio cache : OK for the drive with a cache less than 1375KiB
Make use of C2 pointers : NO
Read offset correction : 667
Max retry count : 100
Gap status : Analyzed, Appended (except HTOA)

TOC of the extracted CD
Track | Start | Length | Start sector | End sector
––––––––––––––––––––––––––––-
1 | 00:00:00 | 04:38:09 | 0 | 20858
2 | 04:38:09 | 02:32:49 | 20859 | 32307
3 | 07:10:58 | 02:53:30 | 32308 | 45312
4 | 10:04:13 | 03:18:58 | 45313 | 60220
5 | 13:22:71 | 02:48:64 | 60221 | 72884
6 | 16:11:60 | 06:44:45 | 72885 | 103229
7 | 22:56:30 | 02:47:60 | 103230 | 115814
8 | 25:44:15 | 02:46:29 | 115815 | 128293
9 | 28:30:44 | 02:48:03 | 128294 | 140896
10 | 31:18:47 | 02:50:34 | 140897 | 153680
11 | 34:09:06 | 03:00:04 | 153681 | 167184
12 | 37:09:10 | 02:57:53 | 167185 | 180512
13 | 40:06:63 | 02:30:50 | 180513 | 191812
14 | 42:37:38 | 03:03:70 | 191813 | 205607

List of alternate offset correction values
# | Absolute | Relative | Confidence
–––––––––––––––––––––
1 | 679 | 12 | 19

AccurateRip Summary (DiscID: 0018b2be-0104ae22-b20ab50e)
Track 01 : OK (v2, confidence 24/43)
Track 02 : OK (v2, confidence 24/43)
Track 03 : OK (v2, confidence 24/43)
Track 04 : OK (v2, confidence 24/43)
Track 05 : OK (v2, confidence 24/43)
Track 06 : OK (v2, confidence 24/43)
Track 07 : OK (v2, confidence 24/43)
Track 08 : OK (v2, confidence 24/43)
Track 09 : OK (v2, confidence 24/43)
Track 10 : OK (v2, confidence 24/43)
Track 11 : OK (v2, confidence 24/43)
Track 12 : OK (v2, confidence 24/43)
Track 13 : OK (v2, confidence 24/43)
Track 14 : OK (v2, confidence 24/43)
->All tracks accurately ripped.

All Tracks
Album gain : -8.99 dB
Peak : 0.989716
Statistics
Read error : 0
Jitter error (maybe fixed) : 0
Retry sector count : 0
Damaged sector count : 0

Track 01
Filename : /Volumes/rip/Phil Collins/Take a Look at Me Now… Boxset/CD8 - Going Back/01 - Going Back.flac
Pre-gap length : 00:02:00

Track gain : -7.69 dB
Peak : 0.946442
CRC32 hash (test run) : CA94FB02
CRC32 hash : CA94FB02
CRC32 hash (skip zero) : 7E6C5447
AccurateRip v1 signature : EC1C656E
AccurateRip v2 signature : 0FBB7B0E
->Accurately ripped (v2, confidence 24/43)
Statistics
Read error : 0
Jitter error (maybe fixed) : 0
Retry sector count : 0
Damaged sector count : 0

Track 02
Filename : /Volumes/rip/Phil Collins/Take a Look at Me Now… Boxset/CD8 - Going Back/02 - Girl (Why You Wanna Make Me Blue).flac

Track gain : -8.41 dB
Peak : 0.942902
CRC32 hash (test run) : 92F7B23A
CRC32 hash : 92F7B23A
CRC32 hash (skip zero) : B95B20AE
AccurateRip v1 signature : C3E49B4D
AccurateRip v2 signature : 479D4EE3
->Accurately ripped (v2, confidence 24/43)
Statistics
Read error : 0
Jitter error (maybe fixed) : 0
Retry sector count : 0
Damaged sector count : 0

Track 03
Filename : /Volumes/rip/Phil Collins/Take a Look at Me Now… Boxset/CD8 - Going Back/03 - (Love Is Like a) Heatwave.flac

Track gain : -9.44 dB
Peak : 0.989716
CRC32 hash (test run) : 2D4081BD
CRC32 hash : 2D4081BD
CRC32 hash (skip zero) : B3195FE9
AccurateRip v1 signature : A8BC078B
AccurateRip v2 signature : F40A9543
->Accurately ripped (v2, confidence 24/43)
Statistics
Read error : 0
Jitter error (maybe fixed) : 0
Retry sector count : 0
Damaged sector count : 0

Track 04
Filename : /Volumes/rip/Phil Collins/Take a Look at Me Now… Boxset/CD8 - Going Back/04 - Some of Your Lovin'.flac

Track gain : -8.70 dB
Peak : 0.942657
CRC32 hash (test run) : A848E8E8
CRC32 hash : A848E8E8
CRC32 hash (skip zero) : 791D217B
AccurateRip v1 signature : 257C829B
AccurateRip v2 signature : F1473CC0
->Accurately ripped (v2, confidence 24/43)
Statistics
Read error : 0
Jitter error (maybe fixed) : 0
Retry sector count : 0
Damaged sector count : 0

Track 05
Filename : /Volumes/rip/Phil Collins/Take a Look at Me Now… Boxset/CD8 - Going Back/05 - Going to a Go-Go.flac

Track gain : -9.24 dB
Peak : 0.948303
CRC32 hash (test run) : 1675B1FB
CRC32 hash : 1675B1FB
CRC32 hash (skip zero) : 4199032B
AccurateRip v1 signature : A8350B83
AccurateRip v2 signature : 98D4F175
->Accurately ripped (v2, confidence 24/43)
Statistics
Read error : 0
Jitter error (maybe fixed) : 0
Retry sector count : 0
Damaged sector count : 0

Track 06
Filename : /Volumes/rip/Phil Collins/Take a Look at Me Now… Boxset/CD8 - Going Back/06 - Papa Was a Rolling Stone.flac

Track gain : -7.71 dB
Peak : 0.948883
CRC32 hash (test run) : 1FA61449
CRC32 hash : 1FA61449
CRC32 hash (skip zero) : 356705FA
AccurateRip v1 signature : 2C4FB528
AccurateRip v2 signature : 15B2BD93
->Accurately ripped (v2, confidence 24/43)
Statistics
Read error : 0
Jitter error (maybe fixed) : 0
Retry sector count : 0
Damaged sector count : 0

Track 07
Filename : /Volumes/rip/Phil Collins/Take a Look at Me Now… Boxset/CD8 - Going Back/07 - Loving You Is Sweeter Than Ever.flac

Track gain : -9.17 dB
Peak : 0.952362
CRC32 hash (test run) : 141412E0
CRC32 hash : 141412E0
CRC32 hash (skip zero) : 4821EE96
AccurateRip v1 signature : DAD2D0EC
AccurateRip v2 signature : 3A8715E7
->Accurately ripped (v2, confidence 24/43)
Statistics
Read error : 0
Jitter error (maybe fixed) : 0
Retry sector count : 0
Damaged sector count : 0

Track 08
Filename : /Volumes/rip/Phil Collins/Take a Look at Me Now… Boxset/CD8 - Going Back/08 - Something About You.flac

Track gain : -9.63 dB
Peak : 0.979034
CRC32 hash (test run) : 1D585750
CRC32 hash : 1D585750
CRC32 hash (skip zero) : DF0E7777
AccurateRip v1 signature : 0D65D34E
AccurateRip v2 signature : 781247C8
->Accurately ripped (v2, confidence 24/43)
Statistics
Read error : 0
Jitter error (maybe fixed) : 0
Retry sector count : 0
Damaged sector count : 0

Track 09
Filename : /Volumes/rip/Phil Collins/Take a Look at Me Now… Boxset/CD8 - Going Back/09 - Talkin' About My Baby.flac

Track gain : -9.71 dB
Peak : 0.989716
CRC32 hash (test run) : 63F9EEE0
CRC32 hash : 63F9EEE0
CRC32 hash (skip zero) : 38EBA8A2
AccurateRip v1 signature : 0DF2D122
AccurateRip v2 signature : 832193E7
->Accurately ripped (v2, confidence 24/43)
Statistics
Read error : 0
Jitter error (maybe fixed) : 0
Retry sector count : 0
Damaged sector count : 0

Track 10
Filename : /Volumes/rip/Phil Collins/Take a Look at Me Now… Boxset/CD8 - Going Back/10 - Do I Love You.flac

Track gain : -9.47 dB
Peak : 0.957001
CRC32 hash (test run) : 35EAC93B
CRC32 hash : 35EAC93B
CRC32 hash (skip zero) : 4452ECD5
AccurateRip v1 signature : 940D3F00
AccurateRip v2 signature : FF853DEE
->Accurately ripped (v2, confidence 24/43)
Statistics
Read error : 0
Jitter error (maybe fixed) : 0
Retry sector count : 0
Damaged sector count : 0

Track 11
Filename : /Volumes/rip/Phil Collins/Take a Look at Me Now… Boxset/CD8 - Going Back/11 - Never Dreamed You'd Leave in Summer.flac

Track gain : -7.95 dB
Peak : 0.941406
CRC32 hash (test run) : 3A8938E6
CRC32 hash : 3A8938E6
CRC32 hash (skip zero) : CBE64FC2
AccurateRip v1 signature : 76565A87
AccurateRip v2 signature : AF7B45EA
->Accurately ripped (v2, confidence 24/43)
Statistics
Read error : 0
Jitter error (maybe fixed) : 0
Retry sector count : 0
Damaged sector count : 0

Track 12
Filename : /Volumes/rip/Phil Collins/Take a Look at Me Now… Boxset/CD8 - Going Back/12 - Take Me in Your Arms (Rock Me for a Little While).flac

Track gain : -8.90 dB
Peak : 0.945404
CRC32 hash (test run) : 279C22A9
CRC32 hash : 279C22A9
CRC32 hash (skip zero) : 53987369
AccurateRip v1 signature : 8D8E6BB0
AccurateRip v2 signature : 1F2B113A
->Accurately ripped (v2, confidence 24/43)
Statistics
Read error : 0
Jitter error (maybe fixed) : 0
Retry sector count : 0
Damaged sector count : 0

Track 13
Filename : /Volumes/rip/Phil Collins/Take a Look at Me Now… Boxset/CD8 - Going Back/13 - Too Many Fish in the Sea.flac

Track gain : -9.38 dB
Peak : 0.951294
CRC32 hash (test run) : C56DC4DB
CRC32 hash : C56DC4DB
CRC32 hash (skip zero) : 6E463F34
AccurateRip v1 signature : D4EA4DCF
AccurateRip v2 signature : F636AE20
->Accurately ripped (v2, confidence 24/43)
Statistics
Read error : 0
Jitter error (maybe fixed) : 0
Retry sector count : 0
Damaged sector count : 0

Track 14
Filename : /Volumes/rip/Phil Collins/Take a Look at Me Now… Boxset/CD8 - Going Back/14 - Uptight (Everything's Alright).flac

Track gain : -8.75 dB
Peak : 0.963165
CRC32 hash (test run) : 1879723C
CRC32 hash : 1879723C
CRC32 hash (skip zero) : 3E29DB13
AccurateRip v1 signature : 28EE4D8F
AccurateRip v2 signature : 5010F82B
->Accurately ripped (v2, confidence 24/43)
Statistics
Read error : 0
Jitter error (maybe fixed) : 0
Retry sector count : 0
Damaged sector count : 0

No errors occurred

End of status report

––-BEGIN XLD SIGNATURE––-
kW9GKuLkbWeOJa4ve80s2CYVVIIZNuOMPiawWq1m8gpnAfPJGxCmge19IVU7z1KHOXEmZh.QgjigICLZy4ZJgeHn6nAoE8TSQuAq11i
––-END XLD SIGNATURE––-


Phil Collins - Take a Look at Me Now... - The Complete Studio Collection (2017) {8CD Box Set Atlantic-Warner 0603497865192}


All thanks goes to the original releaser!


===