Tags
Language
Tags
June 2024
Su Mo Tu We Th Fr Sa
26 27 28 29 30 31 1
2 3 4 5 6 7 8
9 10 11 12 13 14 15
16 17 18 19 20 21 22
23 24 25 26 27 28 29
30 1 2 3 4 5 6

Quincy Jones - The Quincy Jones ABC/Mercury Big Band Jazz Sessions 1959-61 (2007) [5CD Set] {Mosaic Records}

Posted By: ruskaval
Quincy Jones - The Quincy Jones ABC/Mercury Big Band Jazz Sessions 1959-61 (2007) [5CD Set] {Mosaic Records}

Quincy Jones - The Quincy Jones ABC/Mercury Big Band Jazz Sessions 1959-61 (2007) [5CD Set] {Mosaic Records}
EAC rip (secure mode) | FLAC (tracks)+CUE+LOG -> 2.06 Gb | MP3 @320 -> 809 Mb
Full Artwork @ 600 dpi (jpg) -> 478 Mb | 5% repair rar | 24-bit remaster
© 2007 Mosaic Records / Verve / UMG | B0010280-02 / MD5 - 237
Jazz / Bop / Big Band

Terrific, limited edition box set collecting all the recordings made by this one of a like group of superstar musicians including: Art Farmer, Phil Woods, Zoot Sims, Curtis Fuller, Phil Woods, Freddie Hubbard, Benny Golson, Art Blakey, and Hank Jones. The set includes 5 CDs covering all of his 1959-60 studio and 1961 live Mercury sessions, as well as an earlier set from 1956 for ABC-Paramount and a 1961 date for Impulse. Also includes an exhaustive essay by Brian Priestley and a complete discography, as well as many rare photographs by Chuck Stewart.
Quincy Jones - The Quincy Jones ABC/Mercury Big Band Jazz Sessions 1959-61 (2007) [5CD Set] {Mosaic Records}


Nothing About The Project Made Sense - Except The Music!

It didn't make sense economically, didn't make sense logistically, didn't provide ego satisfaction for star players, but Quincy Jones formed a big band. For the sheer sake of the music.

And because of their love for Quincy, an exceptional group of musicians signed on for the "tour," some of them literally traipsing all over Europe to find venues that could house them and bandstands that could squeeze them all in. There was never any problem finding audiences eager to hear what Quincy was thinking, or what musicians like Art Farmer, Zoot Sims, Curtis Fuller, Phil Woods, Freddie Hubbard, Benny Golson, Art Blakey, and Hank Jones were blowing. And listeners today will discover just the same joy.

Quincy Jones - The Quincy Jones ABC/Mercury Big Band Jazz Sessions 1959-61 (2007) [5CD Set] {Mosaic Records}


The set includes all of his 19...and 1961 live Mercury sessions, as well as an earlier set from 1956 for ABC-Paramount and a 1961 date for Impulse. The 1956 date for an ABC-Paramount release was a masterpiece of arranging and band leading. You hear him creating his new sound in what is the core of the set, the 1959-60 studio recording that comprised Quincy's "The Birth of a Band" release and later sessions. The final dates were a reunion of sorts, for a tour in Europe and a performance at Newport and an expanded orchestra for a studio session on Impulse. Even though recordings spanned a number of years, from New York to Zurich to Paris to Newport and back to New York, we were able to track down every original tape master.

In writing for the big band, Quincy concealed a great deal of harmonic and rhythmic complexity in his charts. He really was reinventing big band music for a new decade and a new generation of listeners. His pieces sounded youthful and vibrant, and could be technically demanding almost beyond belief; more the writing you'd expect a five-piece band to conquer, not one comprising 17 or 18 or 20 musicians. But his bands rose to the challenge, showing there is great swing in precision, and a way of creating excitement by playing both loose and tight at the same time.

Quincy Jones - The Quincy Jones ABC/Mercury Big Band Jazz Sessions 1959-61 (2007) [5CD Set] {Mosaic Records}


The over-brimming talent of Quincy Jones was recognized early. Raised in Seattle, Quincy first began to study trumpet as a teen, and within a few years was performing, touring and recording. He also quickly took to arranging, creating charts for Oscar Pettiford, Art Farmer, Tommy Dorsey, and Count Basie, among others, just six or seven years after taking up the horn. Work as a music director, producer, and conductor came soon after and he would become a record company executive at a time when black musicians didn't get those opportunities.

The set includes an essay by Brian Priestley and a complete discography, as well as many rare photographs by Chuck Stewart. But what it mostly contains is a fountain of youthfulness, in an unlikely, illogical, unprecedented and entirely delightful way that could only belong to Quincy Jones.
Quincy Jones - The Quincy Jones ABC/Mercury Big Band Jazz Sessions 1959-61 (2007) [5CD Set] {Mosaic Records}


Collective personnel includes:
Art Farmer, Ernie Royal, Bernie Glow, Joe Wilder, Terry, Joe Newman, Thad Jones, Freddie Hubbard, Harry Edison, Benny Bailey (tp), Jimmy Cleveland, Urbie Green, Frank Rehak, Billy Byers, Melba Liston, Ake Persson, Curtis Fuller, Quentin Jackson (tb), Phil Woods, Gene Quill, Frank Wess (as), Jerome Richardson (as,ts,fl), Herbie Mann (fl,ts), Zoot Sims, Lucky Thompson, Eric Dixon, Oliver Nelson, Budd Johnson, Sam 'The Man' Taylor, Benny Golson (ts), Herbie Mann (fl & ts), Jack Nimitz, Sahib Shihab (bs), Julius Watkins (frh), Milt Jackson (vib), Hank Jones, Billy Taylor, Bobby Scott, Patti Bown (p), Kenny Burrell, Les Spann (g), Milt Hinton, Charles Mingus, Paul Chambers, Ray Brown (b), Charlie Persip, Stu Martin, Jimmy Crawford, Osie Johnson, Don Lamond (d). Bill Potts, Al Cohn, Ralph Burns, Ernie Wilkins.

tracklist:
CD 1

01. Walkin' (Richard Carpenter) 10:39
02. A Sleeping Bee (H.Arlen-T.Capote) 4:38
03. Sermonette Julian Adderley) 5:54
04. Stockholm Sweetnin' (Quincy Jones) 5:38
05. Evening In Paris (Quincy Jones) 4:05
06. Boo's Bloos (Quincy Jones) 5:10
07. The Quintessence (Quincy Jones) 4:19
08. Robot Portrait (Billy Byers) 5:24
09. Little Karen (Benny Golson) 3:42
10. Straight, No Chaser (Thelonious Monk) 2:24
11. For Lena And Lennie (Quincy Jones) 4:16
12. Hard Sock Dance (Quincy Jones) 3:18
13. Invitation (B.Kaper-P.F.Webster) 3:33
14. The Twitch (Billy Byers) 3:49

Quincy Jones - The Quincy Jones ABC/Mercury Big Band Jazz Sessions 1959-61 (2007) [5CD Set] {Mosaic Records}


CD 2
01. The Birth Of A Band (Quincy Jones) 2:55
02. Moanin' (Bobby Timmons) 3:03
03. I Remember Clifford (Benny Golson) 3:42
04. Along Came Betty (Benny Golson) 3:17
05. Tickle Toe (Lester Young) 2:56
06. Happy Faces (Sonny Stitt) 2:40
07. Whisper Not (Benny Golson) 3:22
08. The Gypsy (William G. Reid) 4:04
09. A Change Of Pace (Q.Jones-H.Persson) 3:20
10. Tuxedo Junction (Johnson-Hawkins-Feyne-Dash) 2:43
11. Daylie Double (Quincy Jones) 5:59
12. Moanin' (Bobby Timmons) 3:10 (*) Alt. Take
13. Happy Faces (Sonny Stitt) 2:43 (*) Alt. Take
14. After Hours (Avery Parish) 3:31
15. Choo Choo Ch'Boogie (Darling-Horton) 2:26
16. The Hucklebuck (Alfred-Gibson) 2:25
17. The Midnight Sun Will Never Set (Jones-Salvador-Cochran) 2:41
18. The Preacher (Horace Silver) 2:53
19. Marching The Blues (Q.Jones-M.Liston) 2:41
20. Blues In The Night (H.Arlen-J.Mercer) 3:56
21. Syncopated Clock (L.Anderson-M.Parish) 2:44

Quincy Jones - The Quincy Jones ABC/Mercury Big Band Jazz Sessions 1959-61 (2007) [5CD Set] {Mosaic Records}


CD 3
01. Lester Leaps In (Lester Young) 3:33
02. Ghana (Ernie Wilkins) 4:35
03. Caravan (Tizol-Ellington) 3:28
04. Everybody's Blues (Ernie Wilkins) 4:13
05. Cherokee (Ray Noble) 3:09
06. Air Mail Special (Christian-Goodman) 2:33
07. They Say It's Wonderful (Irving Berlin) 3:21
08. Chant Of The Weed (Don Redman) 3:13
09. I Never Has Seen Snow (Arlen-Capote) 3:08
10. Eesom (Bill Potts) 5:03
11. Pleasingly Plump (Quincy Jones) 2:15
12. G'wan Train (Patti Bown)) 6:20
13. Moonglow (Hudson-DeLange-Mills) 2:47
14. Tone Poem (Melba Liston) 3:38
15. You Turned The Tables On Me (L.Alter-S.Mitchell) 2:29
16. Chinese Checkers (David C.Glover Jr.) 2:40
17. Love Is Here To Stay (I) (G.Gershwin-I.Gershwin) 3:11
18. The Midnight Sun Will Never Set (Jones-Salvador-Cochran) 4:31
19. Trouble On My Mind (William Noble) 2:30
20. A Sunday Kind Of Love (Prima-Bell-Leonard-Rhodes) 2:32
21. Parisian Thoroughfare (Bud Powell) 3:47
22. Pleasingly Plump (Q.Jones) 2:26 (*) 1st Version
23. G'wan Train (Patti Bown) 2:57 (*) Short Version

Quincy Jones - The Quincy Jones ABC/Mercury Big Band Jazz Sessions 1959-61 (2007) [5CD Set] {Mosaic Records}


CD 4
01. Solitude (Ellington-DeLange-Mills) 4:27
02. Stolen Moments (Oliver Nelson) 13:44
03. Bess, You Is My Woman Now (Gershwin-Gershwin-Heyward) 5:45
04. Moanin' (Bobby Timmons) 2:58
05. Air Mail Special (Christian-Goodman) 3:51
06. Banja Luka (Phil Woods) 9:23
07. Billie's Bounce (Charlie Parker) 7:10
08. Scrapple From The Apple (Charlie Parker) 9:59
09. Blue 'N Boogie (D.Gillespie-F.Paparelli) 10:12

Quincy Jones - The Quincy Jones ABC/Mercury Big Band Jazz Sessions 1959-61 (2007) [5CD Set] {Mosaic Records}


CD 5
01. Ghana (Ernie Wilkins) 4:03
02. Meet B.B. (Quincy Jones) 3:59
03. The Boy In The Tree (Quincy Jones) 5:03
04. Evening In Paris (Quincy Jones) 5:21
05. Air Mail Special (Christian-Goodman) 4:21
06. Lester Leaps In (Lester Young) 6:10
07. G'wan Train (Patti Bown) 6:05
08. Banja Luka (Phil Woods) 5:56
09. I Had A Ball (J.Lawrence-S.Freeman) 5:02
10. Almost (J.Lawrence-S.Freeman) 4:20
11. Addie's At It Again (Lawrence-Freeman) 5:03

Quincy Jones - The Quincy Jones ABC/Mercury Big Band Jazz Sessions 1959-61 (2007) [5CD Set] {Mosaic Records}


Exact Audio Copy V0.99 prebeta 5 from 4. May 2009

EAC extraction logfile from 22. November 2009, 12:19

Quincy Jones ABC / Mercury Big Band Jazz Sessions CD1

Used drive : PLEXTOR DVDR PX-860A Adapter: 0 ID: 0

Read mode : Secure
Utilize accurate stream : Yes
Defeat audio cache : Yes
Make use of C2 pointers : No

Read offset correction : 96
Overread into Lead-In and Lead-Out : No
Fill up missing offset samples with silence : Yes
Delete leading and trailing silent blocks : No
Null samples used in CRC calculations : Yes
Used interface : Native Win32 interface for Win NT & 2000
Gap handling : Appended to previous track

Used output format : User Defined Encoder
Selected bitrate : 768 kBit/s
Quality : High
Add ID3 tag : No
Command line compressor : C:\Program Files\Exact Audio Copy\Flac\flac.exe
Additional command line options : -8 -V -T "ARTIST=%a" -T "TITLE=%t" -T "ALBUM=%g" -T "DATE=%y" -T "TRACKNUMBER=%n" -T "TOTALTRACKS=%x" -T "GENRE=%m" -T "ALBUM ARTIST=%v" -T "ALBUMARTIST=%v" -T "COMMENT=EAC V0.99 prebeta 5, Secure Mode, Test & Copy, Accurat


TOC of the extracted CD

Track | Start | Length | Start sector | End sector
––––––––––––––––––––––––––––-
1 | 0:00.00 | 10:42.00 | 0 | 48149
2 | 10:42.00 | 4:40.43 | 48150 | 69192
3 | 15:22.43 | 5:57.12 | 69193 | 95979
4 | 21:19.55 | 5:40.58 | 95980 | 121537
5 | 27:00.38 | 4:08.07 | 121538 | 140144
6 | 31:08.45 | 5:12.54 | 140145 | 163598
7 | 36:21.24 | 4:21.61 | 163599 | 183234
8 | 40:43.10 | 5:27.01 | 183235 | 207760
9 | 46:10.11 | 3:45.30 | 207761 | 224665
10 | 49:55.41 | 2:26.67 | 224666 | 235682
11 | 52:22.33 | 4:18.69 | 235683 | 255101
12 | 56:41.27 | 3:21.24 | 255102 | 270200
13 | 60:02.51 | 3:36.05 | 270201 | 286405
14 | 63:38.56 | 3:52.25 | 286406 | 303830


Track 1

Filename N:\DL\Quincy Jones ABC - Mercury Big Band Jazz Sessions (2007) [FLAC] {5 CDs Mosaic Records}\CD1\01 - Walkin'.wav

Pre-gap length 0:00:02.00

Peak level 100.0 %
Track quality 100.0 %
Test CRC 149F53E5
Copy CRC 149F53E5
Accurately ripped (confidence 4) [802D25AF]
Copy OK

Track 2

Filename N:\DL\Quincy Jones ABC - Mercury Big Band Jazz Sessions (2007) [FLAC] {5 CDs Mosaic Records}\CD1\02 - A Sleepin' Bee.wav

Peak level 100.0 %
Track quality 99.9 %
Test CRC 02246575
Copy CRC 02246575
Accurately ripped (confidence 4) [35C4AF51]
Copy OK

Track 3

Filename N:\DL\Quincy Jones ABC - Mercury Big Band Jazz Sessions (2007) [FLAC] {5 CDs Mosaic Records}\CD1\03 - Sermonette.wav

Peak level 91.6 %
Track quality 100.0 %
Test CRC 38EF7B04
Copy CRC 38EF7B04
Accurately ripped (confidence 4) [A0CA02C2]
Copy OK

Track 4

Filename N:\DL\Quincy Jones ABC - Mercury Big Band Jazz Sessions (2007) [FLAC] {5 CDs Mosaic Records}\CD1\04 - Stockholm Sweetin'.wav

Peak level 100.0 %
Track quality 100.0 %
Test CRC 82436E14
Copy CRC 82436E14
Accurately ripped (confidence 4) [E3351CDD]
Copy OK

Track 5

Filename N:\DL\Quincy Jones ABC - Mercury Big Band Jazz Sessions (2007) [FLAC] {5 CDs Mosaic Records}\CD1\05 - Evening in Paris.wav

Peak level 100.0 %
Track quality 100.0 %
Test CRC E2688B5F
Copy CRC E2688B5F
Accurately ripped (confidence 4) [6A4B29D6]
Copy OK

Track 6

Filename N:\DL\Quincy Jones ABC - Mercury Big Band Jazz Sessions (2007) [FLAC] {5 CDs Mosaic Records}\CD1\06 - Boo's Bloos.wav

Peak level 98.9 %
Track quality 100.0 %
Test CRC 2F1D2960
Copy CRC 2F1D2960
Accurately ripped (confidence 4) [22E40516]
Copy OK

Track 7

Filename N:\DL\Quincy Jones ABC - Mercury Big Band Jazz Sessions (2007) [FLAC] {5 CDs Mosaic Records}\CD1\07 - The Quintessence.wav

Peak level 100.0 %
Track quality 100.0 %
Test CRC D98AF10E
Copy CRC D98AF10E
Accurately ripped (confidence 4) [4CEBB0CA]
Copy OK

Track 8

Filename N:\DL\Quincy Jones ABC - Mercury Big Band Jazz Sessions (2007) [FLAC] {5 CDs Mosaic Records}\CD1\08 - Robot Portrait.wav

Peak level 95.9 %
Track quality 100.0 %
Test CRC 6930B3C1
Copy CRC 6930B3C1
Accurately ripped (confidence 4) [B71F3986]
Copy OK

Track 9

Filename N:\DL\Quincy Jones ABC - Mercury Big Band Jazz Sessions (2007) [FLAC] {5 CDs Mosaic Records}\CD1\09 - Little Karen.wav

Peak level 100.0 %
Track quality 100.0 %
Test CRC 414C0F78
Copy CRC 414C0F78
Accurately ripped (confidence 4) [C633D02A]
Copy OK

Track 10

Filename N:\DL\Quincy Jones ABC - Mercury Big Band Jazz Sessions (2007) [FLAC] {5 CDs Mosaic Records}\CD1\10 - Straight, No Chaser.wav

Peak level 97.6 %
Track quality 100.0 %
Test CRC 21A3A72D
Copy CRC 21A3A72D
Accurately ripped (confidence 4) [3A4E2380]
Copy OK

Track 11

Filename N:\DL\Quincy Jones ABC - Mercury Big Band Jazz Sessions (2007) [FLAC] {5 CDs Mosaic Records}\CD1\11 - For Lena and Lennie.wav

Peak level 100.0 %
Track quality 100.0 %
Test CRC 46ED4494
Copy CRC 46ED4494
Accurately ripped (confidence 4) [B28EF333]
Copy OK

Track 12

Filename N:\DL\Quincy Jones ABC - Mercury Big Band Jazz Sessions (2007) [FLAC] {5 CDs Mosaic Records}\CD1\12 - Hard Sock Dance.wav

Peak level 96.8 %
Track quality 100.0 %
Test CRC 3C6FCC31
Copy CRC 3C6FCC31
Accurately ripped (confidence 4) [7534D3ED]
Copy OK

Track 13

Filename N:\DL\Quincy Jones ABC - Mercury Big Band Jazz Sessions (2007) [FLAC] {5 CDs Mosaic Records}\CD1\13 - Invitation.wav

Peak level 100.0 %
Track quality 100.0 %
Test CRC D25F9D55
Copy CRC D25F9D55
Accurately ripped (confidence 4) [F46A7843]
Copy OK

Track 14

Filename N:\DL\Quincy Jones ABC - Mercury Big Band Jazz Sessions (2007) [FLAC] {5 CDs Mosaic Records}\CD1\14 - The Twitch.wav

Peak level 100.0 %
Track quality 100.0 %
Test CRC AEF7FFE5
Copy CRC AEF7FFE5
Accurately ripped (confidence 4) [9CEB2019]
Copy OK


All tracks accurately ripped

No errors occurred

End of status report

Exact Audio Copy V0.99 prebeta 5 from 4. May 2009

EAC extraction logfile from 22. November 2009, 14:29

Quincy Jones ABC / Mercury Big Band Jazz Sessions CD2

Used drive : PLEXTOR DVDR PX-860A Adapter: 0 ID: 0

Read mode : Secure
Utilize accurate stream : Yes
Defeat audio cache : Yes
Make use of C2 pointers : No

Read offset correction : 96
Overread into Lead-In and Lead-Out : No
Fill up missing offset samples with silence : Yes
Delete leading and trailing silent blocks : No
Null samples used in CRC calculations : Yes
Used interface : Native Win32 interface for Win NT & 2000
Gap handling : Appended to previous track

Used output format : User Defined Encoder
Selected bitrate : 768 kBit/s
Quality : High
Add ID3 tag : No
Command line compressor : C:\Program Files\Exact Audio Copy\Flac\flac.exe
Additional command line options : -8 -V -T "ARTIST=%a" -T "TITLE=%t" -T "ALBUM=%g" -T "DATE=%y" -T "TRACKNUMBER=%n" -T "TOTALTRACKS=%x" -T "GENRE=%m" -T "ALBUM ARTIST=%v" -T "ALBUMARTIST=%v" -T "COMMENT=EAC V0.99 prebeta 5, Secure Mode, Test & Copy, Accurat


TOC of the extracted CD

Track | Start | Length | Start sector | End sector
––––––––––––––––––––––––––––-
1 | 0:00.00 | 2:57.47 | 0 | 13321
2 | 2:57.47 | 3:06.42 | 13322 | 27313
3 | 6:04.14 | 3:44.59 | 27314 | 44172
4 | 9:48.73 | 3:19.52 | 44173 | 59149
5 | 13:08.50 | 2:59.40 | 59150 | 72614
6 | 16:08.15 | 2:42.37 | 72615 | 84801
7 | 18:50.52 | 3:24.28 | 84802 | 100129
8 | 22:15.05 | 4:07.35 | 100130 | 118689
9 | 26:22.40 | 3:23.26 | 118690 | 133940
10 | 29:45.66 | 2:45.67 | 133941 | 146382
11 | 32:31.58 | 6:05.27 | 146383 | 173784
12 | 38:37.10 | 3:13.02 | 173785 | 188261
13 | 41:50.12 | 2:46.07 | 188262 | 200718
14 | 44:36.19 | 3:34.54 | 200719 | 216822
15 | 48:10.73 | 2:28.74 | 216823 | 227996
16 | 50:39.72 | 2:27.39 | 227997 | 239060
17 | 53:07.36 | 2:44.27 | 239061 | 251387
18 | 55:51.63 | 2:55.64 | 251388 | 264576
19 | 58:47.52 | 2:44.27 | 264577 | 276903
20 | 61:32.04 | 3:59.20 | 276904 | 294848
21 | 65:31.24 | 2:47.47 | 294849 | 307420


Track 1

Filename N:\DL\Quincy Jones ABC - Mercury Big Band Jazz Sessions (2007) [FLAC] {5 CDs Mosaic Records}\CD2\01 - The Birth of a Band.wav

Pre-gap length 0:00:02.00

Peak level 100.0 %
Track quality 99.9 %
Test CRC FD16CC56
Copy CRC FD16CC56
Accurately ripped (confidence 4) [EF5D077F]
Copy OK

Track 2

Filename N:\DL\Quincy Jones ABC - Mercury Big Band Jazz Sessions (2007) [FLAC] {5 CDs Mosaic Records}\CD2\02 - Moanin'.wav

Peak level 100.0 %
Track quality 100.0 %
Test CRC 30D49140
Copy CRC 30D49140
Accurately ripped (confidence 4) [3E71D4BF]
Copy OK

Track 3

Filename N:\DL\Quincy Jones ABC - Mercury Big Band Jazz Sessions (2007) [FLAC] {5 CDs Mosaic Records}\CD2\03 - I Remember Clifford.wav

Peak level 96.0 %
Track quality 99.9 %
Test CRC 330106FE
Copy CRC 330106FE
Accurately ripped (confidence 4) [59636132]
Copy OK

Track 4

Filename N:\DL\Quincy Jones ABC - Mercury Big Band Jazz Sessions (2007) [FLAC] {5 CDs Mosaic Records}\CD2\04 - Along Came Betty.wav

Peak level 100.0 %
Track quality 100.0 %
Test CRC 49C919C4
Copy CRC 49C919C4
Accurately ripped (confidence 4) [B9F71EA9]
Copy OK

Track 5

Filename N:\DL\Quincy Jones ABC - Mercury Big Band Jazz Sessions (2007) [FLAC] {5 CDs Mosaic Records}\CD2\05 - Tickle Toe.wav

Peak level 100.0 %
Track quality 100.0 %
Test CRC 51D3FB90
Copy CRC 51D3FB90
Accurately ripped (confidence 4) [5FB08D4F]
Copy OK

Track 6

Filename N:\DL\Quincy Jones ABC - Mercury Big Band Jazz Sessions (2007) [FLAC] {5 CDs Mosaic Records}\CD2\06 - Happy Faces.wav

Peak level 100.0 %
Track quality 100.0 %
Test CRC 4D6E0866
Copy CRC 4D6E0866
Accurately ripped (confidence 4) [14DAA6D5]
Copy OK

Track 7

Filename N:\DL\Quincy Jones ABC - Mercury Big Band Jazz Sessions (2007) [FLAC] {5 CDs Mosaic Records}\CD2\07 - Whisper Not.wav

Peak level 100.0 %
Track quality 100.0 %
Test CRC 49BD74A4
Copy CRC 49BD74A4
Accurately ripped (confidence 4) [D54DBCA6]
Copy OK

Track 8

Filename N:\DL\Quincy Jones ABC - Mercury Big Band Jazz Sessions (2007) [FLAC] {5 CDs Mosaic Records}\CD2\08 - The Gypsy.wav

Peak level 100.0 %
Track quality 100.0 %
Test CRC B4EEF1A4
Copy CRC B4EEF1A4
Accurately ripped (confidence 4) [3661A5D4]
Copy OK

Track 9

Filename N:\DL\Quincy Jones ABC - Mercury Big Band Jazz Sessions (2007) [FLAC] {5 CDs Mosaic Records}\CD2\09 - A Change Of Pace.wav

Peak level 100.0 %
Track quality 100.0 %
Test CRC BB99D6ED
Copy CRC BB99D6ED
Accurately ripped (confidence 4) [930BFC9A]
Copy OK

Track 10

Filename N:\DL\Quincy Jones ABC - Mercury Big Band Jazz Sessions (2007) [FLAC] {5 CDs Mosaic Records}\CD2\10 - Tuxedo Junction.wav

Peak level 100.0 %
Track quality 100.0 %
Test CRC BBC1B1EA
Copy CRC BBC1B1EA
Accurately ripped (confidence 4) [7DF75812]
Copy OK

Track 11

Filename N:\DL\Quincy Jones ABC - Mercury Big Band Jazz Sessions (2007) [FLAC] {5 CDs Mosaic Records}\CD2\11 - Daylie Double.wav

Peak level 100.0 %
Track quality 100.0 %
Test CRC 5066E2A4
Copy CRC 5066E2A4
Accurately ripped (confidence 4) [9D3EE9F9]
Copy OK

Track 12

Filename N:\DL\Quincy Jones ABC - Mercury Big Band Jazz Sessions (2007) [FLAC] {5 CDs Mosaic Records}\CD2\12 - Moanin' (alt. version).wav

Peak level 100.0 %
Track quality 100.0 %
Test CRC FB8E988C
Copy CRC FB8E988C
Accurately ripped (confidence 4) [24F27119]
Copy OK

Track 13

Filename N:\DL\Quincy Jones ABC - Mercury Big Band Jazz Sessions (2007) [FLAC] {5 CDs Mosaic Records}\CD2\13 - Happy Faces (alt. take).wav

Peak level 100.0 %
Track quality 100.0 %
Test CRC 75149B6B
Copy CRC 75149B6B
Accurately ripped (confidence 4) [99EA1E8A]
Copy OK

Track 14

Filename N:\DL\Quincy Jones ABC - Mercury Big Band Jazz Sessions (2007) [FLAC] {5 CDs Mosaic Records}\CD2\14 - After Hours.wav

Peak level 100.0 %
Track quality 100.0 %
Test CRC 5B16FCB9
Copy CRC 5B16FCB9
Accurately ripped (confidence 4) [968564DD]
Copy OK

Track 15

Filename N:\DL\Quincy Jones ABC - Mercury Big Band Jazz Sessions (2007) [FLAC] {5 CDs Mosaic Records}\CD2\15 - Choo Choo Ch'Boogie.wav

Peak level 100.0 %
Track quality 100.0 %
Test CRC 7658B5DB
Copy CRC 7658B5DB
Accurately ripped (confidence 4) [BE1D640A]
Copy OK

Track 16

Filename N:\DL\Quincy Jones ABC - Mercury Big Band Jazz Sessions (2007) [FLAC] {5 CDs Mosaic Records}\CD2\16 - The Hucklebuck.wav

Peak level 100.0 %
Track quality 100.0 %
Test CRC 837DF231
Copy CRC 837DF231
Accurately ripped (confidence 4) [00DDA7B5]
Copy OK

Track 17

Filename N:\DL\Quincy Jones ABC - Mercury Big Band Jazz Sessions (2007) [FLAC] {5 CDs Mosaic Records}\CD2\17 - The Mignight Sun Will Never Set.wav

Peak level 100.0 %
Track quality 99.9 %
Test CRC 3021053A
Copy CRC 3021053A
Accurately ripped (confidence 4) [0618D691]
Copy OK

Track 18

Filename N:\DL\Quincy Jones ABC - Mercury Big Band Jazz Sessions (2007) [FLAC] {5 CDs Mosaic Records}\CD2\18 - The Preacher.wav

Peak level 100.0 %
Track quality 100.0 %
Test CRC 5C3A54B6
Copy CRC 5C3A54B6
Accurately ripped (confidence 4) [194F6549]
Copy OK

Track 19

Filename N:\DL\Quincy Jones ABC - Mercury Big Band Jazz Sessions (2007) [FLAC] {5 CDs Mosaic Records}\CD2\19 - Marchin' The Blues.wav

Peak level 100.0 %
Track quality 99.9 %
Test CRC 5CDB34FA
Copy CRC 5CDB34FA
Accurately ripped (confidence 4) [75CF6AD6]
Copy OK

Track 20

Filename N:\DL\Quincy Jones ABC - Mercury Big Band Jazz Sessions (2007) [FLAC] {5 CDs Mosaic Records}\CD2\20 - Blues In The Night.wav

Peak level 100.0 %
Track quality 100.0 %
Test CRC 5D9C4E80
Copy CRC 5D9C4E80
Accurately ripped (confidence 4) [AF299A3B]
Copy OK

Track 21

Filename N:\DL\Quincy Jones ABC - Mercury Big Band Jazz Sessions (2007) [FLAC] {5 CDs Mosaic Records}\CD2\21 - Syncopated Clock.wav

Peak level 100.0 %
Track quality 100.0 %
Test CRC 2C970723
Copy CRC 2C970723
Accurately ripped (confidence 4) [A3796CE9]
Copy OK


All tracks accurately ripped

No errors occurred

End of status report

Exact Audio Copy V0.99 prebeta 5 from 4. May 2009

EAC extraction logfile from 22. November 2009, 18:43

Quincy Jones ABC / Mercury Big Band Jazz Sessions CD 3

Used drive : PLEXTOR DVDR PX-860A Adapter: 0 ID: 0

Read mode : Secure
Utilize accurate stream : Yes
Defeat audio cache : Yes
Make use of C2 pointers : No

Read offset correction : 96
Overread into Lead-In and Lead-Out : No
Fill up missing offset samples with silence : Yes
Delete leading and trailing silent blocks : No
Null samples used in CRC calculations : Yes
Used interface : Native Win32 interface for Win NT & 2000
Gap handling : Appended to previous track

Used output format : User Defined Encoder
Selected bitrate : 768 kBit/s
Quality : High
Add ID3 tag : No
Command line compressor : C:\Program Files\Exact Audio Copy\Flac\flac.exe
Additional command line options : -8 -V -T "ARTIST=%a" -T "TITLE=%t" -T "ALBUM=%g" -T "DATE=%y" -T "TRACKNUMBER=%n" -T "TOTALTRACKS=%x" -T "GENRE=%m" -T "ALBUM ARTIST=%v" -T "ALBUMARTIST=%v" -T "COMMENT=EAC V0.99 prebeta 5, Secure Mode, Test & Copy, Accurat


TOC of the extracted CD

Track | Start | Length | Start sector | End sector
––––––––––––––––––––––––––––-
1 | 0:00.00 | 3:35.63 | 0 | 16187
2 | 3:35.63 | 4:38.26 | 16188 | 37063
3 | 8:14.14 | 3:30.67 | 37064 | 52880
4 | 11:45.06 | 4:16.00 | 52881 | 72080
5 | 16:01.06 | 3:11.48 | 72081 | 86453
6 | 19:12.54 | 2:35.58 | 86454 | 98136
7 | 21:48.37 | 3:24.57 | 98137 | 113493
8 | 25:13.19 | 3:15.56 | 113494 | 128174
9 | 28:29.00 | 3:11.44 | 128175 | 142543
10 | 31:40.44 | 5:06.35 | 142544 | 165528
11 | 36:47.04 | 2:18.35 | 165529 | 175913
12 | 39:05.39 | 6:23.03 | 175914 | 204641
13 | 45:28.42 | 2:49.68 | 204642 | 217384
14 | 48:18.35 | 3:41.51 | 217385 | 234010
15 | 52:00.11 | 2:32.02 | 234011 | 245412
16 | 54:32.13 | 2:43.38 | 245413 | 257675
17 | 57:15.51 | 3:14.41 | 257676 | 272266
18 | 60:30.17 | 4:34.29 | 272267 | 292845
19 | 65:04.46 | 2:33.17 | 292846 | 304337
20 | 67:37.63 | 2:35.12 | 304338 | 315974
21 | 70:13.00 | 3:50.49 | 315975 | 333273
22 | 74:03.49 | 2:29.06 | 333274 | 344454
23 | 76:32.55 | 3:00.28 | 344455 | 357982


Track 1

Filename N:\DL\Quincy Jones ABC - Mercury Big Band Jazz Sessions (2007) [FLAC] {5 CDs Mosaic Records}\CD3\01 - Lester Leaps In.wav

Pre-gap length 0:00:02.00

Peak level 100.0 %
Track quality 99.9 %
Test CRC F0BEF20C
Copy CRC F0BEF20C
Accurately ripped (confidence 4) [0521C622]
Copy OK

Track 2

Filename N:\DL\Quincy Jones ABC - Mercury Big Band Jazz Sessions (2007) [FLAC] {5 CDs Mosaic Records}\CD3\02 - Ghana.wav

Peak level 100.0 %
Track quality 100.0 %
Test CRC A03F0A18
Copy CRC A03F0A18
Accurately ripped (confidence 4) [CEA4489C]
Copy OK

Track 3

Filename N:\DL\Quincy Jones ABC - Mercury Big Band Jazz Sessions (2007) [FLAC] {5 CDs Mosaic Records}\CD3\03 - Caravan.wav

Peak level 100.0 %
Track quality 100.0 %
Test CRC D72609C2
Copy CRC D72609C2
Accurately ripped (confidence 4) [0DD2D791]
Copy OK

Track 4

Filename N:\DL\Quincy Jones ABC - Mercury Big Band Jazz Sessions (2007) [FLAC] {5 CDs Mosaic Records}\CD3\04 - Everybody's Blues.wav

Peak level 100.0 %
Track quality 99.9 %
Test CRC BB966296
Copy CRC BB966296
Accurately ripped (confidence 4) [E3BA2373]
Copy OK

Track 5

Filename N:\DL\Quincy Jones ABC - Mercury Big Band Jazz Sessions (2007) [FLAC] {5 CDs Mosaic Records}\CD3\05 - Cherokee.wav

Peak level 100.0 %
Track quality 100.0 %
Test CRC 345D9AF9
Copy CRC 345D9AF9
Accurately ripped (confidence 4) [EE7D4BED]
Copy OK

Track 6

Filename N:\DL\Quincy Jones ABC - Mercury Big Band Jazz Sessions (2007) [FLAC] {5 CDs Mosaic Records}\CD3\06 - Air Mail Special.wav

Peak level 97.2 %
Track quality 100.0 %
Test CRC 42CC4F8B
Copy CRC 42CC4F8B
Accurately ripped (confidence 4) [26E995F1]
Copy OK

Track 7

Filename N:\DL\Quincy Jones ABC - Mercury Big Band Jazz Sessions (2007) [FLAC] {5 CDs Mosaic Records}\CD3\07 - They Say It's Wonderful.wav

Peak level 95.6 %
Track quality 100.0 %
Test CRC A6607F45
Copy CRC A6607F45
Accurately ripped (confidence 4) [7D3E5151]
Copy OK

Track 8

Filename N:\DL\Quincy Jones ABC - Mercury Big Band Jazz Sessions (2007) [FLAC] {5 CDs Mosaic Records}\CD3\08 - Chant of the Weed.wav

Peak level 100.0 %
Track quality 100.0 %
Test CRC 6E6FE64C
Copy CRC 6E6FE64C
Accurately ripped (confidence 4) [0062CDCC]
Copy OK

Track 9

Filename N:\DL\Quincy Jones ABC - Mercury Big Band Jazz Sessions (2007) [FLAC] {5 CDs Mosaic Records}\CD3\09 - I Never Has Seen Snow.wav

Peak level 95.7 %
Track quality 99.9 %
Test CRC 658740AC
Copy CRC 658740AC
Accurately ripped (confidence 4) [B3BE270C]
Copy OK

Track 10

Filename N:\DL\Quincy Jones ABC - Mercury Big Band Jazz Sessions (2007) [FLAC] {5 CDs Mosaic Records}\CD3\10 - Eesom.wav

Peak level 100.0 %
Track quality 100.0 %
Test CRC 25C4320E
Copy CRC 25C4320E
Accurately ripped (confidence 4) [97D862CA]
Copy OK

Track 11

Filename N:\DL\Quincy Jones ABC - Mercury Big Band Jazz Sessions (2007) [FLAC] {5 CDs Mosaic Records}\CD3\11 - Pleasingly Plump.wav

Peak level 100.0 %
Track quality 99.9 %
Test CRC B98A2462
Copy CRC B98A2462
Accurately ripped (confidence 4) [709614D8]
Copy OK

Track 12

Filename N:\DL\Quincy Jones ABC - Mercury Big Band Jazz Sessions (2007) [FLAC] {5 CDs Mosaic Records}\CD3\12 - G'wan Train.wav

Peak level 100.0 %
Track quality 100.0 %
Test CRC 60053139
Copy CRC 60053139
Accurately ripped (confidence 4) [F5092807]
Copy OK

Track 13

Filename N:\DL\Quincy Jones ABC - Mercury Big Band Jazz Sessions (2007) [FLAC] {5 CDs Mosaic Records}\CD3\13 - Moonglow.wav

Peak level 100.0 %
Track quality 100.0 %
Test CRC 5486BF54
Copy CRC 5486BF54
Accurately ripped (confidence 4) [87E465E9]
Copy OK

Track 14

Filename N:\DL\Quincy Jones ABC - Mercury Big Band Jazz Sessions (2007) [FLAC] {5 CDs Mosaic Records}\CD3\14 - Tone Poem.wav

Peak level 100.0 %
Track quality 100.0 %
Test CRC 60CAA6EC
Copy CRC 60CAA6EC
Accurately ripped (confidence 4) [8C128B50]
Copy OK

Track 15

Filename N:\DL\Quincy Jones ABC - Mercury Big Band Jazz Sessions (2007) [FLAC] {5 CDs Mosaic Records}\CD3\15 - You Turned the Tables on Me.wav

Peak level 100.0 %
Track quality 100.0 %
Test CRC 254ACB37
Copy CRC 254ACB37
Accurately ripped (confidence 4) [763D90CD]
Copy OK

Track 16

Filename N:\DL\Quincy Jones ABC - Mercury Big Band Jazz Sessions (2007) [FLAC] {5 CDs Mosaic Records}\CD3\16 - Chinese Checkers.wav

Peak level 100.0 %
Track quality 100.0 %
Test CRC E2ED781B
Copy CRC E2ED781B
Accurately ripped (confidence 4) [1450E44A]
Copy OK

Track 17

Filename N:\DL\Quincy Jones ABC - Mercury Big Band Jazz Sessions (2007) [FLAC] {5 CDs Mosaic Records}\CD3\17 - Love Is Here To Stay.wav

Peak level 100.0 %
Track quality 100.0 %
Test CRC 2CB5F2E6
Copy CRC 2CB5F2E6
Accurately ripped (confidence 4) [B1CF4742]
Copy OK

Track 18

Filename N:\DL\Quincy Jones ABC - Mercury Big Band Jazz Sessions (2007) [FLAC] {5 CDs Mosaic Records}\CD3\18 - The Midnight Sun Will Never Set.wav

Peak level 100.0 %
Track quality 100.0 %
Test CRC 759F84DB
Copy CRC 759F84DB
Accurately ripped (confidence 4) [74D9A83C]
Copy OK

Track 19

Filename N:\DL\Quincy Jones ABC - Mercury Big Band Jazz Sessions (2007) [FLAC] {5 CDs Mosaic Records}\CD3\19 - Trouble On My Mind.wav

Peak level 97.6 %
Track quality 100.0 %
Test CRC DF961F83
Copy CRC DF961F83
Accurately ripped (confidence 4) [CF9AAE77]
Copy OK

Track 20

Filename N:\DL\Quincy Jones ABC - Mercury Big Band Jazz Sessions (2007) [FLAC] {5 CDs Mosaic Records}\CD3\20 - A Sunday Kind of Love.wav

Peak level 100.0 %
Track quality 100.0 %
Test CRC 5B9F56B6
Copy CRC 5B9F56B6
Accurately ripped (confidence 4) [7BCAE42C]
Copy OK

Track 21

Filename N:\DL\Quincy Jones ABC - Mercury Big Band Jazz Sessions (2007) [FLAC] {5 CDs Mosaic Records}\CD3\21 - Parisian Thoroughfare.wav

Peak level 98.0 %
Track quality 100.0 %
Test CRC E9B91FA3
Copy CRC E9B91FA3
Accurately ripped (confidence 4) [21F980DF]
Copy OK

Track 22

Filename N:\DL\Quincy Jones ABC - Mercury Big Band Jazz Sessions (2007) [FLAC] {5 CDs Mosaic Records}\CD3\22 - Pleasingly Plump (first version).wav

Peak level 100.0 %
Track quality 99.9 %
Test CRC 61E61F52
Copy CRC 61E61F52
Accurately ripped (confidence 4) [957C908B]
Copy OK

Track 23

Filename N:\DL\Quincy Jones ABC - Mercury Big Band Jazz Sessions (2007) [FLAC] {5 CDs Mosaic Records}\CD3\23 - G'wan Train (short version).wav

Peak level 100.0 %
Track quality 100.0 %
Test CRC C12FD7F4
Copy CRC C12FD7F4
Accurately ripped (confidence 4) [882A582B]
Copy OK


All tracks accurately ripped

No errors occurred

End of status report

Exact Audio Copy V0.99 prebeta 5 from 4. May 2009

EAC extraction logfile from 22. November 2009, 19:41

Quincy Jones ABC / Mercury Big Band Jazz Sessions CD4

Used drive : PLEXTOR DVDR PX-860A Adapter: 0 ID: 0

Read mode : Secure
Utilize accurate stream : Yes
Defeat audio cache : Yes
Make use of C2 pointers : No

Read offset correction : 96
Overread into Lead-In and Lead-Out : No
Fill up missing offset samples with silence : Yes
Delete leading and trailing silent blocks : No
Null samples used in CRC calculations : Yes
Used interface : Native Win32 interface for Win NT & 2000
Gap handling : Appended to previous track

Used output format : User Defined Encoder
Selected bitrate : 768 kBit/s
Quality : High
Add ID3 tag : No
Command line compressor : C:\Program Files\Exact Audio Copy\Flac\flac.exe
Additional command line options : -8 -V -T "ARTIST=%a" -T "TITLE=%t" -T "ALBUM=%g" -T "DATE=%y" -T "TRACKNUMBER=%n" -T "TOTALTRACKS=%x" -T "GENRE=%m" -T "ALBUM ARTIST=%v" -T "ALBUMARTIST=%v" -T "COMMENT=EAC V0.99 prebeta 5, Secure Mode, Test & Copy, Accurat


TOC of the extracted CD

Track | Start | Length | Start sector | End sector
––––––––––––––––––––––––––––-
1 | 0:00.00 | 4:26.37 | 0 | 19986
2 | 4:26.37 | 13:43.61 | 19987 | 81772
3 | 18:10.23 | 5:44.69 | 81773 | 107641
4 | 23:55.17 | 2:57.74 | 107642 | 120990
5 | 26:53.16 | 3:50.62 | 120991 | 138302
6 | 30:44.03 | 9:22.74 | 138303 | 180526
7 | 40:07.02 | 7:12.66 | 180527 | 212992
8 | 47:19.68 | 10:02.17 | 212993 | 258159
9 | 57:22.10 | 10:15.48 | 258160 | 304332


Track 1

Filename N:\DL\Quincy Jones ABC - Mercury Big Band Jazz Sessions (2007) [FLAC] {5 CDs Mosaic Records}\CD4\01 - Solitude.wav

Pre-gap length 0:00:02.00

Peak level 100.0 %
Track quality 100.0 %
Test CRC 4B553443
Copy CRC 4B553443
Accurately ripped (confidence 4) [88C85BC6]
Copy OK

Track 2

Filename N:\DL\Quincy Jones ABC - Mercury Big Band Jazz Sessions (2007) [FLAC] {5 CDs Mosaic Records}\CD4\02 - Stolen Moments.wav

Peak level 100.0 %
Track quality 99.9 %
Test CRC 0509DC9F
Copy CRC 0509DC9F
Accurately ripped (confidence 4) [85417819]
Copy OK

Track 3

Filename N:\DL\Quincy Jones ABC - Mercury Big Band Jazz Sessions (2007) [FLAC] {5 CDs Mosaic Records}\CD4\03 - Bess, You Is My Woman Now.wav

Peak level 100.0 %
Track quality 100.0 %
Test CRC 036229EE
Copy CRC 036229EE
Accurately ripped (confidence 4) [F0EF86FA]
Copy OK

Track 4

Filename N:\DL\Quincy Jones ABC - Mercury Big Band Jazz Sessions (2007) [FLAC] {5 CDs Mosaic Records}\CD4\04 - Moanin'.wav

Peak level 100.0 %
Track quality 99.9 %
Test CRC C79A1EEF
Copy CRC C79A1EEF
Accurately ripped (confidence 4) [A672BB35]
Copy OK

Track 5

Filename N:\DL\Quincy Jones ABC - Mercury Big Band Jazz Sessions (2007) [FLAC] {5 CDs Mosaic Records}\CD4\05 - Air Mail Special.wav

Peak level 100.0 %
Track quality 100.0 %
Test CRC 7C840C4F
Copy CRC 7C840C4F
Accurately ripped (confidence 4) [1C7BB269]
Copy OK

Track 6

Filename N:\DL\Quincy Jones ABC - Mercury Big Band Jazz Sessions (2007) [FLAC] {5 CDs Mosaic Records}\CD4\06 - Banja Luka.wav

Peak level 100.0 %
Track quality 100.0 %
Test CRC F3AB77C8
Copy CRC F3AB77C8
Accurately ripped (confidence 4) [F2E9CBBB]
Copy OK

Track 7

Filename N:\DL\Quincy Jones ABC - Mercury Big Band Jazz Sessions (2007) [FLAC] {5 CDs Mosaic Records}\CD4\07 - Billie's Bounce.wav

Peak level 100.0 %
Track quality 100.0 %
Test CRC DC387FED
Copy CRC DC387FED
Accurately ripped (confidence 4) [DDDC9A0A]
Copy OK

Track 8

Filename N:\DL\Quincy Jones ABC - Mercury Big Band Jazz Sessions (2007) [FLAC] {5 CDs Mosaic Records}\CD4\08 - Srapple From The Apple.wav

Peak level 100.0 %
Track quality 100.0 %
Test CRC 76D94957
Copy CRC 76D94957
Accurately ripped (confidence 4) [FAA4089A]
Copy OK

Track 9

Filename N:\DL\Quincy Jones ABC - Mercury Big Band Jazz Sessions (2007) [FLAC] {5 CDs Mosaic Records}\CD4\09 - Blue 'N Boogie.wav

Peak level 100.0 %
Track quality 99.9 %
Test CRC E4EB09C0
Copy CRC E4EB09C0
Accurately ripped (confidence 4) [407B4771]
Copy OK


All tracks accurately ripped

No errors occurred

End of status report

Exact Audio Copy V0.99 prebeta 5 from 4. May 2009

EAC extraction logfile from 22. November 2009, 21:32

Quincy Jones ABC / Mercury Big Band Jazz Sessions CD5

Used drive : PLEXTOR DVDR PX-860A Adapter: 0 ID: 0

Read mode : Secure
Utilize accurate stream : Yes
Defeat audio cache : Yes
Make use of C2 pointers : No

Read offset correction : 96
Overread into Lead-In and Lead-Out : No
Fill up missing offset samples with silence : Yes
Delete leading and trailing silent blocks : No
Null samples used in CRC calculations : Yes
Used interface : Native Win32 interface for Win NT & 2000
Gap handling : Appended to previous track

Used output format : User Defined Encoder
Selected bitrate : 768 kBit/s
Quality : High
Add ID3 tag : No
Command line compressor : C:\Program Files\Exact Audio Copy\Flac\flac.exe
Additional command line options : -8 -V -T "ARTIST=%a" -T "TITLE=%t" -T "ALBUM=%g" -T "DATE=%y" -T "TRACKNUMBER=%n" -T "TOTALTRACKS=%x" -T "GENRE=%m" -T "ALBUM ARTIST=%v" -T "ALBUMARTIST=%v" -T "COMMENT=EAC V0.99 prebeta 5, Secure Mode, Test & Copy, Accurat


TOC of the extracted CD

Track | Start | Length | Start sector | End sector
––––––––––––––––––––––––––––-
1 | 0:00.00 | 4:02.29 | 0 | 18178
2 | 4:02.29 | 4:00.26 | 18179 | 36204
3 | 8:02.55 | 5:02.23 | 36205 | 58877
4 | 13:05.03 | 5:20.55 | 58878 | 82932
5 | 18:25.58 | 4:21.39 | 82933 | 102546
6 | 22:47.22 | 6:09.69 | 102547 | 130290
7 | 28:57.16 | 6:05.59 | 130291 | 157724
8 | 35:03.00 | 5:58.19 | 157725 | 184593
9 | 41:01.19 | 5:05.31 | 184594 | 207499
10 | 46:06.50 | 4:23.22 | 207500 | 227246
11 | 50:29.72 | 5:06.52 | 227247 | 250248


Track 1

Filename N:\DL\Quincy Jones ABC - Mercury Big Band Jazz Sessions (2007) [FLAC] {5 CDs Mosaic Records}\CD5\01 - Ghana.wav

Pre-gap length 0:00:02.00

Peak level 93.9 %
Track quality 99.9 %
Test CRC E5122DE5
Copy CRC E5122DE5
Accurately ripped (confidence 4) [C50CC742]
Copy OK

Track 2

Filename N:\DL\Quincy Jones ABC - Mercury Big Band Jazz Sessions (2007) [FLAC] {5 CDs Mosaic Records}\CD5\02 - Mett B.B..wav

Peak level 100.0 %
Track quality 100.0 %
Test CRC D63ECC51
Copy CRC D63ECC51
Accurately ripped (confidence 4) [22B31632]
Copy OK

Track 3

Filename N:\DL\Quincy Jones ABC - Mercury Big Band Jazz Sessions (2007) [FLAC] {5 CDs Mosaic Records}\CD5\03 - The Boy In the Tree.wav

Peak level 100.0 %
Track quality 100.0 %
Test CRC 9D6B6394
Copy CRC 9D6B6394
Accurately ripped (confidence 4) [3CC15467]
Copy OK

Track 4

Filename N:\DL\Quincy Jones ABC - Mercury Big Band Jazz Sessions (2007) [FLAC] {5 CDs Mosaic Records}\CD5\04 - Evening in Paris.wav

Peak level 98.1 %
Track quality 100.0 %
Test CRC ECEE998F
Copy CRC ECEE998F
Accurately ripped (confidence 4) [D436A042]
Copy OK

Track 5

Filename N:\DL\Quincy Jones ABC - Mercury Big Band Jazz Sessions (2007) [FLAC] {5 CDs Mosaic Records}\CD5\05 - Air Mail Special.wav

Peak level 100.0 %
Track quality 100.0 %
Test CRC 811EDFA1
Copy CRC 811EDFA1
Accurately ripped (confidence 4) [DDDD6664]
Copy OK

Track 6

Filename N:\DL\Quincy Jones ABC - Mercury Big Band Jazz Sessions (2007) [FLAC] {5 CDs Mosaic Records}\CD5\06 - Lester Leaps In.wav

Peak level 100.0 %
Track quality 99.9 %
Test CRC B8FBD37D
Copy CRC B8FBD37D
Accurately ripped (confidence 4) [FB563237]
Copy OK

Track 7

Filename N:\DL\Quincy Jones ABC - Mercury Big Band Jazz Sessions (2007) [FLAC] {5 CDs Mosaic Records}\CD5\07 - G'wan Train.wav

Peak level 100.0 %
Track quality 100.0 %
Test CRC D0F8D792
Copy CRC D0F8D792
Accurately ripped (confidence 4) [C47C4F73]
Copy OK

Track 8

Filename N:\DL\Quincy Jones ABC - Mercury Big Band Jazz Sessions (2007) [FLAC] {5 CDs Mosaic Records}\CD5\08 - Banja Luka.wav

Peak level 100.0 %
Track quality 100.0 %
Test CRC 3D844434
Copy CRC 3D844434
Accurately ripped (confidence 4) [AB03E3CF]
Copy OK

Track 9

Filename N:\DL\Quincy Jones ABC - Mercury Big Band Jazz Sessions (2007) [FLAC] {5 CDs Mosaic Records}\CD5\09 - I had A Ball.wav

Peak level 100.0 %
Track quality 100.0 %
Test CRC 2A8352D6
Copy CRC 2A8352D6
Accurately ripped (confidence 4) [7715E8F0]
Copy OK

Track 10

Filename N:\DL\Quincy Jones ABC - Mercury Big Band Jazz Sessions (2007) [FLAC] {5 CDs Mosaic Records}\CD5\10 - Almost.wav

Peak level 100.0 %
Track quality 100.0 %
Test CRC 8B549F68
Copy CRC 8B549F68
Accurately ripped (confidence 4) [98AEB9C9]
Copy OK

Track 11

Filename N:\DL\Quincy Jones ABC - Mercury Big Band Jazz Sessions (2007) [FLAC] {5 CDs Mosaic Records}\CD5\11 - Addie's At It Again.wav

Peak level 92.8 %
Track quality 100.0 %
Test CRC D87D74B0
Copy CRC D87D74B0
Accurately ripped (confidence 4) [FE970A58]
Copy OK


All tracks accurately ripped

No errors occurred

End of status report


Quincy Jones - The Quincy Jones ABC/Mercury Big Band Jazz Sessions 1959-61 (2007) [5CD Set] {Mosaic Records}

Quincy Jones - The Quincy Jones ABC/Mercury Big Band Jazz Sessions 1959-61 (2007) [5CD Set] {Mosaic Records}

Quincy Jones - The Quincy Jones ABC/Mercury Big Band Jazz Sessions 1959-61 (2007) [5CD Set] {Mosaic Records}

Quincy Jones - The Quincy Jones ABC/Mercury Big Band Jazz Sessions 1959-61 (2007) [5CD Set] {Mosaic Records}

Quincy Jones - The Quincy Jones ABC/Mercury Big Band Jazz Sessions 1959-61 (2007) [5CD Set] {Mosaic Records}


see also:
Quincy Jones - Complete Record...D Set Enlightenment EN4CD9010}



===