Tags
Language
Tags

Quincy Jones - Songs From Pussycats & Quincy In Rio (1960-66) {Verve Jazzclub Originals rel 2012}

Posted By: ruskaval
Quincy Jones - Songs From Pussycats & Quincy In Rio (1960-66) {Verve Jazzclub Originals rel 2012}

Quincy Jones - Songs From Pussycats & Quincy In Rio (1960-66) {Verve Jazzclub Originals rel 2012}
EAC rip (secure mode) | FLAC (tracks)+CUE+LOG -> 452 Mb | MP3 @320 -> 155 Mb
Full Artwork @ 300 dpi (jpg) -> 11 Mb | 5% repair rar
© 1960-66, 2012 Mercury / Verve / Universal | Jazzclub Originals | 06007 5337844
Jazz / Big Band

In a musical career that has spanned seven decades, Quincy Jones has earned his reputation as a renaissance man of American music. Jones has distinguished himself as a bandleader, a solo artist, a sideman, a songwriter, a producer, an arranger, a film composer, and a record label executive, and outside of music, he's also written books, produced major motion pictures, and helped create television series. And a quick look at a few of the artists Jones has worked with suggests the remarkable diversity of his career – Miles Davis, Frank Sinatra, Count Basie, Lesley Gore, Michael Jackson, Peggy Lee, Ray Charles, Paul Simon, and Aretha Franklin.

Orchestra arranged & conducted by Quincy jones

[1-11] originally released as “Songs For Pussycats” (Mercury International 134 537)
[12-22] originally released as “Quincy in Rio” (Mercury International 134 519)


Quincy Jones and his Orchestra, featuring:
Snooky Young, Thad Jones, Joe Newman, Clark Terry, Ernie Royal (tp)
Melba Liston, Curtis Fuller, Billy Byers, Jimmy Cleveland, Kai Winding, Urbie Green (tb)
Julius Watkins (fhr)
Phil Woods (as)
Oliver Nelson, Zoot Sims, Roland Kirk (ts)
Jerome Richardson (bs, a-fl)
Patti Bown, Lalo Schifrin (p)
Gary Burton (vib)
Jim Hall, Kenny Burrell (g)
Toots Thielemans (hca)
Milt Hinton (b)
Chris White (d), among others.

Recorded in New York and Los Angeles between 1962 and 1966.

Tracklist:
01. What’s New Pussycat
02. A Taste Of Honey
03. Sermonette
04. A Walk In The Black Forest
05. Mack The Knife
06. Moon River
07. Take Five
08. Gravy Waltz
09. I Hear A Symphony
10. Mr. Lucky
11. Cast Your Fate To The Wind
12. Manha De Carnaval
13. Samba De Una Nota So (One Note Samba)
14. Desafinado
15. Bossa Nova U.S.A.
16. Se E Tarde Me Pardoa (Pardon Me If I’m Late)
17. (I Love You) And Don’t You Forget It
18. Non-Stop To Brazil
19. The Gentle Rain
20. Baia;
21. Jive Samba
22. Chega De Saudade (No More Blues)

Exact Audio Copy V1.1 from 23. June 2015

EAC extraction logfile from 18. February 2017, 22:13

Quincy Jones / Songs From Pussycats & Quincy In Rio

Used drive : TSSTcorpCDDVDW SE-208DB Adapter: 1 ID: 2

Read mode : Secure
Utilize accurate stream : Yes
Defeat audio cache : Yes
Make use of C2 pointers : No

Read offset correction : 6
Overread into Lead-In and Lead-Out : No
Fill up missing offset samples with silence : Yes
Delete leading and trailing silent blocks : No
Null samples used in CRC calculations : Yes
Used interface : Native Win32 interface for Win NT & 2000
Gap handling : Appended to previous track

Used output format : User Defined Encoder
Selected bitrate : 1024 kBit/s
Quality : High
Add ID3 tag : No
Command line compressor : C:\Program Files (x86)\FLAC Frontend\tools\flac.exe
Additional command line options : -8 -V -T "ARTIST=%artist%" -T "TITLE=%title%" -T "ALBUM=%albumtitle%" -T "DATE=%year%" -T "TRACKNUMBER=%tracknr%" -T "TOTALTRACKS=%numtracks%" -T "GENRE=%genre%" -T "ALBUMARTIST=%albumartist%" -T "ALBUM ARTIST=%albumartist%" -T "COMMENT=EAC Secure Mode, Test & Copy, AccurateRip, FLAC -8" %source%


TOC of the extracted CD

Track | Start | Length | Start sector | End sector
––––––––––––––––––––––––––––-
1 | 0:00.00 | 2:45.29 | 0 | 12403
2 | 2:45.29 | 2:36.46 | 12404 | 24149
3 | 5:22.00 | 2:50.68 | 24150 | 36967
4 | 8:12.68 | 2:52.38 | 36968 | 49905
5 | 11:05.31 | 2:33.47 | 49906 | 61427
6 | 13:39.03 | 2:34.00 | 61428 | 72977
7 | 16:13.03 | 3:31.00 | 72978 | 88802
8 | 19:44.03 | 2:43.65 | 88803 | 101092
9 | 22:27.68 | 3:08.04 | 101093 | 115196
10 | 25:35.72 | 2:26.64 | 115197 | 126210
11 | 28:02.61 | 2:46.45 | 126211 | 138705
12 | 30:49.31 | 2:55.62 | 138706 | 151892
13 | 33:45.18 | 2:01.47 | 151893 | 161014
14 | 35:46.65 | 2:55.39 | 161015 | 174178
15 | 38:42.29 | 3:13.57 | 174179 | 188710
16 | 41:56.11 | 4:22.38 | 188711 | 208398
17 | 46:18.49 | 2:53.48 | 208399 | 221421
18 | 49:12.22 | 2:41.12 | 221422 | 233508
19 | 51:53.34 | 2:18.49 | 233509 | 243907
20 | 54:12.08 | 3:57.51 | 243908 | 261733
21 | 58:09.59 | 2:43.16 | 261734 | 273974
22 | 60:53.00 | 5:30.02 | 273975 | 298726


Track 1

Filename D:\_EAC\Quincy Jones - Songs From Pussycats & Quincy In Rio (1960-66) [FLAC] {Verve Jazzclub Originals rel 2012}\01 - What's New Pussycat.wav

Pre-gap length 0:00:02.00

Peak level 96.5 %
Extraction speed 1.0 X
Track quality 100.0 %
Test CRC BD6C734B
Copy CRC BD6C734B
Accurately ripped (confidence 11) [BBE4EFF1] (AR v2)
Copy OK

Track 2

Filename D:\_EAC\Quincy Jones - Songs From Pussycats & Quincy In Rio (1960-66) [FLAC] {Verve Jazzclub Originals rel 2012}\02 - A Taste Of Honey.wav

Pre-gap length 0:00:01.28

Peak level 98.8 %
Extraction speed 1.0 X
Track quality 100.0 %
Test CRC F363F9D4
Copy CRC F363F9D4
Accurately ripped (confidence 11) [20D54D2A] (AR v2)
Copy OK

Track 3

Filename D:\_EAC\Quincy Jones - Songs From Pussycats & Quincy In Rio (1960-66) [FLAC] {Verve Jazzclub Originals rel 2012}\03 - Sermonette.wav

Pre-gap length 0:00:01.28

Peak level 98.8 %
Extraction speed 1.1 X
Track quality 100.0 %
Test CRC 612969BE
Copy CRC 612969BE
Accurately ripped (confidence 11) [D120812C] (AR v2)
Copy OK

Track 4

Filename D:\_EAC\Quincy Jones - Songs From Pussycats & Quincy In Rio (1960-66) [FLAC] {Verve Jazzclub Originals rel 2012}\04 - A Walk In The Black Forest.wav

Pre-gap length 0:00:01.14

Peak level 92.2 %
Extraction speed 1.2 X
Track quality 100.0 %
Test CRC 997DF092
Copy CRC 997DF092
Accurately ripped (confidence 11) [100AAD85] (AR v2)
Copy OK

Track 5

Filename D:\_EAC\Quincy Jones - Songs From Pussycats & Quincy In Rio (1960-66) [FLAC] {Verve Jazzclub Originals rel 2012}\05 - Mack The Knife.wav

Pre-gap length 0:00:01.15

Peak level 98.7 %
Extraction speed 1.2 X
Track quality 100.0 %
Test CRC DE466BEC
Copy CRC DE466BEC
Accurately ripped (confidence 11) [681DABDA] (AR v2)
Copy OK

Track 6

Filename D:\_EAC\Quincy Jones - Songs From Pussycats & Quincy In Rio (1960-66) [FLAC] {Verve Jazzclub Originals rel 2012}\06 - Moon River.wav

Pre-gap length 0:00:01.28

Peak level 98.8 %
Extraction speed 1.0 X
Track quality 99.9 %
Test CRC 29074494
Copy CRC 29074494
Accurately ripped (confidence 11) [26E991FB] (AR v2)
Copy OK

Track 7

Filename D:\_EAC\Quincy Jones - Songs From Pussycats & Quincy In Rio (1960-66) [FLAC] {Verve Jazzclub Originals rel 2012}\07 - Take Five.wav

Pre-gap length 0:00:01.16

Peak level 98.8 %
Extraction speed 1.4 X
Track quality 100.0 %
Test CRC 5F1F9542
Copy CRC 5F1F9542
Accurately ripped (confidence 11) [0F5BDE34] (AR v2)
Copy OK

Track 8

Filename D:\_EAC\Quincy Jones - Songs From Pussycats & Quincy In Rio (1960-66) [FLAC] {Verve Jazzclub Originals rel 2012}\08 - Gravy Waltz.wav

Pre-gap length 0:00:01.06

Peak level 98.8 %
Extraction speed 1.3 X
Track quality 100.0 %
Test CRC 77AEE3BF
Copy CRC 77AEE3BF
Accurately ripped (confidence 11) [AEE2F8D7] (AR v2)
Copy OK

Track 9

Filename D:\_EAC\Quincy Jones - Songs From Pussycats & Quincy In Rio (1960-66) [FLAC] {Verve Jazzclub Originals rel 2012}\09 - I Hear A Symphony.wav

Pre-gap length 0:00:01.39

Peak level 91.2 %
Extraction speed 1.4 X
Track quality 100.0 %
Test CRC 5919B00E
Copy CRC 5919B00E
Accurately ripped (confidence 11) [43333265] (AR v2)
Copy OK

Track 10

Filename D:\_EAC\Quincy Jones - Songs From Pussycats & Quincy In Rio (1960-66) [FLAC] {Verve Jazzclub Originals rel 2012}\10 - Mr. Lucky.wav

Pre-gap length 0:00:01.36

Peak level 98.8 %
Extraction speed 1.4 X
Track quality 100.0 %
Test CRC A9C0134E
Copy CRC A9C0134E
Accurately ripped (confidence 11) [742080DC] (AR v2)
Copy OK

Track 11

Filename D:\_EAC\Quincy Jones - Songs From Pussycats & Quincy In Rio (1960-66) [FLAC] {Verve Jazzclub Originals rel 2012}\11 - Cast Your Fate To The Wind.wav

Pre-gap length 0:00:01.36

Peak level 98.8 %
Extraction speed 1.4 X
Track quality 100.0 %
Test CRC 3ECCBAB4
Copy CRC 3ECCBAB4
Accurately ripped (confidence 11) [8DD6B620] (AR v2)
Copy OK

Track 12

Filename D:\_EAC\Quincy Jones - Songs From Pussycats & Quincy In Rio (1960-66) [FLAC] {Verve Jazzclub Originals rel 2012}\12 - Manha De Carnaval.wav

Pre-gap length 0:00:01.29

Peak level 98.8 %
Extraction speed 1.4 X
Track quality 100.0 %
Test CRC 4476CD01
Copy CRC 4476CD01
Accurately ripped (confidence 11) [29679F5F] (AR v2)
Copy OK

Track 13

Filename D:\_EAC\Quincy Jones - Songs From Pussycats & Quincy In Rio (1960-66) [FLAC] {Verve Jazzclub Originals rel 2012}\13 - Samba De Una Nota So (One Note Samba).wav

Pre-gap length 0:00:01.18

Peak level 98.8 %
Extraction speed 1.4 X
Track quality 100.0 %
Test CRC 32CCC376
Copy CRC 32CCC376
Accurately ripped (confidence 11) [0ED199FF] (AR v2)
Copy OK

Track 14

Filename D:\_EAC\Quincy Jones - Songs From Pussycats & Quincy In Rio (1960-66) [FLAC] {Verve Jazzclub Originals rel 2012}\14 - Desafinado.wav

Pre-gap length 0:00:01.04

Peak level 92.2 %
Extraction speed 1.5 X
Track quality 100.0 %
Test CRC 1AA451B3
Copy CRC 1AA451B3
Accurately ripped (confidence 11) [7B8378C2] (AR v2)
Copy OK

Track 15

Filename D:\_EAC\Quincy Jones - Songs From Pussycats & Quincy In Rio (1960-66) [FLAC] {Verve Jazzclub Originals rel 2012}\15 - Bossa Nova U.S.A..wav

Pre-gap length 0:00:01.51

Peak level 98.8 %
Extraction speed 1.6 X
Track quality 100.0 %
Test CRC 5673BD6D
Copy CRC 5673BD6D
Accurately ripped (confidence 11) [3587885B] (AR v2)
Copy OK

Track 16

Filename D:\_EAC\Quincy Jones - Songs From Pussycats & Quincy In Rio (1960-66) [FLAC] {Verve Jazzclub Originals rel 2012}\16 - Se E Tarde Me Pardoa (Pardon Me If I'm Late).wav

Pre-gap length 0:00:01.49

Peak level 86.1 %
Extraction speed 1.7 X
Track quality 100.0 %
Test CRC 7404008E
Copy CRC 7404008E
Accurately ripped (confidence 11) [42805372] (AR v2)
Copy OK

Track 17

Filename D:\_EAC\Quincy Jones - Songs From Pussycats & Quincy In Rio (1960-66) [FLAC] {Verve Jazzclub Originals rel 2012}\17 - (I Love You) And Don't You Forget It.wav

Pre-gap length 0:00:01.09

Peak level 98.8 %
Extraction speed 1.3 X
Track quality 99.9 %
Test CRC C753467D
Copy CRC C753467D
Accurately ripped (confidence 11) [04CD625B] (AR v2)
Copy OK

Track 18

Filename D:\_EAC\Quincy Jones - Songs From Pussycats & Quincy In Rio (1960-66) [FLAC] {Verve Jazzclub Originals rel 2012}\18 - Non-Stop To Brazil.wav

Pre-gap length 0:00:01.39

Peak level 80.7 %
Extraction speed 1.6 X
Track quality 100.0 %
Test CRC 7AA5AD85
Copy CRC 7AA5AD85
Accurately ripped (confidence 11) [89F022C5] (AR v2)
Copy OK

Track 19

Filename D:\_EAC\Quincy Jones - Songs From Pussycats & Quincy In Rio (1960-66) [FLAC] {Verve Jazzclub Originals rel 2012}\19 - The Gentle Rain.wav

Pre-gap length 0:00:01.30

Peak level 92.5 %
Extraction speed 1.6 X
Track quality 100.0 %
Test CRC 0723343F
Copy CRC 0723343F
Accurately ripped (confidence 11) [9C64358D] (AR v2)
Copy OK

Track 20

Filename D:\_EAC\Quincy Jones - Songs From Pussycats & Quincy In Rio (1960-66) [FLAC] {Verve Jazzclub Originals rel 2012}\20 - Baia.wav

Pre-gap length 0:00:01.31

Peak level 98.8 %
Extraction speed 1.6 X
Track quality 99.9 %
Test CRC F3F77C92
Copy CRC F3F77C92
Accurately ripped (confidence 11) [BB721600] (AR v2)
Copy OK

Track 21

Filename D:\_EAC\Quincy Jones - Songs From Pussycats & Quincy In Rio (1960-66) [FLAC] {Verve Jazzclub Originals rel 2012}\21 - Jive Samba.wav

Pre-gap length 0:00:01.38

Peak level 98.8 %
Extraction speed 1.7 X
Track quality 100.0 %
Test CRC B488016A
Copy CRC B488016A
Accurately ripped (confidence 11) [79F2F187] (AR v2)
Copy OK

Track 22

Filename D:\_EAC\Quincy Jones - Songs From Pussycats & Quincy In Rio (1960-66) [FLAC] {Verve Jazzclub Originals rel 2012}\22 - Chega De Saudade (No More Blues).wav

Pre-gap length 0:00:01.18

Peak level 96.1 %
Extraction speed 1.8 X
Track quality 99.9 %
Test CRC 5BFCB72F
Copy CRC 5BFCB72F
Accurately ripped (confidence 11) [BB74DF7D] (AR v2)
Copy OK


All tracks accurately ripped

No errors occurred

End of status report

==== Log checksum A124F7B15B2FD9B7F3A92AC432A258F806330EC6B91A593AD7E6D34268F931A5 ====


Quincy Jones - Songs From Pussycats & Quincy In Rio (1960-66) {Verve Jazzclub Originals rel 2012}

Quincy Jones - Songs From Pussycats & Quincy In Rio (1960-66) {Verve Jazzclub Originals rel 2012}



===