Tags
Language
Tags

Robert Fripp - Pie Jesu (1997) {Discipline Global Mobile DGM9704}

Posted By: ruskaval
Robert Fripp - Pie Jesu (1997) {Discipline Global Mobile DGM9704}

Robert Fripp - Pie Jesu (1997) {Discipline Global Mobile DGM9704}
EAC rip (secure mode) | FLAC (tracks)+CUE+LOG -> 122 Mb | MP3 @320 -> 57 Mb
Full Artwork @ 600 dpi (jpg) -> 49 Mb | 5% repair rar
© 1997 Robert Fripp / Discipline Global Mobile | DGM9704
Experimental / Art Rock / Ambient / Electro-Acoustic / Instrumental / Guitars

Robert Fripp's beautiful but brief compilation, Pie Jesu, features material from A Blessing of Tears and The Gates of Paradise; the CD acts as an appealing, accessible introduction to his contemporary Frippertronics, which Fripp appropriately terms "Soundscapes." The music, created entirely from guitar and effects, including loops, delay, and repetition, is easy to consume and digest – a very comfortable, tranquil, flowing sound, somewhat different from his '70s Frippertronics excursions. While some critics have inappropriately termed/described his Soundscapes series as new age music, it is far from it. Fripp has been experimenting with these sounds through a variety of structures and presentations for more than 25 years.

By labeling his music new age, critics are not only unjustly describing his music, but also doing a disservice to potential audiences, leading the uninitiated to a view worlds away from Fripp's textural intentions. New age music has never employed or incorporated the devices, colors and tones that Fripp has created for his unique sound. His "Soundscapes" term is musically apropos; through this music, Fripp creates sonic landscapes – very textured, layered, multi-hued sounds, much more akin to Brian Eno's environmental/ambient projects than anything in the new age vein. Clearly, a more personal, passionate Fripp shines through in his '90s solo efforts. Fripp has always been viewed as a very intense and spiritual character, and his Soundscapes expressions seem to exhibit music that originates quite close to the heart.

Personnel:
Robert Fripp - guitar and effects

tracklist:
01 - Pie Jesu
02 - Midnight Blue
03 - Abandonment To Divine Providence
04 - Sometimes God Hides

Exact Audio Copy V1.0 beta 1 from 15. November 2010

EAC extraction logfile from 1. September 2011, 22:03

Robert Fripp / Pie Jesu

Used drive : Optiarc DVD RW AD-7200A Adapter: 0 ID: 0

Read mode : Secure
Utilize accurate stream : Yes
Defeat audio cache : Yes
Make use of C2 pointers : No

Read offset correction : 48
Overread into Lead-In and Lead-Out : No
Fill up missing offset samples with silence : Yes
Delete leading and trailing silent blocks : No
Null samples used in CRC calculations : Yes
Used interface : Installed external ASPI interface
Gap handling : Appended to previous track

Used output format : User Defined Encoder
Selected bitrate : 768 kBit/s
Quality : High
Add ID3 tag : No
Command line compressor : C:\Program Files\EAC New\Exact Audio Copy\Flac\flac.exe
Additional command line options : -8 -V -T "ARTIST=%a" -T "TITLE=%t" -T "ALBUM=%g" -T "DATE=%y" -T "TRACKNUMBER=%n" -T "TOTALTRACKS=%x" -T "GENRE=%m" -T "ALBUMARTIST=%v" -T "ALBUM ARTIST=%v" -T "COMMENT=EAC Secure Mode, Test & Copy, AccurateRip, FLAC -8" %s


TOC of the extracted CD

Track | Start | Length | Start sector | End sector
––––––––––––––––––––––––––––-
1 | 0:00.32 | 8:36.40 | 32 | 38771
2 | 8:36.72 | 4:33.45 | 38772 | 59291
3 | 13:10.42 | 4:26.40 | 59292 | 79281
4 | 17:37.07 | 6:47.15 | 79282 | 109821


Track 1

Filename L:\Work\Robert Fripp - Pie Jesu (1997) [FLAC] {CD-EP DGM9704}\01 - Pie Jesu.wav

Pre-gap length 0:00:02.32

Peak level 99.8 %
Extraction speed 2.6 X
Track quality 100.0 %
Test CRC 4FCE4D0B
Copy CRC 4FCE4D0B
Accurately ripped (confidence 3) [47B93F2E]
Copy OK

Track 2

Filename L:\Work\Robert Fripp - Pie Jesu (1997) [FLAC] {CD-EP DGM9704}\02 - Midnight Blue.wav

Peak level 87.2 %
Extraction speed 2.6 X
Track quality 99.9 %
Test CRC 3509AD63
Copy CRC 3509AD63
Accurately ripped (confidence 3) [7B88895E]
Copy OK

Track 3

Filename L:\Work\Robert Fripp - Pie Jesu (1997) [FLAC] {CD-EP DGM9704}\03 - Abandonment To Divine Providence.wav

Pre-gap length 0:00:02.47

Peak level 79.7 %
Extraction speed 3.1 X
Track quality 100.0 %
Test CRC C7B61A00
Copy CRC C7B61A00
Accurately ripped (confidence 3) [53C2E382]
Copy OK

Track 4

Filename L:\Work\Robert Fripp - Pie Jesu (1997) [FLAC] {CD-EP DGM9704}\04 - Sometimes God Hides.wav

Pre-gap length 0:00:05.30

Peak level 66.9 %
Extraction speed 3.6 X
Track quality 100.0 %
Test CRC 3EEDE79E
Copy CRC 3EEDE79E
Accurately ripped (confidence 3) [7C3DFDA6]
Copy OK


All tracks accurately ripped

No errors occurred

End of status report

==== Log checksum 2C3EDF3FB08EE12B54502BD40ECC351990403F963FBC3733241EAA40058CC204 ====


Robert Fripp - Pie Jesu (1997) {Discipline Global Mobile DGM9704}

Robert Fripp - Pie Jesu (1997) {Discipline Global Mobile DGM9704}



===