Subcategories

Robert Reed - Cursus (A Symphonic Poem) (Bonus CD) (2020)

Posted By: delpotro
Robert Reed - Cursus (A Symphonic Poem) (Bonus CD) (2020)

Robert Reed - Cursus (A Symphonic Poem) (Bonus CD) (2020)
XLD Rip | FLAC (tracks+log+.cue) - 176 Mb | MP3 CBR 320 kbps - 92 Mb | 00:39:52
Progressive Electronic | Label: Tigermoth Records

Bonus disc from new release - inspiration from Jarre & Tangerine Dream! Narration by Les Penning.

I‘ve been working hard finishing my new Sanctuary IV album, but I needed a break to clean the musical palate, so I really felt the need to do something completely different," he explains. "At the age of eight, I received two albums for Christmas: The Sound of Music and Tubular Bells. The later album helped define my musical path. But that same Christmas, my brother received Jean-Michel Jarre’s Oxygene, which I soon borrowed and played to death.

"Over the years, and especially of late, I’ve realised how much I have also been impacted by electronic music; from Jarre to Vangelis, from Ultravox to Depeche Mode, and from John Carpenter to Tangerine Dream. So I went out and bought a collection of old analogue synthesisers and this is the album that resulted, which I hope is one that captures the emotion and warmth."

Cursus 123 430 is a concept album, written by Reed‘s sometime collaborator Les Penning, who has also acted as narrator. Reed has also commissioned acclaimed artists Matt Rooke and Peter Rogers to construct a graphic novel as the ultimate companion to the music.
Tracklist:
1. Cursus (A Symphonic Poem)
2. Stoneglow Warnings (Sanctuary Remix)
3. Man Of Sight And Feathers (Single Remix)
4. Stalemate (Single Remix)
5. Witness (Piano Demo)
6. Man Of Sight And Feathers (Piano Demo)

X Lossless Decoder version 20191004 (152.0)

XLD extraction logfile from 2020-11-20 13:19:39 +0000

Robert Reed / Cursus: A Symphonic Poem EP

Used drive : MATSHITA BD-MLT UJ240AF (revision 1.00)
Media type : Pressed CD

Ripper mode : XLD Secure Ripper
Disable audio cache : OK for the drive with a cache less than 1375KiB
Make use of C2 pointers : NO
Read offset correction : 103
Max retry count : 25
Gap status : Analyzed, Appended (except HTOA)

TOC of the extracted CD
Track | Start | Length | Start sector | End sector
––––––––––––––––––––––––––––-
1 | 00:00:00 | 18:45:25 | 0 | 84399
2 | 18:45:25 | 04:53:70 | 84400 | 106444
3 | 23:39:20 | 05:37:07 | 106445 | 131726
4 | 29:16:27 | 03:22:53 | 131727 | 146929
5 | 32:39:05 | 03:08:39 | 146930 | 161068
6 | 35:47:44 | 04:04:56 | 161069 | 179424

AccurateRip Summary
Disc not found in AccurateRip DB.

All Tracks
Album gain : -1.70 dB
Peak : 0.999969
Statistics
Read error : 0
Jitter error (maybe fixed) : 0
Retry sector count : 0
Damaged sector count : 0

Track 01
Filename : /Users/imac/Working Folder/XLD/Robert Reed - Cursus- A Symphonic Poem EP (2020) [FLAC]/01 - Robert Reed - Cursus- A Symphonic Poem.flac
/Users/imac/Working Folder/XLD/Robert Reed - Cursus- A Symphonic Poem EP (2020) [MP3-320]/01 - Robert Reed - Cursus- A Symphonic Poem.mp3
/Users/imac/Working Folder/XLD/Robert Reed - Cursus- A Symphonic Poem EP (2020) [MP3-V0]/01 - Robert Reed - Cursus- A Symphonic Poem.mp3
Pre-gap length : 00:02:00

Track gain : -2.21 dB
Peak : 0.999969
CRC32 hash (test run) : 4480E4B8
CRC32 hash : 4480E4B8
CRC32 hash (skip zero) : EB571330
AccurateRip v1 signature : F94E81BA
AccurateRip v2 signature : 092AD861
->Track not present in AccurateRip database.
Statistics
Read error : 0
Jitter error (maybe fixed) : 0
Retry sector count : 0
Damaged sector count : 0

Track 02
Filename : /Users/imac/Working Folder/XLD/Robert Reed - Cursus- A Symphonic Poem EP (2020) [FLAC]/02 - Robert Reed - Stoneglow Warnings (Sanctuary Remix).flac
/Users/imac/Working Folder/XLD/Robert Reed - Cursus- A Symphonic Poem EP (2020) [MP3-320]/02 - Robert Reed - Stoneglow Warnings (Sanctuary Remix).mp3
/Users/imac/Working Folder/XLD/Robert Reed - Cursus- A Symphonic Poem EP (2020) [MP3-V0]/02 - Robert Reed - Stoneglow Warnings (Sanctuary Remix).mp3
Pre-gap length : 00:04:39

Track gain : -0.52 dB
Peak : 0.662445
CRC32 hash (test run) : A9B65578
CRC32 hash : A9B65578
CRC32 hash (skip zero) : 58EA40EC
AccurateRip v1 signature : 3C9CC896
AccurateRip v2 signature : 011E1C97
->Track not present in AccurateRip database.
Statistics
Read error : 0
Jitter error (maybe fixed) : 0
Retry sector count : 0
Damaged sector count : 0

Track 03
Filename : /Users/imac/Working Folder/XLD/Robert Reed - Cursus- A Symphonic Poem EP (2020) [FLAC]/03 - Robert Reed - Man of Sight and Feathers (Single Remix).flac
/Users/imac/Working Folder/XLD/Robert Reed - Cursus- A Symphonic Poem EP (2020) [MP3-320]/03 - Robert Reed - Man of Sight and Feathers (Single Remix).mp3
/Users/imac/Working Folder/XLD/Robert Reed - Cursus- A Symphonic Poem EP (2020) [MP3-V0]/03 - Robert Reed - Man of Sight and Feathers (Single Remix).mp3
Pre-gap length : 00:00:01

Track gain : -2.89 dB
Peak : 0.796356
CRC32 hash (test run) : 21834A2C
CRC32 hash : 21834A2C
CRC32 hash (skip zero) : 082D3EEB
AccurateRip v1 signature : 080807E0
AccurateRip v2 signature : 8C15EACE
->Track not present in AccurateRip database.
Statistics
Read error : 0
Jitter error (maybe fixed) : 0
Retry sector count : 0
Damaged sector count : 0

Track 04
Filename : /Users/imac/Working Folder/XLD/Robert Reed - Cursus- A Symphonic Poem EP (2020) [FLAC]/04 - Robert Reed - Stalemate (Single Remix).flac
/Users/imac/Working Folder/XLD/Robert Reed - Cursus- A Symphonic Poem EP (2020) [MP3-320]/04 - Robert Reed - Stalemate (Single Remix).mp3
/Users/imac/Working Folder/XLD/Robert Reed - Cursus- A Symphonic Poem EP (2020) [MP3-V0]/04 - Robert Reed - Stalemate (Single Remix).mp3
Pre-gap length : 00:00:01

Track gain : -3.21 dB
Peak : 0.823975
CRC32 hash (test run) : 4DD3EDC6
CRC32 hash : 4DD3EDC6
CRC32 hash (skip zero) : 9B5EC03B
AccurateRip v1 signature : 169172BD
AccurateRip v2 signature : A01CA66B
->Track not present in AccurateRip database.
Statistics
Read error : 0
Jitter error (maybe fixed) : 0
Retry sector count : 0
Damaged sector count : 0

Track 05
Filename : /Users/imac/Working Folder/XLD/Robert Reed - Cursus- A Symphonic Poem EP (2020) [FLAC]/05 - Robert Reed - Witness (Piano Demo).flac
/Users/imac/Working Folder/XLD/Robert Reed - Cursus- A Symphonic Poem EP (2020) [MP3-320]/05 - Robert Reed - Witness (Piano Demo).mp3
/Users/imac/Working Folder/XLD/Robert Reed - Cursus- A Symphonic Poem EP (2020) [MP3-V0]/05 - Robert Reed - Witness (Piano Demo).mp3
Pre-gap length : 00:02:54

Track gain : 2.92 dB
Peak : 0.508881
CRC32 hash (test run) : 36D1D2B3
CRC32 hash : 36D1D2B3
CRC32 hash (skip zero) : 97AC45AF
AccurateRip v1 signature : 4F797B3F
AccurateRip v2 signature : 8655993A
->Track not present in AccurateRip database.
Statistics
Read error : 0
Jitter error (maybe fixed) : 0
Retry sector count : 0
Damaged sector count : 0

Track 06
Filename : /Users/imac/Working Folder/XLD/Robert Reed - Cursus- A Symphonic Poem EP (2020) [FLAC]/06 - Robert Reed - Man of Sight and Feathers (Piano Demo).flac
/Users/imac/Working Folder/XLD/Robert Reed - Cursus- A Symphonic Poem EP (2020) [MP3-320]/06 - Robert Reed - Man of Sight and Feathers (Piano Demo).mp3
/Users/imac/Working Folder/XLD/Robert Reed - Cursus- A Symphonic Poem EP (2020) [MP3-V0]/06 - Robert Reed - Man of Sight and Feathers (Piano Demo).mp3
Pre-gap length : 00:01:68

Track gain : 3.04 dB
Peak : 0.556549
CRC32 hash (test run) : 46A68166
CRC32 hash : 46A68166
CRC32 hash (skip zero) : 2A23FEF8
AccurateRip v1 signature : 4DE73CFF
AccurateRip v2 signature : 21A4C67B
->Track not present in AccurateRip database.
Statistics
Read error : 0
Jitter error (maybe fixed) : 0
Retry sector count : 0
Damaged sector count : 0

No errors occurred

End of status report

––-BEGIN XLD SIGNATURE––-
blPt4HEA_eL_MTObdAnkrNzSgfAEyNoZtMxtwOzxoHjHNLTmeYHQizVUJQRnETy.fM_GaNsOmrbk.ywJdgVlcTgwR5ytf1y9qQqffGe
––-END XLD SIGNATURE––-

Thanks to the Original ripper swampsnake !