Subcategories

Robert Reed - Cursus 123 430 (2020)

Posted By: delpotro
Robert Reed - Cursus 123 430 (2020)

Robert Reed - Cursus 123 430 (2020)
XLD Rip | FLAC (tracks+log+.cue) - 281 Mb | MP3 CBR 320 kbps - 130 Mb | 00:56:02
Progressive Electronic | Label: Tigermoth Records

Inspiration from Jarre & Tangerine Dream on new release! Narration by Les Penning.

"I‘ve been working hard finishing my new Sanctuary IV album, but I needed a break to clean the musical palate, so I really felt the need to do something completely different," he explains. "At the age of eight, I received two albums for Christmas: The Sound of Music and Tubular Bells. The later album helped define my musical path. But that same Christmas, my brother received Jean-Michel Jarre’s Oxygene, which I soon borrowed and played to death.

"Over the years, and especially of late, I’ve realised how much I have also been impacted by electronic music; from Jarre to Vangelis, from Ultravox to Depeche Mode, and from John Carpenter to Tangerine Dream. So I went out and bought a collection of old analogue synthesisers and this is the album that resulted, which I hope is one that captures the emotion and warmth."

Cursus 123 430 is a concept album, written by Reed‘s sometime collaborator Les Penning, who has also acted as narrator. Reed has also commissioned acclaimed artists Matt Rooke and Peter Rogers to construct a graphic novel as the ultimate companion to the music.
Tracklist:
1. Erthynge
2. The Hawk And The Harbinger Of Doom
3. Stoneborn Watchers
4. The Man Of Sight And Feathers
5. Witness
6. Stoneglow Warnings
7. Stalemate
8. Dust And Flowers In A Lost Eden
9. Gatherings At Farwell Places

X Lossless Decoder version 20191004 (152.0)

XLD extraction logfile from 2020-11-20 12:10:19 +0000

Robert Reed / Cursus 123 430

Used drive : MATSHITA BD-MLT UJ240AF (revision 1.00)
Media type : Pressed CD

Ripper mode : XLD Secure Ripper
Disable audio cache : OK for the drive with a cache less than 1375KiB
Make use of C2 pointers : NO
Read offset correction : 103
Max retry count : 25
Gap status : Analyzed, Appended (except HTOA)

TOC of the extracted CD
Track | Start | Length | Start sector | End sector
––––––––––––––––––––––––––––-
1 | 00:00:00 | 08:18:39 | 0 | 37388
2 | 08:18:39 | 01:19:69 | 37389 | 43382
3 | 09:38:33 | 05:24:18 | 43383 | 67700
4 | 15:02:51 | 08:07:62 | 67701 | 104287
5 | 23:10:38 | 04:39:05 | 104288 | 125217
6 | 27:49:43 | 06:31:22 | 125218 | 154564
7 | 34:20:65 | 05:05:21 | 154565 | 177460
8 | 39:26:11 | 00:53:42 | 177461 | 181477
9 | 40:19:53 | 07:34:45 | 181478 | 215572
10 | 47:54:23 | 08:08:46 | 215573 | 252218

AccurateRip Summary
Disc not found in AccurateRip DB.

All Tracks
Album gain : -3.88 dB
Peak : 0.983887
Statistics
Read error : 0
Jitter error (maybe fixed) : 0
Retry sector count : 0
Damaged sector count : 0

Track 01
Filename : /Users/imac/Working Folder/XLD/Robert Reed - Cursus 123 430 (2020) [FLAC]/01 - Robert Reed - Erthhynge.flac
/Users/imac/Working Folder/XLD/Robert Reed - Cursus 123 430 (2020) [MP3-320]/01 - Robert Reed - Erthhynge.mp3
/Users/imac/Working Folder/XLD/Robert Reed - Cursus 123 430 (2020) [MP3-V0]/01 - Robert Reed - Erthhynge.mp3
Pre-gap length : 00:02:00

Track gain : -4.86 dB
Peak : 0.941040
CRC32 hash (test run) : B864D281
CRC32 hash : B864D281
CRC32 hash (skip zero) : DAFC9D6C
AccurateRip v1 signature : D6C6F8BB
AccurateRip v2 signature : 073C1572
->Track not present in AccurateRip database.
Statistics
Read error : 0
Jitter error (maybe fixed) : 0
Retry sector count : 0
Damaged sector count : 0

Track 02
Filename : /Users/imac/Working Folder/XLD/Robert Reed - Cursus 123 430 (2020) [FLAC]/02 - Robert Reed - The Hawk and the Harbinger of Dawn.flac
/Users/imac/Working Folder/XLD/Robert Reed - Cursus 123 430 (2020) [MP3-320]/02 - Robert Reed - The Hawk and the Harbinger of Dawn.mp3
/Users/imac/Working Folder/XLD/Robert Reed - Cursus 123 430 (2020) [MP3-V0]/02 - Robert Reed - The Hawk and the Harbinger of Dawn.mp3
Pre-gap length : 00:00:01

Track gain : 2.61 dB
Peak : 0.596527
CRC32 hash (test run) : D88FE460
CRC32 hash : D88FE460
CRC32 hash (skip zero) : 00ED3762
AccurateRip v1 signature : C695DCA2
AccurateRip v2 signature : 1B3A093E
->Track not present in AccurateRip database.
Statistics
Read error : 0
Jitter error (maybe fixed) : 0
Retry sector count : 0
Damaged sector count : 0

Track 03
Filename : /Users/imac/Working Folder/XLD/Robert Reed - Cursus 123 430 (2020) [FLAC]/03 - Robert Reed - Stoneborn Watchers.flac
/Users/imac/Working Folder/XLD/Robert Reed - Cursus 123 430 (2020) [MP3-320]/03 - Robert Reed - Stoneborn Watchers.mp3
/Users/imac/Working Folder/XLD/Robert Reed - Cursus 123 430 (2020) [MP3-V0]/03 - Robert Reed - Stoneborn Watchers.mp3
Pre-gap length : 00:00:01

Track gain : -2.25 dB
Peak : 0.880035
CRC32 hash (test run) : 84AFC3D2
CRC32 hash : 84AFC3D2
CRC32 hash (skip zero) : EEE6E0C0
AccurateRip v1 signature : 1120A131
AccurateRip v2 signature : 878507B6
->Track not present in AccurateRip database.
Statistics
Read error : 0
Jitter error (maybe fixed) : 0
Retry sector count : 0
Damaged sector count : 0

Track 04
Filename : /Users/imac/Working Folder/XLD/Robert Reed - Cursus 123 430 (2020) [FLAC]/04 - Robert Reed - The Man of Sight and Feathers.flac
/Users/imac/Working Folder/XLD/Robert Reed - Cursus 123 430 (2020) [MP3-320]/04 - Robert Reed - The Man of Sight and Feathers.mp3
/Users/imac/Working Folder/XLD/Robert Reed - Cursus 123 430 (2020) [MP3-V0]/04 - Robert Reed - The Man of Sight and Feathers.mp3
Pre-gap length : 00:00:01

Track gain : -3.21 dB
Peak : 0.940552
CRC32 hash (test run) : 04EE7E38
CRC32 hash : 04EE7E38
CRC32 hash (skip zero) : A2A92B0D
AccurateRip v1 signature : 4CD838A0
AccurateRip v2 signature : 7FC3E39C
->Track not present in AccurateRip database.
Statistics
Read error : 0
Jitter error (maybe fixed) : 0
Retry sector count : 0
Damaged sector count : 0

Track 05
Filename : /Users/imac/Working Folder/XLD/Robert Reed - Cursus 123 430 (2020) [FLAC]/05 - Robert Reed - Witness.flac
/Users/imac/Working Folder/XLD/Robert Reed - Cursus 123 430 (2020) [MP3-320]/05 - Robert Reed - Witness.mp3
/Users/imac/Working Folder/XLD/Robert Reed - Cursus 123 430 (2020) [MP3-V0]/05 - Robert Reed - Witness.mp3
Pre-gap length : 00:00:01

Track gain : -5.67 dB
Peak : 0.913940
CRC32 hash (test run) : 510037C0
CRC32 hash : 510037C0
CRC32 hash (skip zero) : 0CD7028E
AccurateRip v1 signature : 18EC016D
AccurateRip v2 signature : 453799B5
->Track not present in AccurateRip database.
Statistics
Read error : 0
Jitter error (maybe fixed) : 0
Retry sector count : 0
Damaged sector count : 0

Track 06
Filename : /Users/imac/Working Folder/XLD/Robert Reed - Cursus 123 430 (2020) [FLAC]/06 - Robert Reed - Stoneglow Warnings.flac
/Users/imac/Working Folder/XLD/Robert Reed - Cursus 123 430 (2020) [MP3-320]/06 - Robert Reed - Stoneglow Warnings.mp3
/Users/imac/Working Folder/XLD/Robert Reed - Cursus 123 430 (2020) [MP3-V0]/06 - Robert Reed - Stoneglow Warnings.mp3
Pre-gap length : 00:00:01

Track gain : -4.44 dB
Peak : 0.982971
CRC32 hash (test run) : 5A08D9A6
CRC32 hash : 5A08D9A6
CRC32 hash (skip zero) : 8E2D12E0
AccurateRip v1 signature : 20FC00A1
AccurateRip v2 signature : 7096192F
->Track not present in AccurateRip database.
Statistics
Read error : 0
Jitter error (maybe fixed) : 0
Retry sector count : 0
Damaged sector count : 0

Track 07
Filename : /Users/imac/Working Folder/XLD/Robert Reed - Cursus 123 430 (2020) [FLAC]/07 - Robert Reed - Stalemate.flac
/Users/imac/Working Folder/XLD/Robert Reed - Cursus 123 430 (2020) [MP3-320]/07 - Robert Reed - Stalemate.mp3
/Users/imac/Working Folder/XLD/Robert Reed - Cursus 123 430 (2020) [MP3-V0]/07 - Robert Reed - Stalemate.mp3
Pre-gap length : 00:00:01

Track gain : -3.03 dB
Peak : 0.948273
CRC32 hash (test run) : C228BCBC
CRC32 hash : C228BCBC
CRC32 hash (skip zero) : D76F4726
AccurateRip v1 signature : 3566B36D
AccurateRip v2 signature : 03F3151E
->Track not present in AccurateRip database.
Statistics
Read error : 0
Jitter error (maybe fixed) : 0
Retry sector count : 0
Damaged sector count : 0

Track 08
Filename : /Users/imac/Working Folder/XLD/Robert Reed - Cursus 123 430 (2020) [FLAC]/08 - Robert Reed - Dust and Flowers in a Lost Eden.flac
/Users/imac/Working Folder/XLD/Robert Reed - Cursus 123 430 (2020) [MP3-320]/08 - Robert Reed - Dust and Flowers in a Lost Eden.mp3
/Users/imac/Working Folder/XLD/Robert Reed - Cursus 123 430 (2020) [MP3-V0]/08 - Robert Reed - Dust and Flowers in a Lost Eden.mp3
Pre-gap length : 00:00:01

Track gain : -3.33 dB
Peak : 0.682617
CRC32 hash (test run) : E8FFD0B4
CRC32 hash : E8FFD0B4
CRC32 hash (skip zero) : 962BD14E
AccurateRip v1 signature : E807D5DF
AccurateRip v2 signature : 86FFAD29
->Track not present in AccurateRip database.
Statistics
Read error : 0
Jitter error (maybe fixed) : 0
Retry sector count : 0
Damaged sector count : 0

Track 09
Filename : /Users/imac/Working Folder/XLD/Robert Reed - Cursus 123 430 (2020) [FLAC]/09 - Robert Reed - Gatherings at Farewell Places.flac
/Users/imac/Working Folder/XLD/Robert Reed - Cursus 123 430 (2020) [MP3-320]/09 - Robert Reed - Gatherings at Farewell Places.mp3
/Users/imac/Working Folder/XLD/Robert Reed - Cursus 123 430 (2020) [MP3-V0]/09 - Robert Reed - Gatherings at Farewell Places.mp3
Pre-gap length : 00:00:01

Track gain : -4.04 dB
Peak : 0.965240
CRC32 hash (test run) : 14546E82
CRC32 hash : 14546E82
CRC32 hash (skip zero) : 50B9A0F0
AccurateRip v1 signature : 9B1836AD
AccurateRip v2 signature : D37DDFDB
->Track not present in AccurateRip database.
Statistics
Read error : 0
Jitter error (maybe fixed) : 0
Retry sector count : 0
Damaged sector count : 0

Track 10
Filename : /Users/imac/Working Folder/XLD/Robert Reed - Cursus 123 430 (2020) [FLAC]/10 - Robert Reed - Erthsheelde (I. Exodus Ii. the Odessy of Souls Iii. Erthynge).flac
/Users/imac/Working Folder/XLD/Robert Reed - Cursus 123 430 (2020) [MP3-320]/10 - Robert Reed - Erthsheelde (I. Exodus Ii. the Odessy of Souls Iii. Erthynge).mp3
/Users/imac/Working Folder/XLD/Robert Reed - Cursus 123 430 (2020) [MP3-V0]/10 - Robert Reed - Erthsheelde (I. Exodus Ii. the Odessy of Souls Iii. Erthynge).mp3
Pre-gap length : 00:00:01

Track gain : -3.50 dB
Peak : 0.983887
CRC32 hash (test run) : 653ACC1B
CRC32 hash : 653ACC1B
CRC32 hash (skip zero) : 7A061E57
AccurateRip v1 signature : A0151764
AccurateRip v2 signature : 9AE27B54
->Track not present in AccurateRip database.
Statistics
Read error : 0
Jitter error (maybe fixed) : 0
Retry sector count : 0
Damaged sector count : 0

No errors occurred

End of status report

––-BEGIN XLD SIGNATURE––-
_jVFHnmLvltf2MswCxoVadQtZ9MNm.d_u50xoMdnLaXAdPq8adISQlab089OrVrkhLt0WISiTplVNAF5OKhg1kCoEvLbsh177bFBSgm
––-END XLD SIGNATURE––-

Thanks to the Original ripper swampsnake !