Tags
Language
Tags

Roger Daltrey - The Who’s "Tommy" Orchestral (2019)

Posted By: delpotro
Roger Daltrey - The Who’s "Tommy" Orchestral (2019)

Roger Daltrey - The Who’s "Tommy" Orchestral (2019)
EAC Rip | FLAC (tracks+log+.cue) | 01:09:31 | 508 Mb
Classic Rock, Pop Rock | Label: Polydor Records

Celebrating 50 Years Of The Who’s Tommy. Performed by Roger Daltrey, with members of The Who band and the orchestra conducted by Keith Levenson with orchestration from David Campbell. 24 track live album recorded in Budapest and Bethel in upstate New York, the scene of the first Woodstock festival 50 years ago, was produced by Roger and Keith Levenson and features the core band of Simon Townshend – Vocals / Guitar, Frank Simes – Guitar, Scott Devours – Drums, Jon Button – Bass, and Loren Gold – keyboards, all of whom have played with The Who live. Keith Levenson conducted The Budapest Scoring Orchestra from new orchestrations by David Campbell.

Featuring a bold new orchestration by the renowned composer and arranger David Campbell (who has worked with Adele, Radiohead, Bob Dylan, Metallica, Carole King and his son Beck to name a few) this incarnation of Tommy celebrates the 50th anniversary of the album’s first release.
Tracklist:
1. Overture (Live) (05:41)
2. It's a Boy (Live) (00:40)
3. 1921 (Live) (02:56)
4. Amazing Journey (Live) (05:09)
5. Sparks (Live) (02:12)
6. Eyesight to the Blind (The Hawker) [Live] (02:21)
7. Christmas (Live) (04:40)
8. Cousin Kevin (Live) (03:51)
9. The Acid Queen (Live) (03:50)
10. Do You Think It's Alright? (Live) (00:25)
11. Fiddle About (Live) (01:40)
12. Pinball Wizard (Live) (03:18)
13. There's a Doctor (Live) (00:24)
14. Go to the Mirror (Live) (03:51)
15. Tommy, Can You Hear Me? (Live) (01:39)
16. Smash the Mirror (Live) (01:25)
17. Refrain - It's a Boy (Live) (00:29)
18. I'm Free (Live) (02:46)
19. Miracle Cure (Live) (00:13)
20. Sensation (Live) (03:07)
21. Sally Simpson / Gospel Piano Interlude (Live) (04:53)
22. Welcome (Live) (04:04)
23. Tommy's Holiday Camp (Live) (01:11)
24. We're Not Gonna Take It (Live) (08:31)

Exact Audio Copy V1.3 from 2. September 2016

EAC extraction logfile from 7. July 2021, 20:15

Roger Daltrey / The Who's "Tommy" Orchestral

Used drive : HL-DT-STBD-RE BH16NS55 Adapter: 1 ID: 0

Read mode : Secure
Utilize accurate stream : Yes
Defeat audio cache : Yes
Make use of C2 pointers : No

Read offset correction : 6
Overread into Lead-In and Lead-Out : No
Fill up missing offset samples with silence : Yes
Delete leading and trailing silent blocks : No
Null samples used in CRC calculations : Yes
Used interface : Native Win32 interface for Win NT & 2000
Gap handling : Appended to previous track

Used output format : User Defined Encoder
Selected bitrate : 1024 kBit/s
Quality : High
Add ID3 tag : No
Command line compressor : C:\Program Files (x86)\Exact Audio Copy\Flac\flac.exe
Additional command line options : -8 -V -T "ARTIST=%artist%" -T "TITLE=%title%" -T "ALBUM=%albumtitle%" -T "DATE=%year%" -T "TRACKNUMBER=%tracknr%" -T "GENRE=%genre%" -T "PERFORMER=%albuminterpret%" -T "COMPOSER=%composer%" %haslyrics%–tag-from-file=LYRICS="%lyricsfile%"%haslyrics% -T "ALBUMARTIST=%albumartist%" -T "DISCNUMBER=%cdnumber%" -T "TOTALDISCS=%totalcds%" -T "TOTALTRACKS=%numtracks%" -T "COMMENT=%comment%" %source% -o %dest%


TOC of the extracted CD

Track | Start | Length | Start sector | End sector
––––––––––––––––––––––––––––-
1 | 0:00.00 | 5:42.65 | 0 | 25714
2 | 5:42.65 | 0:40.59 | 25715 | 28773
3 | 6:23.49 | 2:56.74 | 28774 | 42047
4 | 9:20.48 | 5:09.44 | 42048 | 65266
5 | 14:30.17 | 2:12.35 | 65267 | 75201
6 | 16:42.52 | 2:21.25 | 75202 | 85801
7 | 19:04.02 | 4:40.63 | 85802 | 106864
8 | 23:44.65 | 3:51.15 | 106865 | 124204
9 | 27:36.05 | 3:50.54 | 124205 | 141508
10 | 31:26.59 | 0:25.67 | 141509 | 143450
11 | 31:52.51 | 1:40.09 | 143451 | 150959
12 | 33:32.60 | 3:18.41 | 150960 | 165850
13 | 36:51.26 | 0:24.71 | 165851 | 167721
14 | 37:16.22 | 3:51.12 | 167722 | 185058
15 | 41:07.34 | 1:39.36 | 185059 | 192519
16 | 42:46.70 | 1:25.38 | 192520 | 198932
17 | 44:12.33 | 0:29.20 | 198933 | 201127
18 | 44:41.53 | 2:46.02 | 201128 | 213579
19 | 47:27.55 | 0:13.63 | 213580 | 214617
20 | 47:41.43 | 3:07.54 | 214618 | 228696
21 | 50:49.22 | 4:53.08 | 228697 | 250679
22 | 55:42.30 | 4:04.26 | 250680 | 269005
23 | 59:46.56 | 1:11.26 | 269006 | 274356
24 | 60:58.07 | 8:33.67 | 274357 | 312898


Track 1

Filename F:\#EAC wav+flac\#Trump\Roger Daltrey - The Who's Tommy Orchestral\01. Roger Daltrey - Overture.wav

Pre-gap length 0:00:02.00

Peak level 98.6 %
Extraction speed 5.3 X
Track quality 100.0 %
Test CRC E2D434AE
Copy CRC E2D434AE
Accurately ripped (confidence 30) [2D7A9849] (AR v2)
Copy OK

Track 2

Filename F:\#EAC wav+flac\#Trump\Roger Daltrey - The Who's Tommy Orchestral\02. Roger Daltrey - It's A Boy.wav

Peak level 98.6 %
Extraction speed 1.9 X
Track quality 99.7 %
Test CRC CCC33DEC
Copy CRC CCC33DEC
Accurately ripped (confidence 31) [C6ECEED1] (AR v2)
Copy OK

Track 3

Filename F:\#EAC wav+flac\#Trump\Roger Daltrey - The Who's Tommy Orchestral\03. Roger Daltrey - 1921.wav

Peak level 98.6 %
Extraction speed 5.4 X
Track quality 100.0 %
Test CRC AF36AA1E
Copy CRC AF36AA1E
Accurately ripped (confidence 31) [4BB5ABA7] (AR v2)
Copy OK

Track 4

Filename F:\#EAC wav+flac\#Trump\Roger Daltrey - The Who's Tommy Orchestral\04. Roger Daltrey - Amazing Journey.wav

Peak level 98.6 %
Extraction speed 6.2 X
Track quality 100.0 %
Test CRC 196B7119
Copy CRC 196B7119
Accurately ripped (confidence 31) [44FC9568] (AR v2)
Copy OK

Track 5

Filename F:\#EAC wav+flac\#Trump\Roger Daltrey - The Who's Tommy Orchestral\05. Roger Daltrey - Sparks.wav

Peak level 98.6 %
Extraction speed 4.3 X
Track quality 99.9 %
Test CRC EE1E6A98
Copy CRC EE1E6A98
Accurately ripped (confidence 30) [FD13E935] (AR v2)
Copy OK

Track 6

Filename F:\#EAC wav+flac\#Trump\Roger Daltrey - The Who's Tommy Orchestral\06. Roger Daltrey - Eyesight To The Blind (The Hawker).wav

Peak level 98.6 %
Extraction speed 6.0 X
Track quality 100.0 %
Test CRC 0537A5AF
Copy CRC 0537A5AF
Accurately ripped (confidence 31) [824D7421] (AR v2)
Copy OK

Track 7

Filename F:\#EAC wav+flac\#Trump\Roger Daltrey - The Who's Tommy Orchestral\07. Roger Daltrey - Christmas.wav

Peak level 98.6 %
Extraction speed 6.0 X
Track quality 99.9 %
Test CRC 106948C4
Copy CRC 106948C4
Accurately ripped (confidence 31) [8EDF548A] (AR v2)
Copy OK

Track 8

Filename F:\#EAC wav+flac\#Trump\Roger Daltrey - The Who's Tommy Orchestral\08. Roger Daltrey - Cousin Kevin.wav

Peak level 98.6 %
Extraction speed 7.2 X
Track quality 100.0 %
Test CRC 89BD0EC9
Copy CRC 89BD0EC9
Accurately ripped (confidence 31) [F5304FC9] (AR v2)
Copy OK

Track 9

Filename F:\#EAC wav+flac\#Trump\Roger Daltrey - The Who's Tommy Orchestral\09. Roger Daltrey - The Acid Queen.wav

Peak level 98.6 %
Extraction speed 6.2 X
Track quality 99.9 %
Test CRC 7A4D7291
Copy CRC 7A4D7291
Accurately ripped (confidence 31) [D01F19FB] (AR v2)
Copy OK

Track 10

Filename F:\#EAC wav+flac\#Trump\Roger Daltrey - The Who's Tommy Orchestral\10. Roger Daltrey - Do You Think It's Alright.wav

Peak level 98.6 %
Extraction speed 1.9 X
Track quality 99.5 %
Test CRC 12AD4E6A
Copy CRC 12AD4E6A
Accurately ripped (confidence 31) [90551AB7] (AR v2)
Copy OK

Track 11

Filename F:\#EAC wav+flac\#Trump\Roger Daltrey - The Who's Tommy Orchestral\11. Roger Daltrey - Fiddle About.wav

Peak level 98.6 %
Extraction speed 6.5 X
Track quality 100.0 %
Test CRC 08DE3BBF
Copy CRC 08DE3BBF
Accurately ripped (confidence 31) [A6C83FB8] (AR v2)
Copy OK

Track 12

Filename F:\#EAC wav+flac\#Trump\Roger Daltrey - The Who's Tommy Orchestral\12. Roger Daltrey - Pinball Wizard.wav

Peak level 98.6 %
Extraction speed 6.2 X
Track quality 99.9 %
Test CRC 2E0D8A10
Copy CRC 2E0D8A10
Accurately ripped (confidence 31) [24863379] (AR v2)
Copy OK

Track 13

Filename F:\#EAC wav+flac\#Trump\Roger Daltrey - The Who's Tommy Orchestral\13. Roger Daltrey - There's A Doctor.wav

Peak level 98.6 %
Extraction speed 3.8 X
Track quality 100.0 %
Test CRC 7A90D7D7
Copy CRC 7A90D7D7
Accurately ripped (confidence 31) [B7E218EF] (AR v2)
Copy OK

Track 14

Filename F:\#EAC wav+flac\#Trump\Roger Daltrey - The Who's Tommy Orchestral\14. Roger Daltrey - Go To The Mirror.wav

Peak level 98.6 %
Extraction speed 8.2 X
Track quality 100.0 %
Test CRC 452C5D8D
Copy CRC 452C5D8D
Accurately ripped (confidence 31) [BA8095A3] (AR v2)
Copy OK

Track 15

Filename F:\#EAC wav+flac\#Trump\Roger Daltrey - The Who's Tommy Orchestral\15. Roger Daltrey - Tommy, Can You Hear Me.wav

Peak level 98.6 %
Extraction speed 7.3 X
Track quality 100.0 %
Test CRC 3E129682
Copy CRC 3E129682
Accurately ripped (confidence 31) [CBEDDAB2] (AR v2)
Copy OK

Track 16

Filename F:\#EAC wav+flac\#Trump\Roger Daltrey - The Who's Tommy Orchestral\16. Roger Daltrey - Smash The Mirror.wav

Peak level 98.6 %
Extraction speed 6.8 X
Track quality 100.0 %
Test CRC A338A149
Copy CRC A338A149
Accurately ripped (confidence 31) [5CD327AE] (AR v2)
Copy OK

Track 17

Filename F:\#EAC wav+flac\#Trump\Roger Daltrey - The Who's Tommy Orchestral\17. Roger Daltrey - Refrain - It's A Boy.wav

Peak level 86.6 %
Extraction speed 4.3 X
Track quality 100.0 %
Test CRC 765C9D25
Copy CRC 765C9D25
Accurately ripped (confidence 31) [86F96C6F] (AR v2)
Copy OK

Track 18

Filename F:\#EAC wav+flac\#Trump\Roger Daltrey - The Who's Tommy Orchestral\18. Roger Daltrey - I'm Free.wav

Peak level 98.6 %
Extraction speed 8.2 X
Track quality 100.0 %
Test CRC 62A4EDDB
Copy CRC 62A4EDDB
Accurately ripped (confidence 31) [42BA6A9A] (AR v2)
Copy OK

Track 19

Filename F:\#EAC wav+flac\#Trump\Roger Daltrey - The Who's Tommy Orchestral\19. Roger Daltrey - Miracle Cure.wav

Peak level 98.6 %
Extraction speed 2.8 X
Track quality 100.0 %
Test CRC 4A8A562C
Copy CRC 4A8A562C
Accurately ripped (confidence 31) [FD668BFC] (AR v2)
Copy OK

Track 20

Filename F:\#EAC wav+flac\#Trump\Roger Daltrey - The Who's Tommy Orchestral\20. Roger Daltrey - Sensation.wav

Peak level 98.6 %
Extraction speed 8.4 X
Track quality 100.0 %
Test CRC 1FE831D1
Copy CRC 1FE831D1
Accurately ripped (confidence 31) [FB29F166] (AR v2)
Copy OK

Track 21

Filename F:\#EAC wav+flac\#Trump\Roger Daltrey - The Who's Tommy Orchestral\21. Roger Daltrey - Sally Simpson - Gospel Piano Interlude.wav

Peak level 98.6 %
Extraction speed 7.8 X
Track quality 99.9 %
Test CRC 6AD82E4F
Copy CRC 6AD82E4F
Accurately ripped (confidence 31) [4D802A34] (AR v2)
Copy OK

Track 22

Filename F:\#EAC wav+flac\#Trump\Roger Daltrey - The Who's Tommy Orchestral\22. Roger Daltrey - Welcome.wav

Peak level 98.6 %
Extraction speed 7.7 X
Track quality 99.9 %
Test CRC BDAD8C34
Copy CRC BDAD8C34
Accurately ripped (confidence 31) [1C97F6DE] (AR v2)
Copy OK

Track 23

Filename F:\#EAC wav+flac\#Trump\Roger Daltrey - The Who's Tommy Orchestral\23. Roger Daltrey - Tommy's Holiday Camp.wav

Peak level 98.6 %
Extraction speed 4.6 X
Track quality 99.8 %
Test CRC 2D08836A
Copy CRC 2D08836A
Accurately ripped (confidence 31) [ECF13D99] (AR v2)
Copy OK

Track 24

Filename F:\#EAC wav+flac\#Trump\Roger Daltrey - The Who's Tommy Orchestral\24. Roger Daltrey - We're Not Gonna Take It.wav

Peak level 98.6 %
Extraction speed 10.6 X
Track quality 100.0 %
Test CRC 00F5A50B
Copy CRC 00F5A50B
Accurately ripped (confidence 30) [89C9503F] (AR v2)
Copy OK


All tracks accurately ripped

No errors occurred

End of status report

–– CUETools DB Plugin V2.1.6

[CTDB TOCID: NZw.ym2LZh4wPrKazdVwgXrpDkM-] found
Submit result: NZw.ym2LZh4wPrKazdVwgXrpDkM- has been confirmed
Track | CTDB Status
1 | (83/84) Accurately ripped
2 | (84/84) Accurately ripped
3 | (84/84) Accurately ripped
4 | (84/84) Accurately ripped
5 | (84/84) Accurately ripped
6 | (84/84) Accurately ripped
7 | (84/84) Accurately ripped
8 | (84/84) Accurately ripped
9 | (84/84) Accurately ripped
10 | (84/84) Accurately ripped
11 | (84/84) Accurately ripped
12 | (84/84) Accurately ripped
13 | (84/84) Accurately ripped
14 | (84/84) Accurately ripped
15 | (84/84) Accurately ripped
16 | (84/84) Accurately ripped
17 | (84/84) Accurately ripped
18 | (84/84) Accurately ripped
19 | (84/84) Accurately ripped
20 | (84/84) Accurately ripped
21 | (84/84) Accurately ripped
22 | (84/84) Accurately ripped
23 | (84/84) Accurately ripped
24 | (83/84) Accurately ripped


==== Log checksum D875DDECC2C3E2B212B723359C194C1407C58A522A55681A018E037CBA4E4B8E ====

––––––––––––––––––––––––––––––

Exact Audio Copy V1.3 from 2. September 2016

EAC extraction logfile from 7. July 2021, 20:15

Roger Daltrey / The Who's "Tommy" Orchestral

Used drive : HL-DT-STBD-RE BH16NS55 Adapter: 1 ID: 0

Read mode : Secure
Utilize accurate stream : Yes
Defeat audio cache : Yes
Make use of C2 pointers : No

Read offset correction : 6
Overread into Lead-In and Lead-Out : No
Fill up missing offset samples with silence : Yes
Delete leading and trailing silent blocks : No
Null samples used in CRC calculations : Yes
Used interface : Native Win32 interface for Win NT & 2000
Gap handling : Appended to previous track

Used output format : User Defined Encoder
Selected bitrate : 1024 kBit/s
Quality : High
Add ID3 tag : No
Command line compressor : C:\Program Files (x86)\Exact Audio Copy\Flac\flac.exe
Additional command line options : -8 -V -T "ARTIST=%artist%" -T "TITLE=%title%" -T "ALBUM=%albumtitle%" -T "DATE=%year%" -T "TRACKNUMBER=%tracknr%" -T "GENRE=%genre%" -T "PERFORMER=%albuminterpret%" -T "COMPOSER=%composer%" %haslyrics%–tag-from-file=LYRICS="%lyricsfile%"%haslyrics% -T "ALBUMARTIST=%albumartist%" -T "DISCNUMBER=%cdnumber%" -T "TOTALDISCS=%totalcds%" -T "TOTALTRACKS=%numtracks%" -T "COMMENT=%comment%" %source% -o %dest%


TOC of the extracted CD

Track | Start | Length | Start sector | End sector
––––––––––––––––––––––––––––-
1 | 0:00.00 | 5:42.65 | 0 | 25714
2 | 5:42.65 | 0:40.59 | 25715 | 28773
3 | 6:23.49 | 2:56.74 | 28774 | 42047
4 | 9:20.48 | 5:09.44 | 42048 | 65266
5 | 14:30.17 | 2:12.35 | 65267 | 75201
6 | 16:42.52 | 2:21.25 | 75202 | 85801
7 | 19:04.02 | 4:40.63 | 85802 | 106864
8 | 23:44.65 | 3:51.15 | 106865 | 124204
9 | 27:36.05 | 3:50.54 | 124205 | 141508
10 | 31:26.59 | 0:25.67 | 141509 | 143450
11 | 31:52.51 | 1:40.09 | 143451 | 150959
12 | 33:32.60 | 3:18.41 | 150960 | 165850
13 | 36:51.26 | 0:24.71 | 165851 | 167721
14 | 37:16.22 | 3:51.12 | 167722 | 185058
15 | 41:07.34 | 1:39.36 | 185059 | 192519
16 | 42:46.70 | 1:25.38 | 192520 | 198932
17 | 44:12.33 | 0:29.20 | 198933 | 201127
18 | 44:41.53 | 2:46.02 | 201128 | 213579
19 | 47:27.55 | 0:13.63 | 213580 | 214617
20 | 47:41.43 | 3:07.54 | 214618 | 228696
21 | 50:49.22 | 4:53.08 | 228697 | 250679
22 | 55:42.30 | 4:04.26 | 250680 | 269005
23 | 59:46.56 | 1:11.26 | 269006 | 274356
24 | 60:58.07 | 8:33.67 | 274357 | 312898


Track 1

Filename F:\#EAC wav+flac\#Trump\Roger Daltrey - The Who's Tommy Orchestral\01. Roger Daltrey - Overture.wav

Pre-gap length 0:00:02.00

Peak level 98.6 %
Extraction speed 5.3 X
Track quality 100.0 %
Test CRC E2D434AE
Copy CRC E2D434AE
Accurately ripped (confidence 30) [2D7A9849] (AR v2)
Copy OK

Track 2

Filename F:\#EAC wav+flac\#Trump\Roger Daltrey - The Who's Tommy Orchestral\02. Roger Daltrey - It's A Boy.wav

Peak level 98.6 %
Extraction speed 1.9 X
Track quality 99.7 %
Test CRC CCC33DEC
Copy CRC CCC33DEC
Accurately ripped (confidence 31) [C6ECEED1] (AR v2)
Copy OK

Track 3

Filename F:\#EAC wav+flac\#Trump\Roger Daltrey - The Who's Tommy Orchestral\03. Roger Daltrey - 1921.wav

Peak level 98.6 %
Extraction speed 5.4 X
Track quality 100.0 %
Test CRC AF36AA1E
Copy CRC AF36AA1E
Accurately ripped (confidence 31) [4BB5ABA7] (AR v2)
Copy OK

Track 4

Filename F:\#EAC wav+flac\#Trump\Roger Daltrey - The Who's Tommy Orchestral\04. Roger Daltrey - Amazing Journey.wav

Peak level 98.6 %
Extraction speed 6.2 X
Track quality 100.0 %
Test CRC 196B7119
Copy CRC 196B7119
Accurately ripped (confidence 31) [44FC9568] (AR v2)
Copy OK

Track 5

Filename F:\#EAC wav+flac\#Trump\Roger Daltrey - The Who's Tommy Orchestral\05. Roger Daltrey - Sparks.wav

Peak level 98.6 %
Extraction speed 4.3 X
Track quality 99.9 %
Test CRC EE1E6A98
Copy CRC EE1E6A98
Accurately ripped (confidence 30) [FD13E935] (AR v2)
Copy OK

Track 6

Filename F:\#EAC wav+flac\#Trump\Roger Daltrey - The Who's Tommy Orchestral\06. Roger Daltrey - Eyesight To The Blind (The Hawker).wav

Peak level 98.6 %
Extraction speed 6.0 X
Track quality 100.0 %
Test CRC 0537A5AF
Copy CRC 0537A5AF
Accurately ripped (confidence 31) [824D7421] (AR v2)
Copy OK

Track 7

Filename F:\#EAC wav+flac\#Trump\Roger Daltrey - The Who's Tommy Orchestral\07. Roger Daltrey - Christmas.wav

Peak level 98.6 %
Extraction speed 6.0 X
Track quality 99.9 %
Test CRC 106948C4
Copy CRC 106948C4
Accurately ripped (confidence 31) [8EDF548A] (AR v2)
Copy OK

Track 8

Filename F:\#EAC wav+flac\#Trump\Roger Daltrey - The Who's Tommy Orchestral\08. Roger Daltrey - Cousin Kevin.wav

Peak level 98.6 %
Extraction speed 7.2 X
Track quality 100.0 %
Test CRC 89BD0EC9
Copy CRC 89BD0EC9
Accurately ripped (confidence 31) [F5304FC9] (AR v2)
Copy OK

Track 9

Filename F:\#EAC wav+flac\#Trump\Roger Daltrey - The Who's Tommy Orchestral\09. Roger Daltrey - The Acid Queen.wav

Peak level 98.6 %
Extraction speed 6.2 X
Track quality 99.9 %
Test CRC 7A4D7291
Copy CRC 7A4D7291
Accurately ripped (confidence 31) [D01F19FB] (AR v2)
Copy OK

Track 10

Filename F:\#EAC wav+flac\#Trump\Roger Daltrey - The Who's Tommy Orchestral\10. Roger Daltrey - Do You Think It's Alright.wav

Peak level 98.6 %
Extraction speed 1.9 X
Track quality 99.5 %
Test CRC 12AD4E6A
Copy CRC 12AD4E6A
Accurately ripped (confidence 31) [90551AB7] (AR v2)
Copy OK

Track 11

Filename F:\#EAC wav+flac\#Trump\Roger Daltrey - The Who's Tommy Orchestral\11. Roger Daltrey - Fiddle About.wav

Peak level 98.6 %
Extraction speed 6.5 X
Track quality 100.0 %
Test CRC 08DE3BBF
Copy CRC 08DE3BBF
Accurately ripped (confidence 31) [A6C83FB8] (AR v2)
Copy OK

Track 12

Filename F:\#EAC wav+flac\#Trump\Roger Daltrey - The Who's Tommy Orchestral\12. Roger Daltrey - Pinball Wizard.wav

Peak level 98.6 %
Extraction speed 6.2 X
Track quality 99.9 %
Test CRC 2E0D8A10
Copy CRC 2E0D8A10
Accurately ripped (confidence 31) [24863379] (AR v2)
Copy OK

Track 13

Filename F:\#EAC wav+flac\#Trump\Roger Daltrey - The Who's Tommy Orchestral\13. Roger Daltrey - There's A Doctor.wav

Peak level 98.6 %
Extraction speed 3.8 X
Track quality 100.0 %
Test CRC 7A90D7D7
Copy CRC 7A90D7D7
Accurately ripped (confidence 31) [B7E218EF] (AR v2)
Copy OK

Track 14

Filename F:\#EAC wav+flac\#Trump\Roger Daltrey - The Who's Tommy Orchestral\14. Roger Daltrey - Go To The Mirror.wav

Peak level 98.6 %
Extraction speed 8.2 X
Track quality 100.0 %
Test CRC 452C5D8D
Copy CRC 452C5D8D
Accurately ripped (confidence 31) [BA8095A3] (AR v2)
Copy OK

Track 15

Filename F:\#EAC wav+flac\#Trump\Roger Daltrey - The Who's Tommy Orchestral\15. Roger Daltrey - Tommy, Can You Hear Me.wav

Peak level 98.6 %
Extraction speed 7.3 X
Track quality 100.0 %
Test CRC 3E129682
Copy CRC 3E129682
Accurately ripped (confidence 31) [CBEDDAB2] (AR v2)
Copy OK

Track 16

Filename F:\#EAC wav+flac\#Trump\Roger Daltrey - The Who's Tommy Orchestral\16. Roger Daltrey - Smash The Mirror.wav

Peak level 98.6 %
Extraction speed 6.8 X
Track quality 100.0 %
Test CRC A338A149
Copy CRC A338A149
Accurately ripped (confidence 31) [5CD327AE] (AR v2)
Copy OK

Track 17

Filename F:\#EAC wav+flac\#Trump\Roger Daltrey - The Who's Tommy Orchestral\17. Roger Daltrey - Refrain - It's A Boy.wav

Peak level 86.6 %
Extraction speed 4.3 X
Track quality 100.0 %
Test CRC 765C9D25
Copy CRC 765C9D25
Accurately ripped (confidence 31) [86F96C6F] (AR v2)
Copy OK

Track 18

Filename F:\#EAC wav+flac\#Trump\Roger Daltrey - The Who's Tommy Orchestral\18. Roger Daltrey - I'm Free.wav

Peak level 98.6 %
Extraction speed 8.2 X
Track quality 100.0 %
Test CRC 62A4EDDB
Copy CRC 62A4EDDB
Accurately ripped (confidence 31) [42BA6A9A] (AR v2)
Copy OK

Track 19

Filename F:\#EAC wav+flac\#Trump\Roger Daltrey - The Who's Tommy Orchestral\19. Roger Daltrey - Miracle Cure.wav

Peak level 98.6 %
Extraction speed 2.8 X
Track quality 100.0 %
Test CRC 4A8A562C
Copy CRC 4A8A562C
Accurately ripped (confidence 31) [FD668BFC] (AR v2)
Copy OK

Track 20

Filename F:\#EAC wav+flac\#Trump\Roger Daltrey - The Who's Tommy Orchestral\20. Roger Daltrey - Sensation.wav

Peak level 98.6 %
Extraction speed 8.4 X
Track quality 100.0 %
Test CRC 1FE831D1
Copy CRC 1FE831D1
Accurately ripped (confidence 31) [FB29F166] (AR v2)
Copy OK

Track 21

Filename F:\#EAC wav+flac\#Trump\Roger Daltrey - The Who's Tommy Orchestral\21. Roger Daltrey - Sally Simpson - Gospel Piano Interlude.wav

Peak level 98.6 %
Extraction speed 7.8 X
Track quality 99.9 %
Test CRC 6AD82E4F
Copy CRC 6AD82E4F
Accurately ripped (confidence 31) [4D802A34] (AR v2)
Copy OK

Track 22

Filename F:\#EAC wav+flac\#Trump\Roger Daltrey - The Who's Tommy Orchestral\22. Roger Daltrey - Welcome.wav

Peak level 98.6 %
Extraction speed 7.7 X
Track quality 99.9 %
Test CRC BDAD8C34
Copy CRC BDAD8C34
Accurately ripped (confidence 31) [1C97F6DE] (AR v2)
Copy OK

Track 23

Filename F:\#EAC wav+flac\#Trump\Roger Daltrey - The Who's Tommy Orchestral\23. Roger Daltrey - Tommy's Holiday Camp.wav

Peak level 98.6 %
Extraction speed 4.6 X
Track quality 99.8 %
Test CRC 2D08836A
Copy CRC 2D08836A
Accurately ripped (confidence 31) [ECF13D99] (AR v2)
Copy OK

Track 24

Filename F:\#EAC wav+flac\#Trump\Roger Daltrey - The Who's Tommy Orchestral\24. Roger Daltrey - We're Not Gonna Take It.wav

Peak level 98.6 %
Extraction speed 10.6 X
Track quality 100.0 %
Test CRC 00F5A50B
Copy CRC 00F5A50B
Accurately ripped (confidence 30) [89C9503F] (AR v2)
Copy OK


All tracks accurately ripped

No errors occurred

End of status report

–– CUETools DB Plugin V2.1.6

[CTDB TOCID: NZw.ym2LZh4wPrKazdVwgXrpDkM-] found
Submit result: NZw.ym2LZh4wPrKazdVwgXrpDkM- has been confirmed
Track | CTDB Status
1 | (83/84) Accurately ripped
2 | (84/84) Accurately ripped
3 | (84/84) Accurately ripped
4 | (84/84) Accurately ripped
5 | (84/84) Accurately ripped
6 | (84/84) Accurately ripped
7 | (84/84) Accurately ripped
8 | (84/84) Accurately ripped
9 | (84/84) Accurately ripped
10 | (84/84) Accurately ripped
11 | (84/84) Accurately ripped
12 | (84/84) Accurately ripped
13 | (84/84) Accurately ripped
14 | (84/84) Accurately ripped
15 | (84/84) Accurately ripped
16 | (84/84) Accurately ripped
17 | (84/84) Accurately ripped
18 | (84/84) Accurately ripped
19 | (84/84) Accurately ripped
20 | (84/84) Accurately ripped
21 | (84/84) Accurately ripped
22 | (84/84) Accurately ripped
23 | (84/84) Accurately ripped
24 | (83/84) Accurately ripped


==== Log checksum D875DDECC2C3E2B212B723359C194C1407C58A522A55681A018E037CBA4E4B8E ====

Thanks to the Original ripper !