Subcategories

Rosalía - El Mal Querer (2018) {Sony Music 19075887962 rec 2017-18} (Complete Artwork)

Posted By: ruskaval
Rosalía - El Mal Querer (2018) {Sony Music 19075887962 rec 2017-18} (Complete Artwork)

Rosalía - El Mal Querer (2018) {Sony Music 19075887962 rec 2017-18} (Complete Artwork)
EAC rip (secure mode) | FLAC (tracks)+CUE+LOG -> 187 Mb | MP3 @320 -> 73 Mb
Full Artwork @ 300 dpi (jpg) -> 39 Mb | 5% repair rar
© 2018 Sony Music | 19075887962
Art Pop / Flamenco Pop / Latin Pop / Spanish / Flamenco Nuevo

Latin pop has gone through many permutations and evolutionary changes over the last decade, becoming a new frontier in the creative arts. Rosalía Vila Tobella provides yet another direction on her sophomore full-length, El Mal Querer (The Evil Will). The Catalan-born, Barcelona-based singer, songwriter, actress, and dancer gained a Latin Grammy nomination for her 2017 date, Los Ángeles, an album that offered her own stripped-down take on flamenco and won her fans among the most popular artists in Latin pop – including J Balvin, who enlisted her as a collaborator on his Top 20 single "Brillo" from Vibras. The captivating quality of her music also attracted the attention of director Pedro Almodóvar, who cast Rosalía in her feature film debut alongside Penelope Cruz in Dolor y Gloria. Wherein her only accompaniment on the earlier date was a guitarist, El Mal Querer reveals a distinctively developed sound of her own that meshes the classic flamenco and copla influences of her heritage with modern urban sounds such as pop, R&B, and reggaeton. Co-produced by the artist and El Guincho, this set is actually her graduate thesis for Barcelona's Catalunya College of Music, where she studied flamenco (they accept one student per year) and music production.
Rosalía - El Mal Querer (2018) {Sony Music 19075887962 rec 2017-18} (Complete Artwork)

The set's first single, "Malamente," is a worldwide smash largely due to its innovative video that has garnered some 50 million views and another 50 million digital streams. It has been nominated for five Latin Grammys, including Record of the Year, Song of the Year, Best Urban Fusion/Performance, Best Alternative Song, and Best Short Form Music Video. It weaves a warm, mysterious synth through bass drum loops and Rosalía's flamenco palmas (handclaps) and pitos (finger-snapping), as her dramatic, grainy alto moves against the beat in a melodic hook that engages R&B in an irresistible combination. Second single "Pienso en Tu Mirá" is driven by its percussive elements in a bracing lament that juxtaposes the graininess in her vocal to loops and brittle, skittering beats that push the R&B angle toward copla rather than the reverse. "Bagdad" is a tender, aching exercise in modern Latin soul, as her lucid falsetto winds around the loops and palmas with a cadence that is at once hypnotic and hallucinatory. Third single "De Mi Nombre" adds a sampled requinto as a rhythm instrument, while her ever-so-slightly Auto-Tuned vocal trades on Gypsy flamenco and wiry reggaeton. By contrast, "Maldición" is a wildly experimental number setting a twinned melody (that pairs copla and smoldering indie pop) against a loopy Wurlitzer, skeletal sub-bassline, pitos, samples, and warped, nearly narcotic vocal effects. Despite – or perhaps because of – its brevity (just over 30 minutes), El Mal Querer is arresting in its tension, passion, and creative ingenuity. There is as much subtlety in both the compositions and production as there is drama, all of it imbued with restless soul via Rosalía's singular voice that marries the folk lineage of flamenco to 21st century styles and sounds, making El Mal Querer not only a provocative and original offering, but a magnificent one as well.
Rosalía - El Mal Querer (2018) {Sony Music 19075887962 rec 2017-18} (Complete Artwork)


Tracks
01 - Cap 1 Augurio - Malamente
02 - Cap 2 Boda - Que No Salga La Luna
03 - Cap 3 Celos - Pienso En Tu Mira
04 - Cap 4 Disputa - De Aqui No Sales
05 - Cap 5 Lamento - Reniego
06 - Cap 6 Clausura - Preso
07 - Cap 7 Liturgia - Bagdad
08 - Cap 8 Extasis - Di Mi Nombre
09 - Cap 9 Concepcion - Nana
10 - Cap 10 Cordura - Maldicion
11 - Cap 11 Poder - A Ningun Hombre

Exact Audio Copy V1.1 from 23. June 2015

EAC extraction logfile from 26. December 2018, 12:46

Rosalia / El Mal Querer

Used drive : MATSHITADVD+-RW SW830 Adapter: 1 ID: 0

Read mode : Secure
Utilize accurate stream : Yes
Defeat audio cache : Yes
Make use of C2 pointers : No

Read offset correction : 6
Overread into Lead-In and Lead-Out : No
Fill up missing offset samples with silence : Yes
Delete leading and trailing silent blocks : No
Null samples used in CRC calculations : Yes
Used interface : Native Win32 interface for Win NT & 2000
Gap handling : Appended to previous track

Used output format : User Defined Encoder
Selected bitrate : 896 kBit/s
Quality : High
Add ID3 tag : No
Command line compressor : C:\Program Files (x86)\Exact Audio Copy\Flac\flac.exe
Additional command line options : -8 -V -T "ARTIST=%artist%" -T "TITLE=%title%" -T "ALBUM=%albumtitle%" -T "DATE=%year%" -T "TRACKNUMBER=%tracknr%" -T "TOTALTRACKS=%numtracks%" -T "GENRE=%genre%" -T "ALBUMARTIST=%albumartist%" -T "ALBUM ARTIST=%albumartist%" -T "COMMENT=EAC Secure Mode, Test & Copy, AccurateRip, FLAC -8" %source%


TOC of the extracted CD

Track | Start | Length | Start sector | End sector
––––––––––––––––––––––––––––-
1 | 0:00.00 | 2:30.02 | 0 | 11251
2 | 2:30.02 | 4:29.40 | 11252 | 31466
3 | 6:59.42 | 3:13.58 | 31467 | 45999
4 | 10:13.25 | 2:24.40 | 46000 | 56839
5 | 12:37.65 | 3:28.15 | 56840 | 72454
6 | 16:06.05 | 0:40.52 | 72455 | 75506
7 | 16:46.57 | 3:02.49 | 75507 | 89205
8 | 19:49.31 | 2:42.28 | 89206 | 101383
9 | 22:31.59 | 3:17.16 | 101384 | 116174
10 | 25:49.00 | 2:55.19 | 116175 | 129318
11 | 28:44.19 | 1:34.17 | 129319 | 136385


Track 1

Filename G:\New Rips\Rosalia - El Mal Querer (2018) [FLAC]\01 - Cap 1 Augurio - Malamente.wav

Pre-gap length 0:00:02.00

Peak level 100.0 %
Extraction speed 1.1 X
Track quality 99.9 %
Test CRC A0EC5592
Copy CRC A0EC5592
Track not present in AccurateRip database
Copy OK

Track 2

Filename G:\New Rips\Rosalia - El Mal Querer (2018) [FLAC]\02 - Cap 2 Boda - Que No Salga La Luna.wav

Peak level 100.0 %
Extraction speed 1.9 X
Track quality 100.0 %
Test CRC 8B45AC84
Copy CRC 8B45AC84
Track not present in AccurateRip database
Copy OK

Track 3

Filename G:\New Rips\Rosalia - El Mal Querer (2018) [FLAC]\03 - Cap 3 Celos - Pienso En Tu Mira.wav

Peak level 100.0 %
Extraction speed 2.0 X
Track quality 100.0 %
Test CRC 00B107DD
Copy CRC 00B107DD
Track not present in AccurateRip database
Copy OK

Track 4

Filename G:\New Rips\Rosalia - El Mal Querer (2018) [FLAC]\04 - Cap 4 Disputa - De Aqui No Sales.wav

Peak level 100.0 %
Extraction speed 2.0 X
Track quality 100.0 %
Test CRC 3D962174
Copy CRC 3D962174
Track not present in AccurateRip database
Copy OK

Track 5

Filename G:\New Rips\Rosalia - El Mal Querer (2018) [FLAC]\05 - Cap 5 Lamento - Reniego.wav

Peak level 99.1 %
Extraction speed 2.3 X
Track quality 100.0 %
Test CRC 01978E3E
Copy CRC 01978E3E
Track not present in AccurateRip database
Copy OK

Track 6

Filename G:\New Rips\Rosalia - El Mal Querer (2018) [FLAC]\06 - Cap 6 Clausura - Preso.wav

Peak level 96.9 %
Extraction speed 1.3 X
Track quality 100.0 %
Test CRC 34B55392
Copy CRC 34B55392
Track not present in AccurateRip database
Copy OK

Track 7

Filename G:\New Rips\Rosalia - El Mal Querer (2018) [FLAC]\07 - Cap 7 Liturgia - Bagdad.wav

Peak level 100.0 %
Extraction speed 2.3 X
Track quality 100.0 %
Test CRC 1794973F
Copy CRC 1794973F
Track not present in AccurateRip database
Copy OK

Track 8

Filename G:\New Rips\Rosalia - El Mal Querer (2018) [FLAC]\08 - Cap 8 Extasis - Di Mi Nombre.wav

Peak level 100.0 %
Extraction speed 2.4 X
Track quality 100.0 %
Test CRC FAF2DD39
Copy CRC FAF2DD39
Track not present in AccurateRip database
Copy OK

Track 9

Filename G:\New Rips\Rosalia - El Mal Querer (2018) [FLAC]\09 - Cap 9 Concepcion - Nana.wav

Peak level 99.1 %
Extraction speed 1.9 X
Track quality 99.9 %
Test CRC 3B9B9610
Copy CRC 3B9B9610
Track not present in AccurateRip database
Copy OK

Track 10

Filename G:\New Rips\Rosalia - El Mal Querer (2018) [FLAC]\10 - Cap 10 Cordura - Maldicion.wav

Peak level 99.8 %
Extraction speed 1.9 X
Track quality 99.9 %
Test CRC 9CBA5D17
Copy CRC 9CBA5D17
Track not present in AccurateRip database
Copy OK

Track 11

Filename G:\New Rips\Rosalia - El Mal Querer (2018) [FLAC]\11 - Cap 11 Poder - A Ningun Hombre.wav

Peak level 98.6 %
Extraction speed 2.3 X
Track quality 100.0 %
Test CRC 2B5E9DBF
Copy CRC 2B5E9DBF
Track not present in AccurateRip database
Copy OK


None of the tracks are present in the AccurateRip database

No errors occurred

End of status report

–– CUETools DB Plugin V2.1.6

[CTDB TOCID: zNBaQBG3SnZRO4uVpeoUahpZ9lQ-] found
Submit result: zNBaQBG3SnZRO4uVpeoUahpZ9lQ- has been confirmed
Track | CTDB Status
1 | (27/27) Accurately ripped
2 | (27/27) Accurately ripped
3 | (27/27) Accurately ripped
4 | (27/27) Accurately ripped
5 | (27/27) Accurately ripped
6 | (27/27) Accurately ripped
7 | (27/27) Accurately ripped
8 | (27/27) Accurately ripped
9 | (27/27) Accurately ripped
10 | (27/27) Accurately ripped
11 | (27/27) Accurately ripped


==== Log checksum B3DA17DA2CD10355673E0F0DB318BD40D4EF589F7DD381FF2424E0C7BEA41A2A ====


Rosalía - El Mal Querer (2018) {Sony Music 19075887962 rec 2017-18} (Complete Artwork)

Rosalía - El Mal Querer (2018) {Sony Music 19075887962 rec 2017-18} (Complete Artwork)



===