Subcategories

Sir John Barbirolli - The Great EMI Recordings (10CD Box Set) (2010)

Posted By: Domestos
Sir John Barbirolli - The Great EMI Recordings (10CD Box Set) (2010)

Sir John Barbirolli - The Great EMI Recordings (10CD Box Set) (2010)
EAC Rip | FLAC (image+.cue, log) ~ 3,21 Gb | 12:27:59 | Covers (front+back)
Classical | Label: EMI - 4 57767 2

From the very start one can feel the almost transcendental rapport between the young soloist, barely turned twenty, and the aging maestro. One can dip into the recording at almost any point and feel the magic… There is an inevitability about the whole performance that is not easy to analyse or rather, as with most great works of art, analysis often tends to obscure instead of clarify wherein the greatness lies. Why is Mona Lisa such an undisputed masterpiece? Both the painting and this recording go directly to the heart… And that is exactly what Janet Baker’s singing of Sea Pictures also does… It is so magically performed here… Behind and above…Janet Baker looms Sir John’s spirit, loving and sensitive.
– Göran Forsling, MusicWeb International [reviewing the Elgar Sea Pictures, EMI 62887]

On any count this is one of the greatest, most warmly affecting accounts ever committed to disc, expansive, yet concentrated in feeling: the Adagietto is very moving indeed.
– The Penguin Guide [reviewing the Mahler Fifth, EMI 66962]

John Barbirolli's posthumous reputation if anything has grown in recent years with the release of numerous live recordings and reissues. It's easy to understand why: an emotionally generous, extremely "giving" conductor, his best performances have an irresistible spontaneity and warmth. That's the plus side. On the minus side, he could be very wayward when off his best form, and many of his recordings, even the ones most admired (such as his Mahler Fifth and Ninth), suffer from ensemble lapses that sometimes cross over the line between improvisatory enthusiasm and plain sloppiness. He was a great conductor nevertheless, make no mistake, and if I had to choose a single recording that represents him at his absolute best, it would have to be this one. It has everything: great playing, sumptuous sound (especially as remastered here), and interpretations that are positively elemental in their inevitability, cogency, thrust, and emotional abandon. The performances of the major works (Elgar's Introduction and Allegro, the Serenade, and Vaughan Williams' Tallis Fantasia) have never been surpassed and aren't likely to be anytime soon. This is truly one of the greatest recordings ever made, the ultimate "English music for string orchestra" disc. Buy it. Play it. Love it.
–David Hurwitz, ClassicsToday.com [reviewing Elgar and Vaughan Williams orchestral works, EMI 67264]

Janet Baker, André Navarra (cello), Renata Scotto (Madama Butterfly - Puccini - excerpts)
Hallé Orchestra, London Symphony Orchestra, Wiener Philharmoniker, Philharmonia Orchestra, New Philharmonia Orchestra, Sinfonia of London, Orchestra del tearto dell'opera di Roma
John Barbirolli

Track List CD1 (74:31):
IRELAND John

1. London overture

Conductor: Sir John Barbirolli
Orchestra/Ensemble: London Symphony Orchestra
Period: 20th Century
Written: 1936; England

VAUGHAN WILLIAMS Ralph

2. Symphony no 2 "London": I. Lento - Allegro risoluto (molto pesante)
3. II. Lento
4. III. Scherzo (Nocturne): Allegro vivace
5. IV. Andante con moto - Maestoso - Allegro - Maestoso - Epilogue

Conductor: Sir John Barbirolli
Orchestra/Ensemble: Hallé Orchestra
Period: 20th Century
Written: 1913/1920; England

BAX Arnold

6. The Garden of Fand

Conductor: Sir John Barbirolli
Orchestra/Ensemble: Hallé Orchestra
Period: 20th Century
Written: 1913-1916; England

Track List CD2 (74:27):
DELIUS Frederick

1. A Village Romeo and Juliet: Walk to the Paradise Garden

Conductor: Sir John Barbirolli
Orchestra/Ensemble: London Symphony Orchestra
Period: 20th Century
Written: 1900-1901; France

2. In a Summer Garden

Conductor: Sir John Barbirolli
Orchestra/Ensemble: Hallé Orchestra
Period: 20th Century
Written: 1908; France

BUTTERWORTH George

3. A Shropshire Lad

Conductor: Sir John Barbirolli
Orchestra/Ensemble: Hallé Orchestra
Period: 20th Century
Written: 1912; England

VAUGHAN WILLIAMS Ralph

4. Symphony no 5 in D major: I. Preludio - Moderato - Allegro
5. II. Scherzo: Presto misterioso
6. III. Romanza: Lento
7. IV. Passacaglia: Moderato - Allegro

Orchestra/Ensemble: Philharmonia Orchestra
Conductor: Sir John Barbirolli
Period: 20th Century
Written: 1938-1943; England

Track List CD3 (79:15):
SIBELIUS Jean

1. Finlandia, Op. 26

Conductor: Sir John Barbirolli
Orchestra/Ensemble: Hallé Orchestra
Period: Romantic
Written: Finland

2. Karelia Suite, Op. 11: I. Intermezzo
3. II. Ballade
4. III. Alla marcia

Conductor: Sir John Barbirolli
Orchestra/Ensemble: Hallé Orchestra
Period: Romantic
Written: 1893; Finland

5. Pohjola's daughter, Op. 49

Conductor: Sir John Barbirolli
Orchestra/Ensemble: Hallé Orchestra
Period: Romantic
Written: 1906; Finland

6. Kuolema: Valse triste, Op. 44 no 1

Conductor: Sir John Barbirolli
Orchestra/Ensemble: Hallé Orchestra
Period: Romantic
Written: 1903-1904; Finland

7. Lemminkäinen Suite, Op. 22: no 3, Swan of Tuonela

Conductor: Sir John Barbirolli
Orchestra/Ensemble: Hallé Orchestra
Period: Romantic
Written: 1893-1897; Finland

ELGAR Edward

8. Concerto for Cello in E minor, Op. 85: I. Adagio - Moderato
9. II. Lento - Allegro molto
10. III. Adagio
11. IV. Allegro, ma non troppo

Performer: André Navarra (Cello)
Conductor: Sir John Barbirolli
Orchestra/Ensemble: Hallé Orchestra
Period: Romantic
Written: 1919; England

Track List CD4 (74:27):
MAHLER Gustav

1. Symphony no 5 in C sharp minor: I. Trauermarsch (in gemassenem Schritt - Streng - Wie ein Kondukt)
2. II. Sturmisch bewegt (Mit grosster Vehemenz)
3. III. Scherzo (Kraftig, nicht zu schnell)
4. IV. Adagietto (Sehr langsam)
5. V. Rondo - Finale (Allegro)

Conductor: Sir John Barbirolli
Orchestra/Ensemble: New Philharmonia Orchestra
Period: Romantic
Written: 1901-1902; Vienna, Austria

Track List CD5 (67:39):
DEBUSSY Claude

1. La mer: I. De l'aube à midi sur la mer
2. II. Jeux de vagues
3.III. Dialogue du vent et de la mer

Conductor: Sir John Barbirolli
Orchestra/Ensemble: Hallé Orchestra
Period: 20th Century
Written: 1903-1905; France

RAVEL Maurice

4. Daphnis et Chloé Suite no 2: I. Lever du jour
5. II. Pantomime
6. III. Danse générale

Conductor: Sir John Barbirolli
Orchestra/Ensemble: Hallé Orchestra
Period: 20th Century
Written: 1913; France

7. La Valse

8. Ma mère l'oye: Suite: I. Pavane de la bell au bois dormant
9. II. Petit Poucet
10. III. Laideronnette, Impératrice des Pagodes
11. IV. Les entetriens de la Belle at de la Bête
12. V. Le Jardin féerique

Conductor: Sir John Barbirolli
Orchestra/Ensemble: Hallé Orchestra
Period: 20th Century
Written: 1908-1910; France

Track List CD6 (72:06):
TCHAIKOVSKY Peter Ilyich (Пётр Ильи́ч Чайко́вский)

1. Serenade for Strings in C, Op. 48 I. Pezzo in forma di sonatina
2. II. Walzer: Moderato (Tempo di valse)
3. III. Elegie: Larghetto elegiaco
4. IV. Finale (Tema Russo): Andante - Allegro

Conductor: Sir John Barbirolli
Orchestra/Ensemble: London Symphony Orchestra
Period: Romantic
Written: 1880; Russia

5. Symphony no 4 in F minor, Op. 36 I. Andante sostenuto - Moderato con anima
6. II. Andantino in modo di canzona
7. III. Scherzo
8. IV. Finale: Allegro con fuoco

Conductor: Sir John Barbirolli
Orchestra/Ensemble: London Symphony Orchestra
Period: Romantic
Written: 1877-1878; Russia

Track List CD7 (73:14):
ELGAR Edward

1. Introduction and Allegro for String Quartet and String Orchestra, Op. 47

Conductor: Sir John Barbirolli
Orchestra/Ensemble: Sinfonia of London, Allegri String Quartett
Period: Romantic
Written: 1904-1905; England

2. Serenade for Strings in E minor, Op. 20: I. Allegro piacevole
3. II. Larghetto
4. III. Allegretto

Conductor: Sir John Barbirolli
Orchestra/Ensemble: Sinfonia of London
Period: Romantic
Written: 1892; England

5. Elegy for Strings, Op. 58 by Sir Edward Elgar

Conductor: Sir John Barbirolli
Orchestra/Ensemble: New Philharmonia Orchestra
Period: Romantic
Written: 1909; England

6. Sospiri, Op. 70

Conductor: Sir John Barbirolli
Orchestra/Ensemble: New Philharmonia Orchestra
Period: Romantic
Written: 1914; England

VAUGHAN WILLIAMS Ralph

7. Fantasia on a theme by Thomas Tallis

Conductor: Sir John Barbirolli
Orchestra/Ensemble: Sinfonia of London
Period: 20th Century
Written: 1910/1919; England

8. Fantasia on Greensleeves

Conductor: Sir John Barbirolli
Orchestra/Ensemble: Sinfonia of London
Period: 20th Century
Written: 1934; England

BAX Arnold

9. Tintagel

Conductor: Sir John Barbirolli
Orchestra/Ensemble: London Symphony Orchestra
Period: 20th Century
Written: 1917-1919; England

Track List CD8 (77:39):
ELGAR Edward

1. Sea Pictures, Op. 37: Sea Slumber Song
2. In Haven (Capri)
3. Sabbath Morning at Sea
4. Where Corals Lie
5. The Swimmer

Performer: Dame Janet Baker (Mezzo Soprano)
Conductor: Sir John Barbirolli
Orchestra/Ensemble: London Symphony Orchestra
Period: Romantic
Written: 1897-1899; England

6. Symphony no 1 in A flat major, Op. 55 I Andante. Nobilmente e semplice — Allegro
7. II Allegro molto
8. III Adagio
9. IV Lento — Allegro

Conductor: Sir John Barbirolli
Orchestra/Ensemble: Philharmonia Orchestra
Period: Romantic
Written: 1907-1908; England

Track List CD9 (79:04):
BRAHMS Johannes

1. Tragic Overture, Op. 81

Conductor: Sir John Barbirolli
Orchestra: Tags say Philharmonia but New Philharmonia Orchestra according to MusicBrainz, need help here!
Period: Romantic
Written: 1880; Austria

2. Symphony no 3 in F major, Op. 90 I. Alegro con brio
3. II. Andante
4. III. Poco alegretto
5. IV. Allegro - Un poco sostenuto

Conductor: Sir John Barbirolli
Orchestra: Tags say Philharmonia, but Wiener Philharmoniker according to MusicBrainz, need help here!
Period: Romantic
Written: 1883; Austria

ELGAR Edward

6-20
Variations on an Original Theme, Op. 36 "Enigma"
Conductor: Sir John Barbirolli
Orchestra: Probably Philharmonia Orchestra recording from 1963 as tags say.
Period: Romantic
Written: 1898-1899; England

Track List CD10 (75:35):
PUCCINI Giacomo

1-7

Madama Butterfly Act II arias with Renata Scotto

Renata Scotto, Orchestra e Coro del Teatro dell'Opera di Roma, John Barbirolli

BERLIOZ Hector

8-13

Les nuits d'été, Op. 7

Performer: Dame Janet Baker with Philharmonia Orchestra
Period: Romantic
Written: 1840-1841; France

MAHLER Gustav

14-18

Rückert Lieder (5)

Performer: Dame Janet Baker with New Philharmonia Orchestra

Period: Romantic
Written: 1901-1902; Vienna, Austria

Sir John Barbirolli - The Great EMI Recordings (10CD Box Set) (2010)

Exact Audio Copy V1.3 from 2. September 2016

EAC extraction logfile from 19. October 2017, 9:26

Ireland, John (1879-1962) / A London Overture, LSO, Barbirolli (1965)

Used drive : MATSHITADVD-RAM UJ-831S Adapter: 1 ID: 0

Read mode : Secure
Utilize accurate stream : Yes
Defeat audio cache : Yes
Make use of C2 pointers : No

Read offset correction : 102
Overread into Lead-In and Lead-Out : No
Fill up missing offset samples with silence : Yes
Delete leading and trailing silent blocks : No
Null samples used in CRC calculations : Yes
Used interface : Native Win32 interface for Win NT & 2000

Used output format : Internal WAV Routines
Sample format : 44.100 Hz; 16 Bit; Stereo

TOC of the extracted CD

Track | Start | Length | Start sector | End sector
––––––––––––––––––––––––––––-
1 | 0:00.00 | 12:23.44 | 0 | 55768
2 | 12:23.44 | 14:05.65 | 55769 | 119208
3 | 26:29.34 | 11:41.31 | 119209 | 171814
4 | 38:10.65 | 7:31.68 | 171815 | 205707
5 | 45:42.58 | 13:20.69 | 205708 | 265776
6 | 59:03.52 | 15:27.58 | 265777 | 335359

Range status and errors

Selected range

Filename F:\Loseless\Barbirolli EMI\01\Ireland, John (1879-1962) - A London Overture, LSO, Barbirolli (1965).wav

Peak level 99.3 %
Extraction speed 4.4 X
Range quality 100.0 %
Copy CRC 51CB19C3
Copy OK

No errors occurred

AccurateRip summary

Track 1 accurately ripped (confidence 11) [689CB01A] (AR v2)
Track 2 accurately ripped (confidence 12) [F8AB4967] (AR v2)
Track 3 accurately ripped (confidence 12) [3B2790B1] (AR v2)
Track 4 accurately ripped (confidence 12) [BA594CAC] (AR v2)
Track 5 accurately ripped (confidence 12) [6C0C3CD8] (AR v2)
Track 6 accurately ripped (confidence 12) [EE13AB7B] (AR v2)

All tracks accurately ripped

End of status report

–– CUETools DB Plugin V2.1.6

[CTDB TOCID: 9BG.kb5bjCC3AUUBhyXfZkCux3E-] found
Submit result: 9BG.kb5bjCC3AUUBhyXfZkCux3E- has been confirmed
Track | CTDB Status
1 | (10/10) Accurately ripped
2 | (10/10) Accurately ripped
3 | (10/10) Accurately ripped
4 | (10/10) Accurately ripped
5 | (10/10) Accurately ripped
6 | (10/10) Accurately ripped

==== Log checksum 8153D9028EE05C0D3CFB1E89183F58C2435785E3030C3FB1C35DCC66CCD40E74 ====

Exact Audio Copy V1.3 from 2. September 2016

EAC extraction logfile from 19. October 2017, 10:43

Sir John Barbirolli / Sir John Barbirolli - The Great EMI Recordings - CD2

Used drive : MATSHITADVD-RAM UJ-831S Adapter: 1 ID: 0

Read mode : Secure
Utilize accurate stream : Yes
Defeat audio cache : Yes
Make use of C2 pointers : No

Read offset correction : 102
Overread into Lead-In and Lead-Out : No
Fill up missing offset samples with silence : Yes
Delete leading and trailing silent blocks : No
Null samples used in CRC calculations : Yes
Used interface : Native Win32 interface for Win NT & 2000

Used output format : Internal WAV Routines
Sample format : 44.100 Hz; 16 Bit; Stereo

TOC of the extracted CD

Track | Start | Length | Start sector | End sector
––––––––––––––––––––––––––––-
1 | 0:00.00 | 9:53.45 | 0 | 44519
2 | 9:53.45 | 15:06.52 | 44520 | 112521
3 | 25:00.22 | 10:56.50 | 112522 | 161771
4 | 35:56.72 | 11:01.73 | 161772 | 211419
5 | 46:58.70 | 4:58.33 | 211420 | 233802
6 | 51:57.28 | 12:10.40 | 233803 | 288592
7 | 64:07.68 | 10:19.00 | 288593 | 335017

Range status and errors

Selected range

Filename F:\Loseless\Barbirolli EMI\02\Sir John Barbirolli - Sir John Barbirolli - The Great EMI Recordings - CD2.wav

Peak level 98.6 %
Extraction speed 4.2 X
Range quality 99.9 %
Copy CRC 8753B587
Copy OK

No errors occurred

AccurateRip summary

Track 1 accurately ripped (confidence 12) [24052CBF] (AR v2)
Track 2 accurately ripped (confidence 12) [54E3FD63] (AR v2)
Track 3 accurately ripped (confidence 12) [4CDCC0F7] (AR v2)
Track 4 accurately ripped (confidence 12) [7A62F435] (AR v2)
Track 5 accurately ripped (confidence 12) [1A175DC5] (AR v2)
Track 6 accurately ripped (confidence 12) [F977E1AA] (AR v2)
Track 7 accurately ripped (confidence 12) [66B49173] (AR v2)

All tracks accurately ripped

End of status report

–– CUETools DB Plugin V2.1.6

[CTDB TOCID: v_._zF2JcPeDFJAVrksXPdtQMBw-] found
Submit result: v_._zF2JcPeDFJAVrksXPdtQMBw- has been confirmed
Track | CTDB Status
1 | (10/10) Accurately ripped
2 | (10/10) Accurately ripped
3 | (10/10) Accurately ripped
4 | (10/10) Accurately ripped
5 | (10/10) Accurately ripped
6 | (10/10) Accurately ripped
7 | (10/10) Accurately ripped

==== Log checksum DA92E59D1DDE895AE79296A882DD4C9585481C26FF9B79B2A8FFDC2D443A2711 ====

Exact Audio Copy V1.3 from 2. September 2016

EAC extraction logfile from 19. October 2017, 11:43

Andre Navarra / Hallé Orchestra / John Barbirolli / Sibelius: Orchestral Works

Used drive : MATSHITADVD-RAM UJ-831S Adapter: 1 ID: 0

Read mode : Secure
Utilize accurate stream : Yes
Defeat audio cache : Yes
Make use of C2 pointers : No

Read offset correction : 102
Overread into Lead-In and Lead-Out : No
Fill up missing offset samples with silence : Yes
Delete leading and trailing silent blocks : No
Null samples used in CRC calculations : Yes
Used interface : Native Win32 interface for Win NT & 2000

Used output format : Internal WAV Routines
Sample format : 44.100 Hz; 16 Bit; Stereo

TOC of the extracted CD

Track | Start | Length | Start sector | End sector
––––––––––––––––––––––––––––-
1 | 0:00.00 | 8:29.05 | 0 | 38179
2 | 8:29.05 | 3:45.50 | 38180 | 55104
3 | 12:14.55 | 7:17.55 | 55105 | 87934
4 | 19:32.35 | 4:40.48 | 87935 | 108982
5 | 24:13.08 | 14:15.00 | 108983 | 173107
6 | 38:28.08 | 5:35.14 | 173108 | 198246
7 | 44:03.22 | 7:55.66 | 198247 | 233937
8 | 51:59.13 | 7:20.48 | 233938 | 266985
9 | 59:19.61 | 4:24.30 | 266986 | 286815
10 | 63:44.16 | 4:37.08 | 286816 | 307598
11 | 68:21.24 | 10:53.56 | 307599 | 356629

Range status and errors

Selected range

Filename F:\Loseless\Barbirolli EMI\03\Andre Navarra - Hallé Orchestra , John Barbirolli , Sibelius- Orchestral Works.wav

Peak level 88.3 %
Extraction speed 4.4 X
Range quality 100.0 %
Copy CRC B902CCE2
Copy OK

No errors occurred

AccurateRip summary

Track 1 accurately ripped (confidence 11) [C54B4E0D] (AR v2)
Track 2 accurately ripped (confidence 11) [6114E9E2] (AR v2)
Track 3 accurately ripped (confidence 11) [9221394B] (AR v2)
Track 4 accurately ripped (confidence 11) [E342980D] (AR v2)
Track 5 accurately ripped (confidence 11) [5E30302D] (AR v2)
Track 6 accurately ripped (confidence 11) [5613E0B3] (AR v2)
Track 7 accurately ripped (confidence 11) [4FD124E0] (AR v2)
Track 8 accurately ripped (confidence 12) [58903D18] (AR v2)
Track 9 accurately ripped (confidence 12) [72FD08B2] (AR v2)
Track 10 accurately ripped (confidence 12) [B2AA105E] (AR v2)
Track 11 accurately ripped (confidence 12) [BEE06991] (AR v2)

All tracks accurately ripped

End of status report

–– CUETools DB Plugin V2.1.6

[CTDB TOCID: 5uQZNIqPN_pkw_UnLXfEMbuvmCQ-] found
Submit result: 操作超时
Track | CTDB Status
1 | (7/7) Accurately ripped
2 | (7/7) Accurately ripped
3 | (7/7) Accurately ripped
4 | (7/7) Accurately ripped
5 | (7/7) Accurately ripped
6 | (7/7) Accurately ripped
7 | (7/7) Accurately ripped
8 | (7/7) Accurately ripped
9 | (7/7) Accurately ripped
10 | (7/7) Accurately ripped
11 | (6/7) Accurately ripped

==== Log checksum D14C14B73FF2F134F2FF14AE764CB1EBFBFA7772C112F96AEC0B34776AC880DB ====

Exact Audio Copy V1.3 from 2. September 2016

EAC extraction logfile from 19. October 2017, 13:26

Sir John Barbirolli / Symphony no. 5

Used drive : MATSHITADVD-RAM UJ-831S Adapter: 1 ID: 0

Read mode : Secure
Utilize accurate stream : Yes
Defeat audio cache : Yes
Make use of C2 pointers : No

Read offset correction : 102
Overread into Lead-In and Lead-Out : No
Fill up missing offset samples with silence : Yes
Delete leading and trailing silent blocks : No
Null samples used in CRC calculations : Yes
Used interface : Native Win32 interface for Win NT & 2000

Used output format : Internal WAV Routines
Sample format : 44.100 Hz; 16 Bit; Stereo

TOC of the extracted CD

Track | Start | Length | Start sector | End sector
––––––––––––––––––––––––––––-
1 | 0:00.00 | 13:47.72 | 0 | 62096
2 | 13:47.72 | 15:14.50 | 62097 | 130696
3 | 29:02.47 | 18:04.53 | 130697 | 212049
4 | 47:07.25 | 9:51.47 | 212050 | 256421
5 | 56:58.72 | 17:28.00 | 256422 | 335021

Range status and errors

Selected range

Filename F:\Loseless\Barbirolli EMI\04\Sir John Barbirolli - Symphony no. 5.wav

Peak level 97.0 %
Extraction speed 4.4 X
Range quality 100.0 %
Copy CRC 21139F6A
Copy OK

No errors occurred

AccurateRip summary

Track 1 accurately ripped (confidence 17) [2D42289D] (AR v2)
Track 2 accurately ripped (confidence 17) [0079B832] (AR v2)
Track 3 accurately ripped (confidence 17) [991E7E01] (AR v2)
Track 4 accurately ripped (confidence 17) [5D2C2A6D] (AR v2)
Track 5 accurately ripped (confidence 17) [7566EDAF] (AR v2)

All tracks accurately ripped

End of status report

–– CUETools DB Plugin V2.1.6

[CTDB TOCID: KHuVFAegGosdk9xOg5yaXVv7eKk-] found
Submit result: KHuVFAegGosdk9xOg5yaXVv7eKk- has been confirmed
Track | CTDB Status
1 | (112/123) Accurately ripped, or (9/123) differs in 192 samples @00:00:72-00:00:73
2 | (122/123) Accurately ripped
3 | (109/123) Accurately ripped, or (9/123) differs in 9383 samples @12:14:11-12:14:15,12:16:31-12:20:69,18:02:26, or (3/123) differs in 16 samples @07:09:71-07:09:72
4 | (113/123) Accurately ripped, or (9/123) differs in 790 samples @00:04:74-00:05:00
5 | (111/123) Accurately ripped, or (9/123) differs in 41 samples @17:27:49

==== Log checksum 4477A379B10D76C2A510B7CF1BA1D24FCB8B3DFC67B648E3CDD171B775C02AA4 ====

Exact Audio Copy V1.3 from 2. September 2016

EAC extraction logfile from 19. October 2017, 14:18

Hallé Orchestra / John Barbirolli / Ravel: Suites [Barbirolli]

Used drive : MATSHITADVD-RAM UJ-831S Adapter: 1 ID: 0

Read mode : Secure
Utilize accurate stream : Yes
Defeat audio cache : Yes
Make use of C2 pointers : No

Read offset correction : 102
Overread into Lead-In and Lead-Out : No
Fill up missing offset samples with silence : Yes
Delete leading and trailing silent blocks : No
Null samples used in CRC calculations : Yes
Used interface : Native Win32 interface for Win NT & 2000

Used output format : Internal WAV Routines
Sample format : 44.100 Hz; 16 Bit; Stereo

TOC of the extracted CD

Track | Start | Length | Start sector | End sector
––––––––––––––––––––––––––––-
1 | 0:00.32 | 9:27.10 | 32 | 42566
2 | 9:27.42 | 6:32.20 | 42567 | 71986
3 | 15:59.62 | 8:15.00 | 71987 | 109111
4 | 24:14.62 | 5:45.23 | 109112 | 135009
5 | 30:00.10 | 5:12.10 | 135010 | 158419
6 | 35:12.20 | 4:51.67 | 158420 | 180311
7 | 40:04.12 | 11:57.38 | 180312 | 234124
8 | 52:01.50 | 1:36.10 | 234125 | 241334
9 | 53:37.60 | 3:18.20 | 241335 | 256204
10 | 56:56.05 | 3:29.17 | 256205 | 271896
11 | 60:25.22 | 3:46.74 | 271897 | 288920
12 | 64:12.21 | 3:27.30 | 288921 | 304475

Range status and errors

Selected range

Filename F:\Loseless\Barbirolli EMI\05\Hallé Orchestra - John Barbirolli , Ravel- Suites [Barbirolli].wav

Peak level 100.0 %
Extraction speed 4.1 X
Range quality 99.9 %
Copy CRC 6CBD319D
Copy OK

No errors occurred

AccurateRip summary

Track 1 accurately ripped (confidence 13) [B236A1F9] (AR v2)
Track 2 accurately ripped (confidence 13) [2EA1FC61] (AR v2)
Track 3 accurately ripped (confidence 13) [0B2922C0] (AR v2)
Track 4 accurately ripped (confidence 13) [D49E0099] (AR v2)
Track 5 accurately ripped (confidence 13) [0754E3F8] (AR v2)
Track 6 accurately ripped (confidence 13) [10EBC1D7] (AR v2)
Track 7 accurately ripped (confidence 13) [7B82A245] (AR v2)
Track 8 accurately ripped (confidence 13) [68CE15F1] (AR v2)
Track 9 accurately ripped (confidence 13) [B53C6D35] (AR v2)
Track 10 accurately ripped (confidence 13) [0EE9E346] (AR v2)
Track 11 accurately ripped (confidence 13) [DD86A796] (AR v2)
Track 12 accurately ripped (confidence 13) [18B0B704] (AR v2)

All tracks accurately ripped

End of status report

–– CUETools DB Plugin V2.1.6

[CTDB TOCID: 5uvszDqnyIuz2.oQeK9Dwjd9YsM-] found
Submit result: 5uvszDqnyIuz2.oQeK9Dwjd9YsM- has been confirmed
Track | CTDB Status
1 | (6/6) Accurately ripped
2 | (6/6) Accurately ripped
3 | (6/6) Accurately ripped
4 | (6/6) Accurately ripped
5 | (6/6) Accurately ripped
6 | (6/6) Accurately ripped
7 | (6/6) Accurately ripped
8 | (6/6) Accurately ripped
9 | (6/6) Accurately ripped
10 | (6/6) Accurately ripped
11 | (6/6) Accurately ripped
12 | (6/6) Accurately ripped

==== Log checksum 965693B5DE892090F0FAEC6C5679AC93E5886417B3217846ED98F5EE5A2E589A ====

Exact Audio Copy V1.3 from 2. September 2016

EAC extraction logfile from 24. October 2017, 9:09

London Symphony Orchestra / John Barbirolli / Tchaikovsky: Serenade in C for Strings, Op. 48 [Barbirolli]

Used drive : MATSHITADVD-RAM UJ-831S Adapter: 1 ID: 0

Read mode : Secure
Utilize accurate stream : Yes
Defeat audio cache : Yes
Make use of C2 pointers : No

Read offset correction : 102
Overread into Lead-In and Lead-Out : No
Fill up missing offset samples with silence : Yes
Delete leading and trailing silent blocks : No
Null samples used in CRC calculations : Yes
Used interface : Native Win32 interface for Win NT & 2000

Used output format : Internal WAV Routines
Sample format : 44.100 Hz; 16 Bit; Stereo

TOC of the extracted CD

Track | Start | Length | Start sector | End sector
––––––––––––––––––––––––––––-
1 | 0:00.00 | 10:11.37 | 0 | 45861
2 | 10:11.37 | 3:52.42 | 45862 | 63303
3 | 14:04.04 | 9:23.55 | 63304 | 105583
4 | 23:27.59 | 7:39.68 | 105584 | 140076
5 | 31:07.52 | 17:08.00 | 140077 | 217176
6 | 48:15.52 | 9:01.05 | 217177 | 257756
7 | 57:16.57 | 5:43.03 | 257757 | 283484
8 | 62:59.60 | 9:06.08 | 283485 | 324442

Range status and errors

Selected range

Filename F:\Loseless\Barbirolli EMI\06\London Symphony Orchestra - John Barbirolli , Tchaikovsky- Serenade in C for Strings, Op. 48 [Barbirolli].wav

Peak level 99.8 %
Extraction speed 4.3 X
Range quality 99.9 %
Copy CRC 62D168F1
Copy OK

No errors occurred

AccurateRip summary

Track 1 accurately ripped (confidence 11) [36C7F5F1] (AR v2)
Track 2 accurately ripped (confidence 11) [27C699FD] (AR v2)
Track 3 accurately ripped (confidence 11) [DAF4FE55] (AR v2)
Track 4 accurately ripped (confidence 11) [8C7DD0D8] (AR v2)
Track 5 accurately ripped (confidence 11) [F961414C] (AR v2)
Track 6 accurately ripped (confidence 11) [CC7EDAB4] (AR v2)
Track 7 accurately ripped (confidence 11) [57D11522] (AR v2)
Track 8 accurately ripped (confidence 11) [16C53D3A] (AR v2)

All tracks accurately ripped

End of status report

–– CUETools DB Plugin V2.1.6

[CTDB TOCID: qZqVyjLVhtYMBBUryL0m_t7pOmY-] found
Submit result: qZqVyjLVhtYMBBUryL0m_t7pOmY- has been confirmed
Track | CTDB Status
1 | (9/9) Accurately ripped
2 | (9/9) Accurately ripped
3 | (9/9) Accurately ripped
4 | (9/9) Accurately ripped
5 | (9/9) Accurately ripped
6 | (9/9) Accurately ripped
7 | (9/9) Accurately ripped
8 | (9/9) Accurately ripped

==== Log checksum 4FFB9FC8022D57C2127BC5036CFB5E87826EC97E464F33B4FF46609C175ACF16 ====

Exact Audio Copy V1.3 from 2. September 2016

EAC extraction logfile from 18. October 2017, 8:21

Various / English String Music

Used drive : MATSHITADVD-RAM UJ-831S Adapter: 1 ID: 0

Read mode : Secure
Utilize accurate stream : Yes
Defeat audio cache : Yes
Make use of C2 pointers : No

Read offset correction : 102
Overread into Lead-In and Lead-Out : No
Fill up missing offset samples with silence : Yes
Delete leading and trailing silent blocks : No
Null samples used in CRC calculations : Yes
Used interface : Native Win32 interface for Win NT & 2000

Used output format : Internal WAV Routines
Sample format : 44.100 Hz; 16 Bit; Stereo

TOC of the extracted CD

Track | Start | Length | Start sector | End sector
––––––––––––––––––––––––––––-
1 | 0:00.00 | 14:06.39 | 0 | 63488
2 | 14:06.39 | 3:58.25 | 63489 | 81363
3 | 18:04.64 | 6:00.01 | 81364 | 108364
4 | 24:04.65 | 3:13.47 | 108365 | 122886
5 | 27:18.37 | 4:30.00 | 122887 | 143136
6 | 31:48.37 | 5:16.72 | 143137 | 166908
7 | 37:05.34 | 16:19.57 | 166909 | 240390
8 | 53:25.16 | 4:45.35 | 240391 | 261800
9 | 58:10.51 | 15:03.56 | 261801 | 329581

Range status and errors

Selected range

Filename F:\Loseless\Barbirolli EMI\07\Various - English String Music.wav

Peak level 93.6 %
Extraction speed 4.4 X
Range quality 100.0 %
Copy CRC DCA2F506
Copy OK

No errors occurred

AccurateRip summary

Track 1 accurately ripped (confidence 12) [D150CB2C] (AR v2)
Track 2 accurately ripped (confidence 12) [38958BE7] (AR v2)
Track 3 accurately ripped (confidence 12) [EA71A25E] (AR v2)
Track 4 accurately ripped (confidence 12) [5DAF0152] (AR v2)
Track 5 accurately ripped (confidence 12) [80DD086D] (AR v2)
Track 6 accurately ripped (confidence 12) [B6B40555] (AR v2)
Track 7 accurately ripped (confidence 12) [88C1D0AF] (AR v2)
Track 8 accurately ripped (confidence 11) [B561146C] (AR v2)
Track 9 accurately ripped (confidence 12) [D8E0AFF1] (AR v2)

All tracks accurately ripped

End of status report

–– CUETools DB Plugin V2.1.6

[CTDB TOCID: bidGwZvE0YQAXELSjbahdXLtgHo-] found
Submit result: bidGwZvE0YQAXELSjbahdXLtgHo- has been confirmed
Track | CTDB Status
1 | (9/9) Accurately ripped
2 | (9/9) Accurately ripped
3 | (9/9) Accurately ripped
4 | (9/9) Accurately ripped
5 | (9/9) Accurately ripped
6 | (9/9) Accurately ripped
7 | (9/9) Accurately ripped
8 | (9/9) Accurately ripped
9 | (9/9) Accurately ripped

==== Log checksum ED14A894D4C3C3F266324CA5767BF70C1E652B8387FC8AD71331654F8B0BEB8E ====

Exact Audio Copy V1.3 from 2. September 2016

EAC extraction logfile from 18. October 2017, 8:41

Sir John Barbirolli / 08 Barbirolli Great EMI Recordings

Used drive : MATSHITADVD-RAM UJ-831S Adapter: 1 ID: 0

Read mode : Secure
Utilize accurate stream : Yes
Defeat audio cache : Yes
Make use of C2 pointers : No

Read offset correction : 102
Overread into Lead-In and Lead-Out : No
Fill up missing offset samples with silence : Yes
Delete leading and trailing silent blocks : No
Null samples used in CRC calculations : Yes
Used interface : Native Win32 interface for Win NT & 2000

Used output format : Internal WAV Routines
Sample format : 44.100 Hz; 16 Bit; Stereo

TOC of the extracted CD

Track | Start | Length | Start sector | End sector
––––––––––––––––––––––––––––-
1 | 0:00.00 | 5:04.65 | 0 | 22864
2 | 5:04.65 | 2:05.54 | 22865 | 32293
3 | 7:10.44 | 6:20.15 | 32294 | 60808
4 | 13:30.59 | 4:10.53 | 60809 | 79611
5 | 17:41.37 | 6:12.65 | 79612 | 107576
6 | 23:54.27 | 21:38.26 | 107577 | 204952
7 | 45:32.53 | 7:03.17 | 204953 | 236694
8 | 52:35.70 | 12:15.33 | 236695 | 291852
9 | 64:51.28 | 12:48.25 | 291853 | 349477

Range status and errors

Selected range

Filename F:\Loseless\Barbirolli EMI\08\Sir John Barbirolli - 08 Barbirolli Great EMI Recordings.wav

Peak level 97.7 %
Extraction speed 4.4 X
Range quality 100.0 %
Copy CRC 34F729BA
Copy OK

No errors occurred

AccurateRip summary

Track 1 accurately ripped (confidence 12) [3DFF3AA5] (AR v2)
Track 2 accurately ripped (confidence 12) [990305B3] (AR v2)
Track 3 accurately ripped (confidence 12) [33260AD6] (AR v2)
Track 4 accurately ripped (confidence 12) [F3796051] (AR v2)
Track 5 accurately ripped (confidence 12) [D8AE9553] (AR v2)
Track 6 accurately ripped (confidence 13) [1288B8BE] (AR v2)
Track 7 accurately ripped (confidence 13) [B3BDB4D0] (AR v2)
Track 8 accurately ripped (confidence 13) [9692A9BB] (AR v2)
Track 9 accurately ripped (confidence 13) [94BE1437] (AR v2)

All tracks accurately ripped

End of status report

–– CUETools DB Plugin V2.1.6

[CTDB TOCID: 1nRIs3IZZ84aQpHPeK_09_oUIjs-] found
Submit result: 1nRIs3IZZ84aQpHPeK_09_oUIjs- has been confirmed
Track | CTDB Status
1 | (7/7) Accurately ripped
2 | (7/7) Accurately ripped
3 | (7/7) Accurately ripped
4 | (7/7) Accurately ripped
5 | (7/7) Accurately ripped
6 | (7/7) Accurately ripped
7 | (7/7) Accurately ripped
8 | (7/7) Accurately ripped
9 | (7/7) Accurately ripped

==== Log checksum 14B7C5F35625646F95840F0C64712A6D8A72A98316DC31A69C7C7A0CBF9CC4EA ====

Exact Audio Copy V1.3 from 2. September 2016

EAC extraction logfile from 18. October 2017, 9:26

Philharmonia Orchestra / John Barbirolli / Elgar: Variations on an Original Theme, Op. 36, 'Enigma' [Barbirolli]

Used drive : MATSHITADVD-RAM UJ-831S Adapter: 1 ID: 0

Read mode : Secure
Utilize accurate stream : Yes
Defeat audio cache : Yes
Make use of C2 pointers : No

Read offset correction : 102
Overread into Lead-In and Lead-Out : No
Fill up missing offset samples with silence : Yes
Delete leading and trailing silent blocks : No
Null samples used in CRC calculations : Yes
Used interface : Native Win32 interface for Win NT & 2000

Used output format : Internal WAV Routines
Sample format : 44.100 Hz; 16 Bit; Stereo

TOC of the extracted CD

Track | Start | Length | Start sector | End sector
––––––––––––––––––––––––––––-
1 | 0:00.00 | 13:11.07 | 0 | 59331
2 | 13:11.07 | 10:10.63 | 59332 | 105144
3 | 23:21.70 | 9:05.19 | 105145 | 146038
4 | 32:27.14 | 6:13.74 | 146039 | 174087
5 | 38:41.13 | 9:45.19 | 174088 | 217981
6 | 48:26.32 | 1:27.66 | 217982 | 224572
7 | 49:54.23 | 1:47.55 | 224573 | 232652
8 | 51:42.03 | 0:49.27 | 232653 | 236354
9 | 52:31.30 | 1:28.24 | 236355 | 242978
10 | 53:59.54 | 0:30.33 | 242979 | 245261
11 | 54:30.12 | 2:16.56 | 245262 | 255517
12 | 56:46.68 | 1:16.16 | 255518 | 261233
13 | 58:03.09 | 1:03.58 | 261234 | 266016
14 | 59:06.67 | 1:47.56 | 266017 | 274097
15 | 60:54.48 | 3:34.50 | 274098 | 290197
16 | 64:29.23 | 2:24.66 | 290198 | 301063
17 | 66:54.14 | 0:59.42 | 301064 | 305530
18 | 67:53.56 | 2:53.27 | 305531 | 318532
19 | 70:47.08 | 2:46.37 | 318533 | 331019
20 | 73:33.45 | 5:30.37 | 331020 | 355806

Range status and errors

Selected range

Filename F:\Loseless\Barbirolli EMI\09\Philharmonia Orchestra - John Barbirolli , Elgar- Variations on an Original Theme, Op. 36, 'Enigma' [Barbirolli].wav

Peak level 99.8 %
Extraction speed 4.4 X
Range quality 100.0 %
Copy CRC 9D6716CA
Copy OK

No errors occurred

AccurateRip summary

Track 1 accurately ripped (confidence 13) [84216DE9] (AR v2)
Track 2 accurately ripped (confidence 13) [38E49D20] (AR v2)
Track 3 accurately ripped (confidence 13) [F7661C04] (AR v2)
Track 4 accurately ripped (confidence 13) [4DDC9BF4] (AR v2)
Track 5 accurately ripped (confidence 13) [EED83444] (AR v2)
Track 6 accurately ripped (confidence 13) [96FDF4A1] (AR v2)
Track 7 accurately ripped (confidence 13) [A7B018CD] (AR v2)
Track 8 accurately ripped (confidence 13) [13FF4452] (AR v2)
Track 9 accurately ripped (confidence 13) [835A14AA] (AR v2)
Track 10 accurately ripped (confidence 13) [D07AF6DE] (AR v2)
Track 11 accurately ripped (confidence 13) [B201AF1D] (AR v2)
Track 12 accurately ripped (confidence 13) [A3252DA3] (AR v2)
Track 13 accurately ripped (confidence 13) [5E27CFFF] (AR v2)
Track 14 accurately ripped (confidence 13) [F7AA7195] (AR v2)
Track 15 accurately ripped (confidence 13) [33D40BCB] (AR v2)
Track 16 accurately ripped (confidence 13) [3C4CF052] (AR v2)
Track 17 accurately ripped (confidence 13) [C28B36BD] (AR v2)
Track 18 accurately ripped (confidence 13) [EDD1AD70] (AR v2)
Track 19 accurately ripped (confidence 12) [E56045E0] (AR v2)
Track 20 accurately ripped (confidence 13) [2FAA31B5] (AR v2)

All tracks accurately ripped

End of status report

–– CUETools DB Plugin V2.1.6

[CTDB TOCID: EATg5q5yEumbs5GBuwIiV5_TT_k-] found
Submit result: EATg5q5yEumbs5GBuwIiV5_TT_k- has been confirmed
Track | CTDB Status
1 | (5/6) Accurately ripped
2 | (6/6) Accurately ripped
3 | (6/6) Accurately ripped
4 | (6/6) Accurately ripped
5 | (6/6) Accurately ripped
6 | (6/6) Accurately ripped
7 | (6/6) Accurately ripped
8 | (6/6) Accurately ripped
9 | (6/6) Accurately ripped
10 | (6/6) Accurately ripped
11 | (6/6) Accurately ripped
12 | (6/6) Accurately ripped
13 | (6/6) Accurately ripped
14 | (6/6) Accurately ripped
15 | (6/6) Accurately ripped
16 | (6/6) Accurately ripped
17 | (6/6) Accurately ripped
18 | (6/6) Accurately ripped
19 | (6/6) Accurately ripped
20 | (6/6) Accurately ripped

==== Log checksum 0A52A6675160FF4D8D0458329C0908005A31CBF274AD95F13CE8CF4E7E5CDA6C ====

Exact Audio Copy V1.3 from 2. September 2016

EAC extraction logfile from 18. October 2017, 13:22

Sir John Barbirolli / 10 Barbirolli Great EMI Recordings

Used drive : MATSHITADVD-RAM UJ-831S Adapter: 1 ID: 0

Read mode : Secure
Utilize accurate stream : Yes
Defeat audio cache : Yes
Make use of C2 pointers : No

Read offset correction : 102
Overread into Lead-In and Lead-Out : No
Fill up missing offset samples with silence : Yes
Delete leading and trailing silent blocks : No
Null samples used in CRC calculations : Yes
Used interface : Native Win32 interface for Win NT & 2000

Used output format : Internal WAV Routines
Sample format : 44.100 Hz; 16 Bit; Stereo

TOC of the extracted CD

Track | Start | Length | Start sector | End sector
––––––––––––––––––––––––––––-
1 | 0:00.00 | 2:36.21 | 0 | 11720
2 | 2:36.21 | 4:31.25 | 11721 | 32070
3 | 7:07.46 | 4:42.47 | 32071 | 53267
4 | 11:50.18 | 3:48.10 | 53268 | 70377
5 | 15:38.28 | 2:42.34 | 70378 | 82561
6 | 18:20.62 | 3:03.33 | 82562 | 96319
7 | 21:24.20 | 3:10.02 | 96320 | 110571
8 | 24:34.22 | 2:22.21 | 110572 | 121242
9 | 26:56.43 | 7:53.23 | 121243 | 156740
10 | 34:49.66 | 5:37.73 | 156741 | 182088
11 | 40:27.64 | 5:28.22 | 182089 | 206710
12 | 45:56.11 | 6:09.00 | 206711 | 234385
13 | 52:05.11 | 3:59.57 | 234386 | 252367
14 | 56:04.68 | 1:37.20 | 252368 | 259662
15 | 57:42.13 | 2:42.20 | 259663 | 271832
16 | 60:24.33 | 5:55.15 | 271833 | 298472
17 | 66:19.48 | 2:26.65 | 298473 | 309487
18 | 68:46.38 | 6:48.36 | 309488 | 340123

Range status and errors

Selected range

Filename F:\Loseless\Barbirolli EMI\10\Sir John Barbirolli - 10 Barbirolli Great EMI Recordings.wav

Peak level 89.7 %
Extraction speed 4.4 X
Range quality 100.0 %
Copy CRC 8242949E
Copy OK

No errors occurred

AccurateRip summary

Track 1 accurately ripped (confidence 14) [ED71FF68] (AR v2)
Track 2 accurately ripped (confidence 14) [6F5C62D5] (AR v2)
Track 3 accurately ripped (confidence 14) [306CA40E] (AR v2)
Track 4 accurately ripped (confidence 14) [A22C2A46] (AR v2)
Track 5 accurately ripped (confidence 14) [4B0578FD] (AR v2)
Track 6 accurately ripped (confidence 14) [66D320B2] (AR v2)
Track 7 accurately ripped (confidence 14) [E6CEF691] (AR v2)
Track 8 accurately ripped (confidence 14) [6B82067E] (AR v2)
Track 9 accurately ripped (confidence 14) [818486A3] (AR v2)
Track 10 accurately ripped (confidence 14) [D1FCE31B] (AR v2)
Track 11 accurately ripped (confidence 14) [BD2EADE1] (AR v2)
Track 12 accurately ripped (confidence 14) [B7787D40] (AR v2)
Track 13 accurately ripped (confidence 14) [F068AE62] (AR v2)
Track 14 accurately ripped (confidence 13) [C0D6DF58] (AR v2)
Track 15 accurately ripped (confidence 13) [F07A67A9] (AR v2)
Track 16 accurately ripped (confidence 13) [3A0AE9AB] (AR v2)
Track 17 accurately ripped (confidence 13) [AB90FAA7] (AR v2)
Track 18 accurately ripped (confidence 13) [A0E86C22] (AR v2)

All tracks accurately ripped

End of status report

–– CUETools DB Plugin V2.1.6

[CTDB TOCID: k0.44Fqu5PDUJ4LRr6kAT166vgo-] found
Submit result: k0.44Fqu5PDUJ4LRr6kAT166vgo- has been confirmed
Track | CTDB Status
1 | (7/7) Accurately ripped
2 | (7/7) Accurately ripped
3 | (7/7) Accurately ripped
4 | (7/7) Accurately ripped
5 | (7/7) Accurately ripped
6 | (7/7) Accurately ripped
7 | (7/7) Accurately ripped
8 | (7/7) Accurately ripped
9 | (7/7) Accurately ripped
10 | (7/7) Accurately ripped
11 | (7/7) Accurately ripped
12 | (7/7) Accurately ripped
13 | (7/7) Accurately ripped
14 | (7/7) Accurately ripped
15 | (7/7) Accurately ripped
16 | (7/7) Accurately ripped
17 | (7/7) Accurately ripped
18 | (7/7) Accurately ripped

==== Log checksum D5606DAF755ACB443BBE4E8D7BD12C628AD07C4F80010025F299EE107252D465 ====

All thanks go to the Original ripper (unknown)

More Music in My Blog
Follow My RSS Channel