Tags
Language
Tags
July 2024
Su Mo Tu We Th Fr Sa
30 1 2 3 4 5 6
7 8 9 10 11 12 13
14 15 16 17 18 19 20
21 22 23 24 25 26 27
28 29 30 31 1 2 3

Stephen Cleobury & Choir of King's College, Cambridge - 100 Years of Nine Lessons & Carols (2018)

Posted By: delpotro
Stephen Cleobury & Choir of King's College, Cambridge - 100 Years of Nine Lessons & Carols (2018)

Stephen Cleobury & Choir of King's College, Cambridge - 100 Years of Nine Lessons & Carols (2018)
EAC Rip | FLAC (tracks+log+.cue) - 456 Mb | MP3 CBR 320 kbps - 255 Mb | Covers included | 01:46:40
Classical, Choral, Sacred | Label: King's College Recordings

For many, Christmas wouldn’t be Christmas without the sound of carols sung from King’s College Chapel, and each year over the festive period millions around the world enjoy the Choir’s A Festival of Nine Lessons & Carols. This two-part collection celebrates 100 years of the iconic service with a mix of brand-new performances and historical recordings not heard since the original BBC broadcasts.

The first part of this special album tells the story of the service’s long history, featuring Directors of Music David Willcocks, Philip Ledger and Stephen Cleobury in recordings spanning from 1958 to 2017. A selection of traditional favourites are accompanied by world premiere performances of contemporary carols, commissioned by the College from leading contemporary composers, including Judith Weir, Arvo Pärt and Thomas Adès. The second part of the album features brand-new recordings by today’s choir, who shine in cherished compositions such as We Three Kings, The Shepherd’s Farewell and O Holy Night.

100 Years of Nine Lessons & Carols is a fitting tribute to one of music’s greatest institutions: one that has brought joy to so many since its inception at King’s 100 years ago and will continue to do so into the future.
Tracklist:
Disc 1 (48:24)
1. Stephen Cleobury – O Holy Night (Arr. John Rutter) (05:38)
2. Stephen Cleobury – The Linden Tree Carol (Arr. Stephen Cleobury) (03:04)
3. Stephen Cleobury – The Lamb (03:39)
4. Stephen Cleobury – God rest you merry, gentlemen (Arr. David Willcocks) (03:39)
5. Stephen Cleobury – The Shepherds' Farewell (04:03)
6. Stephen Cleobury – I saw three ships (Arr. Philip Ledger) (01:50)
7. Stephen Cleobury – We three kings of Orient are (Arr. Martin Neary) (03:07)
8. Stephen Cleobury – Can I not syng but hoy? (03:10)
9. Stephen Cleobury – The Magi's Dream (03:29)
10. Stephen Cleobury – There is no rose (02:12)
11. Stephen Cleobury – Adam's Fall (03:15)
12. Stephen Cleobury – How shall I fitly meet thee? (01:07)
13. Stephen Cleobury – Love came down at Christmas (Arr. Stephen Cleobury) (01:17)
14. Stephen Cleobury – Break forth, O beauteous heavenly light (01:15)
15. Stephen Cleobury – O Come, All Ye Faithful (Arr. David Willcocks) (04:28)
16. Stephen Cleobury – Hark! The herald angels sing (Desc. Stephen Cleobury) (03:11)

Disc 2 (58:01)
1. Choir of King's College, Cambridge – Gabriel's Message (Arr. Pettman) [1958] (02:34)
2. Choir of King's College, Cambridge – Adam lay ybounden [1963] (01:14)
3. Choir of King's College, Cambridge – Ding! dong! merrily on high (Arr. Charles Wood) [1963] (02:02)
4. Choir of King's College, Cambridge – Sussex Carol (Arr. David Willcocks) [1963] (01:53)
5. Choir of King's College, Cambridge – O come, all ye faithful (Arr. David Willcocks) [1963] (04:36)
6. Choir of King's College, Cambridge – In dulci jubilo (Arr. Robert L. de Pearsall, Ed. Reginald Jacques) [1980] (03:36)
7. Choir of King's College, Cambridge – Unto us is born a Son (Arr. David Willcocks) [1980] (02:16)
8. Choir of King's College, Cambridge – Hark! the herald angels sing (arr. Philip Ledger) [1978] (03:46)
9. Stephen Cleobury – Illuminare, Jerusalem [1985 – premiere] (02:30)
10. Stephen Cleobury – The holly and the ivy (Arr. Henry Walford Davies) [1994] (02:35)
11. Stephen Cleobury – Benedicamus Domino [1994] (01:11)
12. Stephen Cleobury – I saw three ships (Arr. Simon Preston) [1994] (02:02)
13. Stephen Cleobury – The Fayrfax Carol [1997 – Premiere] (04:22)
14. Stephen Cleobury – Tomorrow shall be my dancing day [1997] (02:17)
15. Stephen Cleobury – I wonder as I wander [2000] (01:48)
16. Stephen Cleobury – The Shepherd's Carol [2001] (02:53)
17. Stephen Cleobury – Dormi, Jesu [2007] (04:28)
18. Stephen Cleobury – Bogoróditse Djévo [2007] (01:08)
19. Stephen Cleobury – This Endernight [2016 – Premiere Recording] (04:07)
20. Stephen Cleobury – Carol Eliseus [2017 – Premiere Recording] (02:20)
21. Stephen Cleobury – Once in royal David's city (Desc. Stephen Cleobury) [2017] (04:23)

Exact Audio Copy V1.3 from 2. September 2016

EAC extraction logfile from 21. December 2020, 11:06

Choir Of King's College Cambridge / 100 Years of Nine Lessons & Carols

Used drive : PLEXTOR PX-891SAF Adapter: 1 ID: 0

Read mode : Secure
Utilize accurate stream : Yes
Defeat audio cache : Yes
Make use of C2 pointers : No

Read offset correction : 6
Overread into Lead-In and Lead-Out : No
Fill up missing offset samples with silence : Yes
Delete leading and trailing silent blocks : No
Null samples used in CRC calculations : Yes
Used interface : Native Win32 interface for Win NT & 2000
Gap handling : Appended to previous track

Used output format : User Defined Encoder
Selected bitrate : 1024 kBit/s
Quality : High
Add ID3 tag : No
Command line compressor : C:\Program Files (x86)\Exact Audio Copy\Flac\flac.exe
Additional command line options : -8 -V -T "ARTIST=%artist%" -T "TITLE=%title%" -T "ALBUM=%albumtitle%" -T "DATE=%year%" -T "TRACKNUMBER=%tracknr%" -T "GENRE=%genre%" -T "PERFORMER=%albuminterpret%" -T "COMPOSER=%composer%" %haslyrics%–tag-from-file=LYRICS="%lyricsfile%"%haslyrics% -T "ALBUMARTIST=%albumartist%" -T "DISCNUMBER=%cdnumber%" -T "TOTALDISCS=%totalcds%" -T "TOTALTRACKS=%numtracks%" -T "COMMENT=%comment%" %source% -o %dest%


TOC of the extracted CD

Track | Start | Length | Start sector | End sector
––––––––––––––––––––––––––––-
1 | 0:00.00 | 2:34.60 | 0 | 11609
2 | 2:34.60 | 1:14.66 | 11610 | 17225
3 | 3:49.51 | 2:02.62 | 17226 | 26437
4 | 5:52.38 | 1:53.10 | 26438 | 34922
5 | 7:45.48 | 4:36.61 | 34923 | 55683
6 | 12:22.34 | 3:36.07 | 55684 | 71890
7 | 15:58.41 | 2:16.10 | 71891 | 82100
8 | 18:14.51 | 3:46.01 | 82101 | 99051
9 | 22:00.52 | 2:30.60 | 99052 | 110361
10 | 24:31.37 | 2:35.11 | 110362 | 121997
11 | 27:06.48 | 1:11.57 | 121998 | 127379
12 | 28:18.30 | 2:02.40 | 127380 | 136569
13 | 30:20.70 | 4:22.42 | 136570 | 156261
14 | 34:43.37 | 2:17.70 | 156262 | 166606
15 | 37:01.32 | 1:48.25 | 166607 | 174731
16 | 38:49.57 | 2:53.39 | 174732 | 187745
17 | 41:43.21 | 4:28.54 | 187746 | 207899
18 | 46:12.00 | 1:08.43 | 207900 | 213042
19 | 47:20.43 | 4:07.37 | 213043 | 231604
20 | 51:28.05 | 2:20.26 | 231605 | 242130
21 | 53:48.31 | 4:23.19 | 242131 | 261874


Track 1

Filename F:\#EAC wav+flac\#Add\Choir Of King's College Cambridge - 100 Years of Nine Lessons & Carols\cd 1\01. Choir Of King's College Cambridge - Gabriel's Message.wav

Pre-gap length 0:00:02.00

Peak level 59.4 %
Extraction speed 4.6 X
Track quality 100.0 %
Test CRC 46E768FB
Copy CRC 46E768FB
Accurately ripped (confidence 4) [268BDE0A] (AR v2)
Copy OK

Track 2

Filename F:\#EAC wav+flac\#Add\Choir Of King's College Cambridge - 100 Years of Nine Lessons & Carols\cd 1\02. Choir Of King's College Cambridge - Adam Lay Ybounden.wav

Peak level 71.8 %
Extraction speed 4.0 X
Track quality 100.0 %
Test CRC 5231E808
Copy CRC 5231E808
Accurately ripped (confidence 4) [DAC89890] (AR v2)
Copy OK

Track 3

Filename F:\#EAC wav+flac\#Add\Choir Of King's College Cambridge - 100 Years of Nine Lessons & Carols\cd 1\03. Choir Of King's College Cambridge - Ding! Dong! Merrily On High.wav

Peak level 76.1 %
Extraction speed 3.6 X
Track quality 99.9 %
Test CRC C9144F6A
Copy CRC C9144F6A
Accurately ripped (confidence 4) [191A40D0] (AR v2)
Copy OK

Track 4

Filename F:\#EAC wav+flac\#Add\Choir Of King's College Cambridge - 100 Years of Nine Lessons & Carols\cd 1\04. Choir Of King's College Cambridge - Sussex Carol.wav

Peak level 67.8 %
Extraction speed 5.0 X
Track quality 100.0 %
Test CRC 1606EE13
Copy CRC 1606EE13
Accurately ripped (confidence 4) [7F1CD659] (AR v2)
Copy OK

Track 5

Filename F:\#EAC wav+flac\#Add\Choir Of King's College Cambridge - 100 Years of Nine Lessons & Carols\cd 1\05. Choir Of King's College Cambridge - O Come, All Ye Faithful.wav

Peak level 84.3 %
Extraction speed 6.3 X
Track quality 100.0 %
Test CRC 7D326D73
Copy CRC 7D326D73
Accurately ripped (confidence 4) [8C659F5A] (AR v2)
Copy OK

Track 6

Filename F:\#EAC wav+flac\#Add\Choir Of King's College Cambridge - 100 Years of Nine Lessons & Carols\cd 1\06. Choir Of King's College Cambridge - In Dulci Jubilo.wav

Peak level 60.5 %
Extraction speed 5.3 X
Track quality 99.9 %
Test CRC 9C2FE46D
Copy CRC 9C2FE46D
Accurately ripped (confidence 4) [69388573] (AR v2)
Copy OK

Track 7

Filename F:\#EAC wav+flac\#Add\Choir Of King's College Cambridge - 100 Years of Nine Lessons & Carols\cd 1\07. Choir Of King's College Cambridge - Unto Us Is Born A Son.wav

Peak level 69.1 %
Extraction speed 4.7 X
Track quality 99.9 %
Test CRC 58E6BEC2
Copy CRC 58E6BEC2
Accurately ripped (confidence 4) [DDA8BDD7] (AR v2)
Copy OK

Track 8

Filename F:\#EAC wav+flac\#Add\Choir Of King's College Cambridge - 100 Years of Nine Lessons & Carols\cd 1\08. Choir Of King's College Cambridge - Hark! The Herald Angels Sing.wav

Peak level 58.9 %
Extraction speed 7.1 X
Track quality 100.0 %
Test CRC BE0306D9
Copy CRC BE0306D9
Accurately ripped (confidence 4) [9F149458] (AR v2)
Copy OK

Track 9

Filename F:\#EAC wav+flac\#Add\Choir Of King's College Cambridge - 100 Years of Nine Lessons & Carols\cd 1\09. Choir Of King's College Cambridge - Illuminare, Jerusalem.wav

Peak level 44.9 %
Extraction speed 7.0 X
Track quality 100.0 %
Test CRC 88404B32
Copy CRC 88404B32
Accurately ripped (confidence 4) [EFAD870D] (AR v2)
Copy OK

Track 10

Filename F:\#EAC wav+flac\#Add\Choir Of King's College Cambridge - 100 Years of Nine Lessons & Carols\cd 1\10. Choir Of King's College Cambridge - The Holly And The Ivy.wav

Peak level 57.8 %
Extraction speed 7.1 X
Track quality 100.0 %
Test CRC 0FEE36A3
Copy CRC 0FEE36A3
Accurately ripped (confidence 4) [488EF6A4] (AR v2)
Copy OK

Track 11

Filename F:\#EAC wav+flac\#Add\Choir Of King's College Cambridge - 100 Years of Nine Lessons & Carols\cd 1\11. Choir Of King's College Cambridge - Benedicamus Domino.wav

Peak level 70.8 %
Extraction speed 6.0 X
Track quality 100.0 %
Test CRC 1759C558
Copy CRC 1759C558
Accurately ripped (confidence 4) [563CC7A1] (AR v2)
Copy OK

Track 12

Filename F:\#EAC wav+flac\#Add\Choir Of King's College Cambridge - 100 Years of Nine Lessons & Carols\cd 1\12. Choir Of King's College Cambridge - I Saw Three Ships.wav

Peak level 70.0 %
Extraction speed 7.0 X
Track quality 100.0 %
Test CRC CBFD88BD
Copy CRC CBFD88BD
Accurately ripped (confidence 4) [B5C25FB6] (AR v2)
Copy OK

Track 13

Filename F:\#EAC wav+flac\#Add\Choir Of King's College Cambridge - 100 Years of Nine Lessons & Carols\cd 1\13. Choir Of King's College Cambridge - The Fayrfax Carol.wav

Peak level 78.2 %
Extraction speed 8.2 X
Track quality 100.0 %
Test CRC 0EF7A621
Copy CRC 0EF7A621
Accurately ripped (confidence 4) [8493804C] (AR v2)
Copy OK

Track 14

Filename F:\#EAC wav+flac\#Add\Choir Of King's College Cambridge - 100 Years of Nine Lessons & Carols\cd 1\14. Choir Of King's College Cambridge - Tomorrow Shall Be My Dancing Day.wav

Peak level 77.3 %
Extraction speed 7.9 X
Track quality 100.0 %
Test CRC E70B6F8B
Copy CRC E70B6F8B
Accurately ripped (confidence 4) [E561524A] (AR v2)
Copy OK

Track 15

Filename F:\#EAC wav+flac\#Add\Choir Of King's College Cambridge - 100 Years of Nine Lessons & Carols\cd 1\15. Choir Of King's College Cambridge - I Wonder As I Wander.wav

Peak level 89.9 %
Extraction speed 7.3 X
Track quality 100.0 %
Test CRC 30B0B1DD
Copy CRC 30B0B1DD
Accurately ripped (confidence 4) [F77FD2F0] (AR v2)
Copy OK

Track 16

Filename F:\#EAC wav+flac\#Add\Choir Of King's College Cambridge - 100 Years of Nine Lessons & Carols\cd 1\16. Choir Of King's College Cambridge - The Shepherd's Carol.wav

Peak level 79.1 %
Extraction speed 8.4 X
Track quality 100.0 %
Test CRC ED7D212E
Copy CRC ED7D212E
Accurately ripped (confidence 4) [11EA12A5] (AR v2)
Copy OK

Track 17

Filename F:\#EAC wav+flac\#Add\Choir Of King's College Cambridge - 100 Years of Nine Lessons & Carols\cd 1\17. Choir Of King's College Cambridge - Dormi, Jesu.wav

Peak level 71.7 %
Extraction speed 9.2 X
Track quality 100.0 %
Test CRC 50A45E0A
Copy CRC 50A45E0A
Accurately ripped (confidence 4) [A2647B50] (AR v2)
Copy OK

Track 18

Filename F:\#EAC wav+flac\#Add\Choir Of King's College Cambridge - 100 Years of Nine Lessons & Carols\cd 1\18. Choir Of King's College Cambridge - Bogoróditse Djévo.wav

Peak level 63.4 %
Extraction speed 6.9 X
Track quality 100.0 %
Test CRC F98E7381
Copy CRC F98E7381
Accurately ripped (confidence 4) [1502834A] (AR v2)
Copy OK

Track 19

Filename F:\#EAC wav+flac\#Add\Choir Of King's College Cambridge - 100 Years of Nine Lessons & Carols\cd 1\19. Choir Of King's College Cambridge - This Endernight.wav

Peak level 68.5 %
Extraction speed 9.4 X
Track quality 100.0 %
Test CRC C6B68E55
Copy CRC C6B68E55
Accurately ripped (confidence 4) [66D7FC20] (AR v2)
Copy OK

Track 20

Filename F:\#EAC wav+flac\#Add\Choir Of King's College Cambridge - 100 Years of Nine Lessons & Carols\cd 1\20. Choir Of King's College Cambridge - Carol Eliseus.wav

Peak level 59.7 %
Extraction speed 8.9 X
Track quality 100.0 %
Test CRC B49A81FF
Copy CRC B49A81FF
Accurately ripped (confidence 4) [6EF440FC] (AR v2)
Copy OK

Track 21

Filename F:\#EAC wav+flac\#Add\Choir Of King's College Cambridge - 100 Years of Nine Lessons & Carols\cd 1\21. Choir Of King's College Cambridge - Once In Royal David's City.wav

Peak level 67.5 %
Extraction speed 8.4 X
Track quality 99.9 %
Test CRC DBDEB7A8
Copy CRC DBDEB7A8
Accurately ripped (confidence 4) [0B13D587] (AR v2)
Copy OK


All tracks accurately ripped

No errors occurred

End of status report

–– CUETools DB Plugin V2.1.6

[CTDB TOCID: J2BUVlJQ8ZUIf4KCdp9y2u1Ccxg-] found
Submit result: J2BUVlJQ8ZUIf4KCdp9y2u1Ccxg- has been confirmed
Track | CTDB Status
1 | (23/23) Accurately ripped
2 | (23/23) Accurately ripped
3 | (23/23) Accurately ripped
4 | (23/23) Accurately ripped
5 | (23/23) Accurately ripped
6 | (23/23) Accurately ripped
7 | (23/23) Accurately ripped
8 | (23/23) Accurately ripped
9 | (23/23) Accurately ripped
10 | (23/23) Accurately ripped
11 | (23/23) Accurately ripped
12 | (23/23) Accurately ripped
13 | (23/23) Accurately ripped
14 | (23/23) Accurately ripped
15 | (23/23) Accurately ripped
16 | (23/23) Accurately ripped
17 | (23/23) Accurately ripped
18 | (23/23) Accurately ripped
19 | (23/23) Accurately ripped
20 | (23/23) Accurately ripped
21 | (23/23) Accurately ripped


==== Log checksum 112D35035DE6E10C53D00BE7877B91764C2F9691F560C150FC3179E891E83A63 ====

––––––––––––––––––––––––––––––

Exact Audio Copy V1.3 from 2. September 2016

EAC extraction logfile from 21. December 2020, 11:06

Choir Of King's College Cambridge / 100 Years of Nine Lessons & Carols

Used drive : PLEXTOR PX-891SAF Adapter: 1 ID: 0

Read mode : Secure
Utilize accurate stream : Yes
Defeat audio cache : Yes
Make use of C2 pointers : No

Read offset correction : 6
Overread into Lead-In and Lead-Out : No
Fill up missing offset samples with silence : Yes
Delete leading and trailing silent blocks : No
Null samples used in CRC calculations : Yes
Used interface : Native Win32 interface for Win NT & 2000
Gap handling : Appended to previous track

Used output format : User Defined Encoder
Selected bitrate : 1024 kBit/s
Quality : High
Add ID3 tag : No
Command line compressor : C:\Program Files (x86)\Exact Audio Copy\Flac\flac.exe
Additional command line options : -8 -V -T "ARTIST=%artist%" -T "TITLE=%title%" -T "ALBUM=%albumtitle%" -T "DATE=%year%" -T "TRACKNUMBER=%tracknr%" -T "GENRE=%genre%" -T "PERFORMER=%albuminterpret%" -T "COMPOSER=%composer%" %haslyrics%–tag-from-file=LYRICS="%lyricsfile%"%haslyrics% -T "ALBUMARTIST=%albumartist%" -T "DISCNUMBER=%cdnumber%" -T "TOTALDISCS=%totalcds%" -T "TOTALTRACKS=%numtracks%" -T "COMMENT=%comment%" %source% -o %dest%


TOC of the extracted CD

Track | Start | Length | Start sector | End sector
––––––––––––––––––––––––––––-
1 | 0:00.00 | 2:34.60 | 0 | 11609
2 | 2:34.60 | 1:14.66 | 11610 | 17225
3 | 3:49.51 | 2:02.62 | 17226 | 26437
4 | 5:52.38 | 1:53.10 | 26438 | 34922
5 | 7:45.48 | 4:36.61 | 34923 | 55683
6 | 12:22.34 | 3:36.07 | 55684 | 71890
7 | 15:58.41 | 2:16.10 | 71891 | 82100
8 | 18:14.51 | 3:46.01 | 82101 | 99051
9 | 22:00.52 | 2:30.60 | 99052 | 110361
10 | 24:31.37 | 2:35.11 | 110362 | 121997
11 | 27:06.48 | 1:11.57 | 121998 | 127379
12 | 28:18.30 | 2:02.40 | 127380 | 136569
13 | 30:20.70 | 4:22.42 | 136570 | 156261
14 | 34:43.37 | 2:17.70 | 156262 | 166606
15 | 37:01.32 | 1:48.25 | 166607 | 174731
16 | 38:49.57 | 2:53.39 | 174732 | 187745
17 | 41:43.21 | 4:28.54 | 187746 | 207899
18 | 46:12.00 | 1:08.43 | 207900 | 213042
19 | 47:20.43 | 4:07.37 | 213043 | 231604
20 | 51:28.05 | 2:20.26 | 231605 | 242130
21 | 53:48.31 | 4:23.19 | 242131 | 261874


Track 1

Filename F:\#EAC wav+flac\#Add\Choir Of King's College Cambridge - 100 Years of Nine Lessons & Carols\cd 1\01. Choir Of King's College Cambridge - Gabriel's Message.wav

Pre-gap length 0:00:02.00

Peak level 59.4 %
Extraction speed 4.6 X
Track quality 100.0 %
Test CRC 46E768FB
Copy CRC 46E768FB
Accurately ripped (confidence 4) [268BDE0A] (AR v2)
Copy OK

Track 2

Filename F:\#EAC wav+flac\#Add\Choir Of King's College Cambridge - 100 Years of Nine Lessons & Carols\cd 1\02. Choir Of King's College Cambridge - Adam Lay Ybounden.wav

Peak level 71.8 %
Extraction speed 4.0 X
Track quality 100.0 %
Test CRC 5231E808
Copy CRC 5231E808
Accurately ripped (confidence 4) [DAC89890] (AR v2)
Copy OK

Track 3

Filename F:\#EAC wav+flac\#Add\Choir Of King's College Cambridge - 100 Years of Nine Lessons & Carols\cd 1\03. Choir Of King's College Cambridge - Ding! Dong! Merrily On High.wav

Peak level 76.1 %
Extraction speed 3.6 X
Track quality 99.9 %
Test CRC C9144F6A
Copy CRC C9144F6A
Accurately ripped (confidence 4) [191A40D0] (AR v2)
Copy OK

Track 4

Filename F:\#EAC wav+flac\#Add\Choir Of King's College Cambridge - 100 Years of Nine Lessons & Carols\cd 1\04. Choir Of King's College Cambridge - Sussex Carol.wav

Peak level 67.8 %
Extraction speed 5.0 X
Track quality 100.0 %
Test CRC 1606EE13
Copy CRC 1606EE13
Accurately ripped (confidence 4) [7F1CD659] (AR v2)
Copy OK

Track 5

Filename F:\#EAC wav+flac\#Add\Choir Of King's College Cambridge - 100 Years of Nine Lessons & Carols\cd 1\05. Choir Of King's College Cambridge - O Come, All Ye Faithful.wav

Peak level 84.3 %
Extraction speed 6.3 X
Track quality 100.0 %
Test CRC 7D326D73
Copy CRC 7D326D73
Accurately ripped (confidence 4) [8C659F5A] (AR v2)
Copy OK

Track 6

Filename F:\#EAC wav+flac\#Add\Choir Of King's College Cambridge - 100 Years of Nine Lessons & Carols\cd 1\06. Choir Of King's College Cambridge - In Dulci Jubilo.wav

Peak level 60.5 %
Extraction speed 5.3 X
Track quality 99.9 %
Test CRC 9C2FE46D
Copy CRC 9C2FE46D
Accurately ripped (confidence 4) [69388573] (AR v2)
Copy OK

Track 7

Filename F:\#EAC wav+flac\#Add\Choir Of King's College Cambridge - 100 Years of Nine Lessons & Carols\cd 1\07. Choir Of King's College Cambridge - Unto Us Is Born A Son.wav

Peak level 69.1 %
Extraction speed 4.7 X
Track quality 99.9 %
Test CRC 58E6BEC2
Copy CRC 58E6BEC2
Accurately ripped (confidence 4) [DDA8BDD7] (AR v2)
Copy OK

Track 8

Filename F:\#EAC wav+flac\#Add\Choir Of King's College Cambridge - 100 Years of Nine Lessons & Carols\cd 1\08. Choir Of King's College Cambridge - Hark! The Herald Angels Sing.wav

Peak level 58.9 %
Extraction speed 7.1 X
Track quality 100.0 %
Test CRC BE0306D9
Copy CRC BE0306D9
Accurately ripped (confidence 4) [9F149458] (AR v2)
Copy OK

Track 9

Filename F:\#EAC wav+flac\#Add\Choir Of King's College Cambridge - 100 Years of Nine Lessons & Carols\cd 1\09. Choir Of King's College Cambridge - Illuminare, Jerusalem.wav

Peak level 44.9 %
Extraction speed 7.0 X
Track quality 100.0 %
Test CRC 88404B32
Copy CRC 88404B32
Accurately ripped (confidence 4) [EFAD870D] (AR v2)
Copy OK

Track 10

Filename F:\#EAC wav+flac\#Add\Choir Of King's College Cambridge - 100 Years of Nine Lessons & Carols\cd 1\10. Choir Of King's College Cambridge - The Holly And The Ivy.wav

Peak level 57.8 %
Extraction speed 7.1 X
Track quality 100.0 %
Test CRC 0FEE36A3
Copy CRC 0FEE36A3
Accurately ripped (confidence 4) [488EF6A4] (AR v2)
Copy OK

Track 11

Filename F:\#EAC wav+flac\#Add\Choir Of King's College Cambridge - 100 Years of Nine Lessons & Carols\cd 1\11. Choir Of King's College Cambridge - Benedicamus Domino.wav

Peak level 70.8 %
Extraction speed 6.0 X
Track quality 100.0 %
Test CRC 1759C558
Copy CRC 1759C558
Accurately ripped (confidence 4) [563CC7A1] (AR v2)
Copy OK

Track 12

Filename F:\#EAC wav+flac\#Add\Choir Of King's College Cambridge - 100 Years of Nine Lessons & Carols\cd 1\12. Choir Of King's College Cambridge - I Saw Three Ships.wav

Peak level 70.0 %
Extraction speed 7.0 X
Track quality 100.0 %
Test CRC CBFD88BD
Copy CRC CBFD88BD
Accurately ripped (confidence 4) [B5C25FB6] (AR v2)
Copy OK

Track 13

Filename F:\#EAC wav+flac\#Add\Choir Of King's College Cambridge - 100 Years of Nine Lessons & Carols\cd 1\13. Choir Of King's College Cambridge - The Fayrfax Carol.wav

Peak level 78.2 %
Extraction speed 8.2 X
Track quality 100.0 %
Test CRC 0EF7A621
Copy CRC 0EF7A621
Accurately ripped (confidence 4) [8493804C] (AR v2)
Copy OK

Track 14

Filename F:\#EAC wav+flac\#Add\Choir Of King's College Cambridge - 100 Years of Nine Lessons & Carols\cd 1\14. Choir Of King's College Cambridge - Tomorrow Shall Be My Dancing Day.wav

Peak level 77.3 %
Extraction speed 7.9 X
Track quality 100.0 %
Test CRC E70B6F8B
Copy CRC E70B6F8B
Accurately ripped (confidence 4) [E561524A] (AR v2)
Copy OK

Track 15

Filename F:\#EAC wav+flac\#Add\Choir Of King's College Cambridge - 100 Years of Nine Lessons & Carols\cd 1\15. Choir Of King's College Cambridge - I Wonder As I Wander.wav

Peak level 89.9 %
Extraction speed 7.3 X
Track quality 100.0 %
Test CRC 30B0B1DD
Copy CRC 30B0B1DD
Accurately ripped (confidence 4) [F77FD2F0] (AR v2)
Copy OK

Track 16

Filename F:\#EAC wav+flac\#Add\Choir Of King's College Cambridge - 100 Years of Nine Lessons & Carols\cd 1\16. Choir Of King's College Cambridge - The Shepherd's Carol.wav

Peak level 79.1 %
Extraction speed 8.4 X
Track quality 100.0 %
Test CRC ED7D212E
Copy CRC ED7D212E
Accurately ripped (confidence 4) [11EA12A5] (AR v2)
Copy OK

Track 17

Filename F:\#EAC wav+flac\#Add\Choir Of King's College Cambridge - 100 Years of Nine Lessons & Carols\cd 1\17. Choir Of King's College Cambridge - Dormi, Jesu.wav

Peak level 71.7 %
Extraction speed 9.2 X
Track quality 100.0 %
Test CRC 50A45E0A
Copy CRC 50A45E0A
Accurately ripped (confidence 4) [A2647B50] (AR v2)
Copy OK

Track 18

Filename F:\#EAC wav+flac\#Add\Choir Of King's College Cambridge - 100 Years of Nine Lessons & Carols\cd 1\18. Choir Of King's College Cambridge - Bogoróditse Djévo.wav

Peak level 63.4 %
Extraction speed 6.9 X
Track quality 100.0 %
Test CRC F98E7381
Copy CRC F98E7381
Accurately ripped (confidence 4) [1502834A] (AR v2)
Copy OK

Track 19

Filename F:\#EAC wav+flac\#Add\Choir Of King's College Cambridge - 100 Years of Nine Lessons & Carols\cd 1\19. Choir Of King's College Cambridge - This Endernight.wav

Peak level 68.5 %
Extraction speed 9.4 X
Track quality 100.0 %
Test CRC C6B68E55
Copy CRC C6B68E55
Accurately ripped (confidence 4) [66D7FC20] (AR v2)
Copy OK

Track 20

Filename F:\#EAC wav+flac\#Add\Choir Of King's College Cambridge - 100 Years of Nine Lessons & Carols\cd 1\20. Choir Of King's College Cambridge - Carol Eliseus.wav

Peak level 59.7 %
Extraction speed 8.9 X
Track quality 100.0 %
Test CRC B49A81FF
Copy CRC B49A81FF
Accurately ripped (confidence 4) [6EF440FC] (AR v2)
Copy OK

Track 21

Filename F:\#EAC wav+flac\#Add\Choir Of King's College Cambridge - 100 Years of Nine Lessons & Carols\cd 1\21. Choir Of King's College Cambridge - Once In Royal David's City.wav

Peak level 67.5 %
Extraction speed 8.4 X
Track quality 99.9 %
Test CRC DBDEB7A8
Copy CRC DBDEB7A8
Accurately ripped (confidence 4) [0B13D587] (AR v2)
Copy OK


All tracks accurately ripped

No errors occurred

End of status report

–– CUETools DB Plugin V2.1.6

[CTDB TOCID: J2BUVlJQ8ZUIf4KCdp9y2u1Ccxg-] found
Submit result: J2BUVlJQ8ZUIf4KCdp9y2u1Ccxg- has been confirmed
Track | CTDB Status
1 | (23/23) Accurately ripped
2 | (23/23) Accurately ripped
3 | (23/23) Accurately ripped
4 | (23/23) Accurately ripped
5 | (23/23) Accurately ripped
6 | (23/23) Accurately ripped
7 | (23/23) Accurately ripped
8 | (23/23) Accurately ripped
9 | (23/23) Accurately ripped
10 | (23/23) Accurately ripped
11 | (23/23) Accurately ripped
12 | (23/23) Accurately ripped
13 | (23/23) Accurately ripped
14 | (23/23) Accurately ripped
15 | (23/23) Accurately ripped
16 | (23/23) Accurately ripped
17 | (23/23) Accurately ripped
18 | (23/23) Accurately ripped
19 | (23/23) Accurately ripped
20 | (23/23) Accurately ripped
21 | (23/23) Accurately ripped


==== Log checksum 112D35035DE6E10C53D00BE7877B91764C2F9691F560C150FC3179E891E83A63 ====
Exact Audio Copy V1.3 from 2. September 2016

EAC extraction logfile from 21. December 2020, 11:36

Choir Of King's College Cambridge / 100 Years Of Nine Lessons & Carols

Used drive : PLEXTOR PX-891SAF Adapter: 1 ID: 0

Read mode : Secure
Utilize accurate stream : Yes
Defeat audio cache : Yes
Make use of C2 pointers : No

Read offset correction : 6
Overread into Lead-In and Lead-Out : No
Fill up missing offset samples with silence : Yes
Delete leading and trailing silent blocks : No
Null samples used in CRC calculations : Yes
Used interface : Native Win32 interface for Win NT & 2000
Gap handling : Appended to previous track

Used output format : User Defined Encoder
Selected bitrate : 1024 kBit/s
Quality : High
Add ID3 tag : No
Command line compressor : C:\Program Files (x86)\Exact Audio Copy\Flac\flac.exe
Additional command line options : -8 -V -T "ARTIST=%artist%" -T "TITLE=%title%" -T "ALBUM=%albumtitle%" -T "DATE=%year%" -T "TRACKNUMBER=%tracknr%" -T "GENRE=%genre%" -T "PERFORMER=%albuminterpret%" -T "COMPOSER=%composer%" %haslyrics%–tag-from-file=LYRICS="%lyricsfile%"%haslyrics% -T "ALBUMARTIST=%albumartist%" -T "DISCNUMBER=%cdnumber%" -T "TOTALDISCS=%totalcds%" -T "TOTALTRACKS=%numtracks%" -T "COMMENT=%comment%" %source% -o %dest%


TOC of the extracted CD

Track | Start | Length | Start sector | End sector
––––––––––––––––––––––––––––-
1 | 0:00.00 | 5:38.26 | 0 | 25375
2 | 5:38.26 | 3:04.32 | 25376 | 39207
3 | 8:42.58 | 3:39.23 | 39208 | 55655
4 | 12:22.06 | 3:39.14 | 55656 | 72094
5 | 16:01.20 | 4:03.60 | 72095 | 90379
6 | 20:05.05 | 1:50.08 | 90380 | 98637
7 | 21:55.13 | 3:07.08 | 98638 | 112670
8 | 25:02.21 | 3:10.42 | 112671 | 126962
9 | 28:12.63 | 3:29.41 | 126963 | 142678
10 | 31:42.29 | 2:12.44 | 142679 | 152622
11 | 33:54.73 | 3:15.04 | 152623 | 167251
12 | 37:10.02 | 1:07.03 | 167252 | 172279
13 | 38:17.05 | 1:17.63 | 172280 | 178117
14 | 39:34.68 | 1:15.31 | 178118 | 183773
15 | 40:50.24 | 4:23.02 | 183774 | 203500
16 | 45:13.26 | 3:15.54 | 203501 | 218179


Track 1

Filename F:\#EAC wav+flac\#Add\Choir Of King's College Cambridge - 100 Years of Nine Lessons & Carols\cd 2\01. Choir Of King's College Cambridge - O Holy Night.wav

Pre-gap length 0:00:02.00

Peak level 98.8 %
Extraction speed 2.9 X
Track quality 99.8 %
Test CRC 27F0CAA5
Copy CRC 27F0CAA5
Accurately ripped (confidence 2) [F2D9020D] (AR v2)
Copy OK

Track 2

Filename F:\#EAC wav+flac\#Add\Choir Of King's College Cambridge - 100 Years of Nine Lessons & Carols\cd 2\02. Choir Of King's College Cambridge - The Linden Tree Carol.wav

Peak level 82.6 %
Extraction speed 2.6 X
Track quality 99.7 %
Test CRC 3C9DF76E
Copy CRC 3C9DF76E
Accurately ripped (confidence 2) [D0990E9F] (AR v2)
Copy OK

Track 3

Filename F:\#EAC wav+flac\#Add\Choir Of King's College Cambridge - 100 Years of Nine Lessons & Carols\cd 2\03. Choir Of King's College Cambridge - The Lamb.wav

Peak level 16.1 %
Extraction speed 2.8 X
Track quality 99.7 %
Test CRC 28F05C72
Copy CRC 28F05C72
Accurately ripped (confidence 2) [C1125CC7] (AR v2)
Copy OK

Track 4

Filename F:\#EAC wav+flac\#Add\Choir Of King's College Cambridge - 100 Years of Nine Lessons & Carols\cd 2\04. Choir Of King's College Cambridge - God Rest You Merry, Gentlemen.wav

Peak level 57.2 %
Extraction speed 3.6 X
Track quality 99.8 %
Test CRC 382A608D
Copy CRC 382A608D
Accurately ripped (confidence 2) [E48C3ABE] (AR v2)
Copy OK

Track 5

Filename F:\#EAC wav+flac\#Add\Choir Of King's College Cambridge - 100 Years of Nine Lessons & Carols\cd 2\05. Choir Of King's College Cambridge - The Shepherds' Farewell.wav

Peak level 66.4 %
Extraction speed 3.5 X
Track quality 99.8 %
Test CRC B457EF2A
Copy CRC B457EF2A
Accurately ripped (confidence 2) [2B8F9812] (AR v2)
Copy OK

Track 6

Filename F:\#EAC wav+flac\#Add\Choir Of King's College Cambridge - 100 Years of Nine Lessons & Carols\cd 2\06. Choir Of King's College Cambridge - I Saw Three Ships.wav

Peak level 57.3 %
Extraction speed 3.3 X
Track quality 99.8 %
Test CRC AB4252F2
Copy CRC AB4252F2
Accurately ripped (confidence 2) [F6094048] (AR v2)
Copy OK

Track 7

Filename F:\#EAC wav+flac\#Add\Choir Of King's College Cambridge - 100 Years of Nine Lessons & Carols\cd 2\07. Choir Of King's College Cambridge - We Three Kings Of Orient Are.wav

Peak level 95.4 %
Extraction speed 2.9 X
Track quality 99.6 %
Test CRC 484BFC19
Copy CRC 484BFC19
Accurately ripped (confidence 2) [37AECE23] (AR v2)
Copy OK

Track 8

Filename F:\#EAC wav+flac\#Add\Choir Of King's College Cambridge - 100 Years of Nine Lessons & Carols\cd 2\08. Choir Of King's College Cambridge - Can I Not Syng But Hoy.wav

Peak level 90.3 %
Extraction speed 4.5 X
Track quality 99.8 %
Test CRC 7316FBB1
Copy CRC 7316FBB1
Accurately ripped (confidence 2) [25329940] (AR v2)
Copy OK

Track 9

Filename F:\#EAC wav+flac\#Add\Choir Of King's College Cambridge - 100 Years of Nine Lessons & Carols\cd 2\09. Choir Of King's College Cambridge - The Magi's Dream.wav

Peak level 98.8 %
Extraction speed 4.3 X
Track quality 99.8 %
Test CRC F145BF2C
Copy CRC F145BF2C
Accurately ripped (confidence 2) [22B9A98A] (AR v2)
Copy OK

Track 10

Filename F:\#EAC wav+flac\#Add\Choir Of King's College Cambridge - 100 Years of Nine Lessons & Carols\cd 2\10. Choir Of King's College Cambridge - There Is No Rose.wav

Peak level 30.0 %
Extraction speed 4.3 X
Track quality 99.8 %
Test CRC 24419B46
Copy CRC 24419B46
Accurately ripped (confidence 2) [3A70FE45] (AR v2)
Copy OK

Track 11

Filename F:\#EAC wav+flac\#Add\Choir Of King's College Cambridge - 100 Years of Nine Lessons & Carols\cd 2\11. Choir Of King's College Cambridge - Adam's Fall.wav

Peak level 67.0 %
Extraction speed 4.5 X
Track quality 99.8 %
Test CRC 5D966EF6
Copy CRC 5D966EF6
Accurately ripped (confidence 2) [FC39CACD] (AR v2)
Copy OK

Track 12

Filename F:\#EAC wav+flac\#Add\Choir Of King's College Cambridge - 100 Years of Nine Lessons & Carols\cd 2\12. Choir Of King's College Cambridge - How Shall I Fitly Meet Thee.wav

Peak level 35.9 %
Extraction speed 3.8 X
Track quality 99.8 %
Test CRC E585E68A
Copy CRC E585E68A
Accurately ripped (confidence 2) [CE4F5B88] (AR v2)
Copy OK

Track 13

Filename F:\#EAC wav+flac\#Add\Choir Of King's College Cambridge - 100 Years of Nine Lessons & Carols\cd 2\13. Choir Of King's College Cambridge - Love Came Down At Christmas.wav

Peak level 27.3 %
Extraction speed 4.2 X
Track quality 99.8 %
Test CRC C1F6865D
Copy CRC C1F6865D
Accurately ripped (confidence 2) [FBCDA48A] (AR v2)
Copy OK

Track 14

Filename F:\#EAC wav+flac\#Add\Choir Of King's College Cambridge - 100 Years of Nine Lessons & Carols\cd 2\14. Choir Of King's College Cambridge - Break Forth.wav

Peak level 92.5 %
Extraction speed 4.2 X
Track quality 99.8 %
Test CRC 46AF9F2F
Copy CRC 46AF9F2F
Accurately ripped (confidence 2) [4348DC0B] (AR v2)
Copy OK

Track 15

Filename F:\#EAC wav+flac\#Add\Choir Of King's College Cambridge - 100 Years of Nine Lessons & Carols\cd 2\15. Choir Of King's College Cambridge - O Come, All Ye Faithful.wav

Peak level 98.7 %
Extraction speed 4.3 X
Track quality 99.7 %
Test CRC 1D01FDC4
Copy CRC 1D01FDC4
Accurately ripped (confidence 2) [D2ED357B] (AR v2)
Copy OK

Track 16

Filename F:\#EAC wav+flac\#Add\Choir Of King's College Cambridge - 100 Years of Nine Lessons & Carols\cd 2\16. Choir Of King's College Cambridge - Hark! The Herald Angels Sing.wav

Peak level 98.9 %
Extraction speed 4.9 X
Track quality 99.8 %
Test CRC 6F792EA8
Copy CRC 6F792EA8
Accurately ripped (confidence 2) [74F6EA68] (AR v2)
Copy OK


All tracks accurately ripped

No errors occurred

End of status report

–– CUETools DB Plugin V2.1.6

[CTDB TOCID: yjzsKF0FaPVq223QdLjmplpAtdA-] found
Submit result: yjzsKF0FaPVq223QdLjmplpAtdA- has been confirmed
Track | CTDB Status
1 | (15/15) Accurately ripped
2 | (15/15) Accurately ripped
3 | (15/15) Accurately ripped
4 | (15/15) Accurately ripped
5 | (15/15) Accurately ripped
6 | (15/15) Accurately ripped
7 | (15/15) Accurately ripped
8 | (15/15) Accurately ripped
9 | (15/15) Accurately ripped
10 | (15/15) Accurately ripped
11 | (15/15) Accurately ripped
12 | (15/15) Accurately ripped
13 | (15/15) Accurately ripped
14 | (15/15) Accurately ripped
15 | (15/15) Accurately ripped
16 | (15/15) Accurately ripped


==== Log checksum 7B9027A355E5ABB7FBE16DBFFA69C07DEEC81D255046D02C21BFA948F0B3C48A ====

––––––––––––––––––––––––––––––

Exact Audio Copy V1.3 from 2. September 2016

EAC extraction logfile from 21. December 2020, 11:37

Choir Of King's College Cambridge / 100 Years Of Nine Lessons & Carols

Used drive : PLEXTOR PX-891SAF Adapter: 1 ID: 0

Read mode : Secure
Utilize accurate stream : Yes
Defeat audio cache : Yes
Make use of C2 pointers : No

Read offset correction : 6
Overread into Lead-In and Lead-Out : No
Fill up missing offset samples with silence : Yes
Delete leading and trailing silent blocks : No
Null samples used in CRC calculations : Yes
Used interface : Native Win32 interface for Win NT & 2000
Gap handling : Appended to previous track

Used output format : User Defined Encoder
Selected bitrate : 1024 kBit/s
Quality : High
Add ID3 tag : No
Command line compressor : C:\Program Files (x86)\Exact Audio Copy\Flac\flac.exe
Additional command line options : -8 -V -T "ARTIST=%artist%" -T "TITLE=%title%" -T "ALBUM=%albumtitle%" -T "DATE=%year%" -T "TRACKNUMBER=%tracknr%" -T "GENRE=%genre%" -T "PERFORMER=%albuminterpret%" -T "COMPOSER=%composer%" %haslyrics%–tag-from-file=LYRICS="%lyricsfile%"%haslyrics% -T "ALBUMARTIST=%albumartist%" -T "DISCNUMBER=%cdnumber%" -T "TOTALDISCS=%totalcds%" -T "TOTALTRACKS=%numtracks%" -T "COMMENT=%comment%" %source% -o %dest%


TOC of the extracted CD

Track | Start | Length | Start sector | End sector
––––––––––––––––––––––––––––-
1 | 0:00.00 | 5:38.26 | 0 | 25375
2 | 5:38.26 | 3:04.32 | 25376 | 39207
3 | 8:42.58 | 3:39.23 | 39208 | 55655
4 | 12:22.06 | 3:39.14 | 55656 | 72094
5 | 16:01.20 | 4:03.60 | 72095 | 90379
6 | 20:05.05 | 1:50.08 | 90380 | 98637
7 | 21:55.13 | 3:07.08 | 98638 | 112670
8 | 25:02.21 | 3:10.42 | 112671 | 126962
9 | 28:12.63 | 3:29.41 | 126963 | 142678
10 | 31:42.29 | 2:12.44 | 142679 | 152622
11 | 33:54.73 | 3:15.04 | 152623 | 167251
12 | 37:10.02 | 1:07.03 | 167252 | 172279
13 | 38:17.05 | 1:17.63 | 172280 | 178117
14 | 39:34.68 | 1:15.31 | 178118 | 183773
15 | 40:50.24 | 4:23.02 | 183774 | 203500
16 | 45:13.26 | 3:15.54 | 203501 | 218179


Track 1

Filename F:\#EAC wav+flac\#Add\Choir Of King's College Cambridge - 100 Years of Nine Lessons & Carols\cd 2\01. Choir Of King's College Cambridge - O Holy Night.wav

Pre-gap length 0:00:02.00

Peak level 98.8 %
Extraction speed 2.9 X
Track quality 99.8 %
Test CRC 27F0CAA5
Copy CRC 27F0CAA5
Accurately ripped (confidence 2) [F2D9020D] (AR v2)
Copy OK

Track 2

Filename F:\#EAC wav+flac\#Add\Choir Of King's College Cambridge - 100 Years of Nine Lessons & Carols\cd 2\02. Choir Of King's College Cambridge - The Linden Tree Carol.wav

Peak level 82.6 %
Extraction speed 2.6 X
Track quality 99.7 %
Test CRC 3C9DF76E
Copy CRC 3C9DF76E
Accurately ripped (confidence 2) [D0990E9F] (AR v2)
Copy OK

Track 3

Filename F:\#EAC wav+flac\#Add\Choir Of King's College Cambridge - 100 Years of Nine Lessons & Carols\cd 2\03. Choir Of King's College Cambridge - The Lamb.wav

Peak level 16.1 %
Extraction speed 2.8 X
Track quality 99.7 %
Test CRC 28F05C72
Copy CRC 28F05C72
Accurately ripped (confidence 2) [C1125CC7] (AR v2)
Copy OK

Track 4

Filename F:\#EAC wav+flac\#Add\Choir Of King's College Cambridge - 100 Years of Nine Lessons & Carols\cd 2\04. Choir Of King's College Cambridge - God Rest You Merry, Gentlemen.wav

Peak level 57.2 %
Extraction speed 3.6 X
Track quality 99.8 %
Test CRC 382A608D
Copy CRC 382A608D
Accurately ripped (confidence 2) [E48C3ABE] (AR v2)
Copy OK

Track 5

Filename F:\#EAC wav+flac\#Add\Choir Of King's College Cambridge - 100 Years of Nine Lessons & Carols\cd 2\05. Choir Of King's College Cambridge - The Shepherds' Farewell.wav

Peak level 66.4 %
Extraction speed 3.5 X
Track quality 99.8 %
Test CRC B457EF2A
Copy CRC B457EF2A
Accurately ripped (confidence 2) [2B8F9812] (AR v2)
Copy OK

Track 6

Filename F:\#EAC wav+flac\#Add\Choir Of King's College Cambridge - 100 Years of Nine Lessons & Carols\cd 2\06. Choir Of King's College Cambridge - I Saw Three Ships.wav

Peak level 57.3 %
Extraction speed 3.3 X
Track quality 99.8 %
Test CRC AB4252F2
Copy CRC AB4252F2
Accurately ripped (confidence 2) [F6094048] (AR v2)
Copy OK

Track 7

Filename F:\#EAC wav+flac\#Add\Choir Of King's College Cambridge - 100 Years of Nine Lessons & Carols\cd 2\07. Choir Of King's College Cambridge - We Three Kings Of Orient Are.wav

Peak level 95.4 %
Extraction speed 2.9 X
Track quality 99.6 %
Test CRC 484BFC19
Copy CRC 484BFC19
Accurately ripped (confidence 2) [37AECE23] (AR v2)
Copy OK

Track 8

Filename F:\#EAC wav+flac\#Add\Choir Of King's College Cambridge - 100 Years of Nine Lessons & Carols\cd 2\08. Choir Of King's College Cambridge - Can I Not Syng But Hoy.wav

Peak level 90.3 %
Extraction speed 4.5 X
Track quality 99.8 %
Test CRC 7316FBB1
Copy CRC 7316FBB1
Accurately ripped (confidence 2) [25329940] (AR v2)
Copy OK

Track 9

Filename F:\#EAC wav+flac\#Add\Choir Of King's College Cambridge - 100 Years of Nine Lessons & Carols\cd 2\09. Choir Of King's College Cambridge - The Magi's Dream.wav

Peak level 98.8 %
Extraction speed 4.3 X
Track quality 99.8 %
Test CRC F145BF2C
Copy CRC F145BF2C
Accurately ripped (confidence 2) [22B9A98A] (AR v2)
Copy OK

Track 10

Filename F:\#EAC wav+flac\#Add\Choir Of King's College Cambridge - 100 Years of Nine Lessons & Carols\cd 2\10. Choir Of King's College Cambridge - There Is No Rose.wav

Peak level 30.0 %
Extraction speed 4.3 X
Track quality 99.8 %
Test CRC 24419B46
Copy CRC 24419B46
Accurately ripped (confidence 2) [3A70FE45] (AR v2)
Copy OK

Track 11

Filename F:\#EAC wav+flac\#Add\Choir Of King's College Cambridge - 100 Years of Nine Lessons & Carols\cd 2\11. Choir Of King's College Cambridge - Adam's Fall.wav

Peak level 67.0 %
Extraction speed 4.5 X
Track quality 99.8 %
Test CRC 5D966EF6
Copy CRC 5D966EF6
Accurately ripped (confidence 2) [FC39CACD] (AR v2)
Copy OK

Track 12

Filename F:\#EAC wav+flac\#Add\Choir Of King's College Cambridge - 100 Years of Nine Lessons & Carols\cd 2\12. Choir Of King's College Cambridge - How Shall I Fitly Meet Thee.wav

Peak level 35.9 %
Extraction speed 3.8 X
Track quality 99.8 %
Test CRC E585E68A
Copy CRC E585E68A
Accurately ripped (confidence 2) [CE4F5B88] (AR v2)
Copy OK

Track 13

Filename F:\#EAC wav+flac\#Add\Choir Of King's College Cambridge - 100 Years of Nine Lessons & Carols\cd 2\13. Choir Of King's College Cambridge - Love Came Down At Christmas.wav

Peak level 27.3 %
Extraction speed 4.2 X
Track quality 99.8 %
Test CRC C1F6865D
Copy CRC C1F6865D
Accurately ripped (confidence 2) [FBCDA48A] (AR v2)
Copy OK

Track 14

Filename F:\#EAC wav+flac\#Add\Choir Of King's College Cambridge - 100 Years of Nine Lessons & Carols\cd 2\14. Choir Of King's College Cambridge - Break Forth.wav

Peak level 92.5 %
Extraction speed 4.2 X
Track quality 99.8 %
Test CRC 46AF9F2F
Copy CRC 46AF9F2F
Accurately ripped (confidence 2) [4348DC0B] (AR v2)
Copy OK

Track 15

Filename F:\#EAC wav+flac\#Add\Choir Of King's College Cambridge - 100 Years of Nine Lessons & Carols\cd 2\15. Choir Of King's College Cambridge - O Come, All Ye Faithful.wav

Peak level 98.7 %
Extraction speed 4.3 X
Track quality 99.7 %
Test CRC 1D01FDC4
Copy CRC 1D01FDC4
Accurately ripped (confidence 2) [D2ED357B] (AR v2)
Copy OK

Track 16

Filename F:\#EAC wav+flac\#Add\Choir Of King's College Cambridge - 100 Years of Nine Lessons & Carols\cd 2\16. Choir Of King's College Cambridge - Hark! The Herald Angels Sing.wav

Peak level 98.9 %
Extraction speed 4.9 X
Track quality 99.8 %
Test CRC 6F792EA8
Copy CRC 6F792EA8
Accurately ripped (confidence 2) [74F6EA68] (AR v2)
Copy OK


All tracks accurately ripped

No errors occurred

End of status report

–– CUETools DB Plugin V2.1.6

[CTDB TOCID: yjzsKF0FaPVq223QdLjmplpAtdA-] found
Submit result: yjzsKF0FaPVq223QdLjmplpAtdA- has been confirmed
Track | CTDB Status
1 | (15/15) Accurately ripped
2 | (15/15) Accurately ripped
3 | (15/15) Accurately ripped
4 | (15/15) Accurately ripped
5 | (15/15) Accurately ripped
6 | (15/15) Accurately ripped
7 | (15/15) Accurately ripped
8 | (15/15) Accurately ripped
9 | (15/15) Accurately ripped
10 | (15/15) Accurately ripped
11 | (15/15) Accurately ripped
12 | (15/15) Accurately ripped
13 | (15/15) Accurately ripped
14 | (15/15) Accurately ripped
15 | (15/15) Accurately ripped
16 | (15/15) Accurately ripped


==== Log checksum EE33A595180688E52264A7084EED6001D99BADA9851DACA3769B2C4A291FB9D0 ====

Thanks to the Original ripper !