Tags
Language
Tags
July 2024
Su Mo Tu We Th Fr Sa
30 1 2 3 4 5 6
7 8 9 10 11 12 13
14 15 16 17 18 19 20
21 22 23 24 25 26 27
28 29 30 31 1 2 3

Steve Hill - The One Man Blues Rock Band (2018)

Posted By: delpotro
Steve Hill - The One Man Blues Rock Band (2018)

Steve Hill - The One Man Blues Rock Band (2018)
XLD Rip | FLAC (tracks+log+.cue) | 01:08:14 | 418 Mb
Blues, Blues Rock | Label: Manhaton Records

When it comes to one-man bands, guitarist and singer extraordinaire Steve Hill has no limits. Anything goes. He is the true exponent of a one-man band. Steve performs standing up while singing and playing guitar, his feet playing bass drum, snare drum, hi-hats and with a drum stick fused to the head of his trusty guitar, any other percussion within reach.

“The one-man band style has made Steve Hill the top star in the Canadian blues scene right now,” says Bob Mersereau of the Canadian Broadcasting Corporation.

"Steve Hill has an old-school blues sound with a fresh contemporary twist and it is most certainly refreshing to see." - National Rock Review

"If you love blues based rock and never heard of Steve Hill, I guarantee you'll become a fan after you hear his music." - Dedicated Rocker
Tracklist:
1. Rhythm All Over (03:51)
2. Go On (05:09)
3. The Collector (03:50)
4. Damned (03:46)
5. Tough Luck (04:24)
6. Never Is Such a Long Time (06:36)
7. Hate to See You Go (05:22)
8. Emily (04:08)
9. Nothing New (04:22)
10. Out of Phase (04:20)
11. Still Got It Bad (05:29)
12. The Ballad of Johnny Wabo (05:21)
13. Dangerous (03:56)
14. Voodoo Child (Slight Return) (07:31)

X Lossless Decoder version 20170729 (150.3)

XLD extraction logfile from 2018-05-11 14:18:25 +0100

Steve Hill / The One Man Blues Rock Band

Used drive : HL-DT-ST LucidPort USB300 (revision 1.02)
Media type : Pressed CD

Ripper mode : XLD Secure Ripper
Disable audio cache : OK for the drive with a cache less than 1375KiB
Make use of C2 pointers : NO
Read offset correction : 667
Max retry count : 100
Gap status : Analyzed, Appended

TOC of the extracted CD
Track | Start | Length | Start sector | End sector
––––––––––––––––––––––––––––-
1 | 00:00:00 | 03:51:65 | 0 | 17389
2 | 03:51:65 | 05:09:43 | 17390 | 40607
3 | 09:01:33 | 03:50:72 | 40608 | 57929
4 | 12:52:30 | 03:46:65 | 57930 | 74944
5 | 16:39:20 | 04:24:17 | 74945 | 94761
6 | 21:03:37 | 06:36:53 | 94762 | 124514
7 | 27:40:15 | 05:22:00 | 124515 | 148664
8 | 33:02:15 | 04:08:62 | 148665 | 167326
9 | 37:11:02 | 04:22:39 | 167327 | 187015
10 | 41:33:41 | 04:20:53 | 187016 | 206568
11 | 45:54:19 | 05:29:59 | 206569 | 231302
12 | 51:24:03 | 05:21:45 | 231303 | 255422
13 | 56:45:48 | 03:56:71 | 255423 | 273193
14 | 60:42:44 | 07:31:39 | 273194 | 307057

AccurateRip Summary
Disc not found in AccurateRip DB.

All Tracks
Album gain : -6.45 dB
Peak : 0.987946
Statistics
Read error : 0
Jitter error (maybe fixed) : 0
Retry sector count : 0
Damaged sector count : 0

Track 01
Filename : /Volumes/Transmission 4TB/+Apollo Launchpad/Steve Hill - The One Man Blues Rock Band (2018) [MP3 V0]/01 Rhythm All Over.mp3
/Volumes/Transmission 4TB/+Apollo Launchpad/Steve Hill - The One Man Blues Rock Band (2018) [MP3 320]/01 Rhythm All Over.mp3
/Volumes/Transmission 4TB/+Apollo Launchpad/Steve Hill - The One Man Blues Rock Band (2018) [FLAC]/01 Rhythm All Over.flac
/Volumes/Transmission 4TB/+Apollo Launchpad/Steve Hill - The One Man Blues Rock Band (2018) [Apple Lossless]/01 Rhythm All Over.m4a
Pre-gap length : 00:02:00

Track gain : -6.80 dB
Peak : 0.987732
CRC32 hash (test run) : DF4190FC
CRC32 hash : DF4190FC
CRC32 hash (skip zero) : 1F6105E5
AccurateRip v1 signature : 85CED2DF
AccurateRip v2 signature : 050C718C
->Track not present in AccurateRip database.
Statistics
Read error : 0
Jitter error (maybe fixed) : 0
Retry sector count : 0
Damaged sector count : 0

Track 02
Filename : /Volumes/Transmission 4TB/+Apollo Launchpad/Steve Hill - The One Man Blues Rock Band (2018) [MP3 V0]/02 Go On.mp3
/Volumes/Transmission 4TB/+Apollo Launchpad/Steve Hill - The One Man Blues Rock Band (2018) [MP3 320]/02 Go On.mp3
/Volumes/Transmission 4TB/+Apollo Launchpad/Steve Hill - The One Man Blues Rock Band (2018) [FLAC]/02 Go On.flac
/Volumes/Transmission 4TB/+Apollo Launchpad/Steve Hill - The One Man Blues Rock Band (2018) [Apple Lossless]/02 Go On.m4a

Track gain : -7.19 dB
Peak : 0.987885
CRC32 hash (test run) : 552A4260
CRC32 hash : 552A4260
CRC32 hash (skip zero) : 552593FA
AccurateRip v1 signature : C0FDBE01
AccurateRip v2 signature : C72A2672
->Track not present in AccurateRip database.
Statistics
Read error : 0
Jitter error (maybe fixed) : 0
Retry sector count : 0
Damaged sector count : 0

Track 03
Filename : /Volumes/Transmission 4TB/+Apollo Launchpad/Steve Hill - The One Man Blues Rock Band (2018) [MP3 V0]/03 The Collector.mp3
/Volumes/Transmission 4TB/+Apollo Launchpad/Steve Hill - The One Man Blues Rock Band (2018) [MP3 320]/03 The Collector.mp3
/Volumes/Transmission 4TB/+Apollo Launchpad/Steve Hill - The One Man Blues Rock Band (2018) [FLAC]/03 The Collector.flac
/Volumes/Transmission 4TB/+Apollo Launchpad/Steve Hill - The One Man Blues Rock Band (2018) [Apple Lossless]/03 The Collector.m4a

Track gain : -6.29 dB
Peak : 0.987762
CRC32 hash (test run) : D72BAD94
CRC32 hash : D72BAD94
CRC32 hash (skip zero) : 2376EFAE
AccurateRip v1 signature : 18F3B76F
AccurateRip v2 signature : 1FF722F3
->Track not present in AccurateRip database.
Statistics
Read error : 0
Jitter error (maybe fixed) : 0
Retry sector count : 0
Damaged sector count : 0

Track 04
Filename : /Volumes/Transmission 4TB/+Apollo Launchpad/Steve Hill - The One Man Blues Rock Band (2018) [MP3 V0]/04 Damned.mp3
/Volumes/Transmission 4TB/+Apollo Launchpad/Steve Hill - The One Man Blues Rock Band (2018) [MP3 320]/04 Damned.mp3
/Volumes/Transmission 4TB/+Apollo Launchpad/Steve Hill - The One Man Blues Rock Band (2018) [FLAC]/04 Damned.flac
/Volumes/Transmission 4TB/+Apollo Launchpad/Steve Hill - The One Man Blues Rock Band (2018) [Apple Lossless]/04 Damned.m4a

Track gain : -6.94 dB
Peak : 0.987915
CRC32 hash (test run) : 4489BD03
CRC32 hash : 4489BD03
CRC32 hash (skip zero) : 5CCF1D2E
AccurateRip v1 signature : 15EE5DC4
AccurateRip v2 signature : 5F36E757
->Track not present in AccurateRip database.
Statistics
Read error : 0
Jitter error (maybe fixed) : 0
Retry sector count : 0
Damaged sector count : 0

Track 05
Filename : /Volumes/Transmission 4TB/+Apollo Launchpad/Steve Hill - The One Man Blues Rock Band (2018) [MP3 V0]/05 Tough Luck.mp3
/Volumes/Transmission 4TB/+Apollo Launchpad/Steve Hill - The One Man Blues Rock Band (2018) [MP3 320]/05 Tough Luck.mp3
/Volumes/Transmission 4TB/+Apollo Launchpad/Steve Hill - The One Man Blues Rock Band (2018) [FLAC]/05 Tough Luck.flac
/Volumes/Transmission 4TB/+Apollo Launchpad/Steve Hill - The One Man Blues Rock Band (2018) [Apple Lossless]/05 Tough Luck.m4a

Track gain : -3.54 dB
Peak : 0.987579
CRC32 hash (test run) : B40A9C0F
CRC32 hash : B40A9C0F
CRC32 hash (skip zero) : A1E67C34
AccurateRip v1 signature : 1EF6E975
AccurateRip v2 signature : B672120E
->Track not present in AccurateRip database.
Statistics
Read error : 0
Jitter error (maybe fixed) : 0
Retry sector count : 0
Damaged sector count : 0

Track 06
Filename : /Volumes/Transmission 4TB/+Apollo Launchpad/Steve Hill - The One Man Blues Rock Band (2018) [MP3 V0]/06 Never Is Such a Long Time.mp3
/Volumes/Transmission 4TB/+Apollo Launchpad/Steve Hill - The One Man Blues Rock Band (2018) [MP3 320]/06 Never Is Such a Long Time.mp3
/Volumes/Transmission 4TB/+Apollo Launchpad/Steve Hill - The One Man Blues Rock Band (2018) [FLAC]/06 Never Is Such a Long Time.flac
/Volumes/Transmission 4TB/+Apollo Launchpad/Steve Hill - The One Man Blues Rock Band (2018) [Apple Lossless]/06 Never Is Such a Long Time.m4a

Track gain : -6.22 dB
Peak : 0.987793
CRC32 hash (test run) : B65BBD49
CRC32 hash : B65BBD49
CRC32 hash (skip zero) : 684E44D2
AccurateRip v1 signature : 440B2895
AccurateRip v2 signature : 8C9ADA15
->Track not present in AccurateRip database.
Statistics
Read error : 0
Jitter error (maybe fixed) : 0
Retry sector count : 0
Damaged sector count : 0

Track 07
Filename : /Volumes/Transmission 4TB/+Apollo Launchpad/Steve Hill - The One Man Blues Rock Band (2018) [MP3 V0]/07 Hate to See You Go.mp3
/Volumes/Transmission 4TB/+Apollo Launchpad/Steve Hill - The One Man Blues Rock Band (2018) [MP3 320]/07 Hate to See You Go.mp3
/Volumes/Transmission 4TB/+Apollo Launchpad/Steve Hill - The One Man Blues Rock Band (2018) [FLAC]/07 Hate to See You Go.flac
/Volumes/Transmission 4TB/+Apollo Launchpad/Steve Hill - The One Man Blues Rock Band (2018) [Apple Lossless]/07 Hate to See You Go.m4a

Track gain : -6.55 dB
Peak : 0.987946
CRC32 hash (test run) : 5529BBD1
CRC32 hash : 5529BBD1
CRC32 hash (skip zero) : 0DC669D5
AccurateRip v1 signature : B8C44FD7
AccurateRip v2 signature : E1B67366
->Track not present in AccurateRip database.
Statistics
Read error : 0
Jitter error (maybe fixed) : 0
Retry sector count : 0
Damaged sector count : 0

Track 08
Filename : /Volumes/Transmission 4TB/+Apollo Launchpad/Steve Hill - The One Man Blues Rock Band (2018) [MP3 V0]/08 Emily.mp3
/Volumes/Transmission 4TB/+Apollo Launchpad/Steve Hill - The One Man Blues Rock Band (2018) [MP3 320]/08 Emily.mp3
/Volumes/Transmission 4TB/+Apollo Launchpad/Steve Hill - The One Man Blues Rock Band (2018) [FLAC]/08 Emily.flac
/Volumes/Transmission 4TB/+Apollo Launchpad/Steve Hill - The One Man Blues Rock Band (2018) [Apple Lossless]/08 Emily.m4a

Track gain : -6.98 dB
Peak : 0.987854
CRC32 hash (test run) : F9491560
CRC32 hash : F9491560
CRC32 hash (skip zero) : D464E51F
AccurateRip v1 signature : 7D91920B
AccurateRip v2 signature : 5C5C73EE
->Track not present in AccurateRip database.
Statistics
Read error : 0
Jitter error (maybe fixed) : 0
Retry sector count : 0
Damaged sector count : 0

Track 09
Filename : /Volumes/Transmission 4TB/+Apollo Launchpad/Steve Hill - The One Man Blues Rock Band (2018) [MP3 V0]/09 Nothing New.mp3
/Volumes/Transmission 4TB/+Apollo Launchpad/Steve Hill - The One Man Blues Rock Band (2018) [MP3 320]/09 Nothing New.mp3
/Volumes/Transmission 4TB/+Apollo Launchpad/Steve Hill - The One Man Blues Rock Band (2018) [FLAC]/09 Nothing New.flac
/Volumes/Transmission 4TB/+Apollo Launchpad/Steve Hill - The One Man Blues Rock Band (2018) [Apple Lossless]/09 Nothing New.m4a

Track gain : -3.49 dB
Peak : 0.987854
CRC32 hash (test run) : F568D756
CRC32 hash : F568D756
CRC32 hash (skip zero) : 821A890A
AccurateRip v1 signature : 66393333
AccurateRip v2 signature : 78B06675
->Track not present in AccurateRip database.
Statistics
Read error : 0
Jitter error (maybe fixed) : 0
Retry sector count : 0
Damaged sector count : 0

Track 10
Filename : /Volumes/Transmission 4TB/+Apollo Launchpad/Steve Hill - The One Man Blues Rock Band (2018) [MP3 V0]/10 Out of Phase.mp3
/Volumes/Transmission 4TB/+Apollo Launchpad/Steve Hill - The One Man Blues Rock Band (2018) [MP3 320]/10 Out of Phase.mp3
/Volumes/Transmission 4TB/+Apollo Launchpad/Steve Hill - The One Man Blues Rock Band (2018) [FLAC]/10 Out of Phase.flac
/Volumes/Transmission 4TB/+Apollo Launchpad/Steve Hill - The One Man Blues Rock Band (2018) [Apple Lossless]/10 Out of Phase.m4a

Track gain : -5.06 dB
Peak : 0.987640
CRC32 hash (test run) : D1D3DCBD
CRC32 hash : D1D3DCBD
CRC32 hash (skip zero) : ACB7AFF3
AccurateRip v1 signature : 557D517F
AccurateRip v2 signature : 1A9746D6
->Track not present in AccurateRip database.
Statistics
Read error : 0
Jitter error (maybe fixed) : 0
Retry sector count : 0
Damaged sector count : 0

Track 11
Filename : /Volumes/Transmission 4TB/+Apollo Launchpad/Steve Hill - The One Man Blues Rock Band (2018) [MP3 V0]/11 Still Got It Bad.mp3
/Volumes/Transmission 4TB/+Apollo Launchpad/Steve Hill - The One Man Blues Rock Band (2018) [MP3 320]/11 Still Got It Bad.mp3
/Volumes/Transmission 4TB/+Apollo Launchpad/Steve Hill - The One Man Blues Rock Band (2018) [FLAC]/11 Still Got It Bad.flac
/Volumes/Transmission 4TB/+Apollo Launchpad/Steve Hill - The One Man Blues Rock Band (2018) [Apple Lossless]/11 Still Got It Bad.m4a

Track gain : -6.40 dB
Peak : 0.987732
CRC32 hash (test run) : 516FFE93
CRC32 hash : 516FFE93
CRC32 hash (skip zero) : 69B9D86C
AccurateRip v1 signature : 54DF3098
AccurateRip v2 signature : 876E6B5B
->Track not present in AccurateRip database.
Statistics
Read error : 0
Jitter error (maybe fixed) : 0
Retry sector count : 0
Damaged sector count : 0

Track 12
Filename : /Volumes/Transmission 4TB/+Apollo Launchpad/Steve Hill - The One Man Blues Rock Band (2018) [MP3 V0]/12 The Ballad of Johnny Wabo.mp3
/Volumes/Transmission 4TB/+Apollo Launchpad/Steve Hill - The One Man Blues Rock Band (2018) [MP3 320]/12 The Ballad of Johnny Wabo.mp3
/Volumes/Transmission 4TB/+Apollo Launchpad/Steve Hill - The One Man Blues Rock Band (2018) [FLAC]/12 The Ballad of Johnny Wabo.flac
/Volumes/Transmission 4TB/+Apollo Launchpad/Steve Hill - The One Man Blues Rock Band (2018) [Apple Lossless]/12 The Ballad of Johnny Wabo.m4a

Track gain : -5.72 dB
Peak : 0.987762
CRC32 hash (test run) : 2B501450
CRC32 hash : 2B501450
CRC32 hash (skip zero) : B7A5FDE7
AccurateRip v1 signature : DFA78F67
AccurateRip v2 signature : 053176E8
->Track not present in AccurateRip database.
Statistics
Read error : 0
Jitter error (maybe fixed) : 0
Retry sector count : 0
Damaged sector count : 0

Track 13
Filename : /Volumes/Transmission 4TB/+Apollo Launchpad/Steve Hill - The One Man Blues Rock Band (2018) [MP3 V0]/13 Dangerous.mp3
/Volumes/Transmission 4TB/+Apollo Launchpad/Steve Hill - The One Man Blues Rock Band (2018) [MP3 320]/13 Dangerous.mp3
/Volumes/Transmission 4TB/+Apollo Launchpad/Steve Hill - The One Man Blues Rock Band (2018) [FLAC]/13 Dangerous.flac
/Volumes/Transmission 4TB/+Apollo Launchpad/Steve Hill - The One Man Blues Rock Band (2018) [Apple Lossless]/13 Dangerous.m4a

Track gain : -7.12 dB
Peak : 0.987915
CRC32 hash (test run) : 3480F197
CRC32 hash : 3480F197
CRC32 hash (skip zero) : F7CA0864
AccurateRip v1 signature : 8D834247
AccurateRip v2 signature : 740E233F
->Track not present in AccurateRip database.
Statistics
Read error : 0
Jitter error (maybe fixed) : 0
Retry sector count : 0
Damaged sector count : 0

Track 14
Filename : /Volumes/Transmission 4TB/+Apollo Launchpad/Steve Hill - The One Man Blues Rock Band (2018) [MP3 V0]/14 Voodoo Child (Slight Return).mp3
/Volumes/Transmission 4TB/+Apollo Launchpad/Steve Hill - The One Man Blues Rock Band (2018) [MP3 320]/14 Voodoo Child (Slight Return).mp3
/Volumes/Transmission 4TB/+Apollo Launchpad/Steve Hill - The One Man Blues Rock Band (2018) [FLAC]/14 Voodoo Child (Slight Return).flac
/Volumes/Transmission 4TB/+Apollo Launchpad/Steve Hill - The One Man Blues Rock Band (2018) [Apple Lossless]/14 Voodoo Child (Slight Return).m4a

Track gain : -6.06 dB
Peak : 0.987793
CRC32 hash (test run) : 87B9B513
CRC32 hash : 87B9B513
CRC32 hash (skip zero) : 49A23CF6
AccurateRip v1 signature : 8813D4DF
AccurateRip v2 signature : 9476E8FF
->Track not present in AccurateRip database.
Statistics
Read error : 0
Jitter error (maybe fixed) : 0
Retry sector count : 0
Damaged sector count : 0

No errors occurred

End of status report

––-BEGIN XLD SIGNATURE––-
WB35..65NAGSqJQLCSQvvEnGjj98uBzvKajiyX9blsMjo1oNID6hecWCXQcVqCXG6wFkn6DaEl3n3UmDqfTvOaI04G4gO7kAD6q2CLu
––-END XLD SIGNATURE––-

Thanks to the Original ripper BoatyMcBoatFace !