Subcategories

Tangerine Dream - Quantum Gate (2017)

Posted By: delpotro
Tangerine Dream - Quantum Gate (2017)

Tangerine Dream - Quantum Gate (2017)
XLD Rip | FLAC (tracks+log+.cue) - 447 Mb | MP3 CBR 320 kbps - 162 Mb | 01:10:52
Electronic, Berlin School, Ambient | Label: Kscope Records

2017 release from the electronic music pioneers. Tangerine Dream have been a fundamental influence on electronic and progressive music since their formation in West Berlin, 1967. Inspiring genres, musicians and other art forms, from The Future Sound of London to Porcupine Tree, the widely popular TV show Stranger Things (for which their music also featured in) to seminal video game Grand Theft Auto V (for which they helped to write the soundtrack). The group have also received seven Grammy nominations, written over 100 studio albums and were led by Edgar Froese, who developed an instantly recognizable synth-based instrumental music based on a meditative musical experience that came to prominence in the '70s and '80s. Quantum Gate promises an updated, contemporary development of their trademark sound: sequencer-driven electronica covering a wide range of moods and atmospheres from ambient soundscapes to energetic, upbeat moments. The album began as a concept and series of musical sketches by Froese before he passed away in 2015. Remaining band members Thorsten Quaeschning, Ulrich Schnauss and Hoshiko Yamane worked together to realize Edgar's visions and expectations of a conceptual album that attempts to translate quantum physics and philosophy into music. New member Ulrich Schnauss comments: "at the moment hardly any other area of science questions our concept of reality (linearity of time etc.) as profoundly as research in Quantum physics - it's no surprise therefore that Edgar was drawn to these ideas since he had always aimed at reminding listeners of the existence of 'unopened doors'.
Tracklist:
1 Sensing Elements
2 Roll The Seven Twice
3 Granular Blankets
4 When Everyone Is Dancing It Is Time To Leave
5 Identity Proven Matrix
6 Non-Locality Destination
7 Proton Bonfire
8 Tear Down The Grey Skies
9 Genesis Of Precious Thoughts

X Lossless Decoder version 20170729 (150.3)

XLD extraction logfile from 2017-09-30 16:55:33 +0100

Tangerine Dream / Quantum Gate

Used drive : HL-DT-ST DVD+-RW GS40N (revision A100)
Media type : Pressed CD

Ripper mode : XLD Secure Ripper
Disable audio cache : OK for the drive with a cache less than 1375KiB
Make use of C2 pointers : NO
Read offset correction : 6
Max retry count : 100
Gap status : Analyzed, Appended (except HTOA)

TOC of the extracted CD
Track | Start | Length | Start sector | End sector
––––––––––––––––––––––––––––-
1 | 00:00:00 | 13:33:55 | 0 | 61029
2 | 13:33:55 | 06:25:58 | 61030 | 89962
3 | 19:59:38 | 05:03:30 | 89963 | 112717
4 | 25:02:68 | 06:36:45 | 112718 | 142462
5 | 31:39:38 | 05:18:67 | 142463 | 166379
6 | 36:58:30 | 09:59:73 | 166380 | 211377
7 | 46:58:28 | 08:25:06 | 211378 | 249258
8 | 55:23:34 | 06:17:41 | 249259 | 277574
9 | 61:41:00 | 09:10:50 | 277575 | 318874

AccurateRip Summary
Disc not found in AccurateRip DB.

All Tracks
Album gain : -6.54 dB
Peak : 1.000000
Statistics
Read error : 0
Jitter error (maybe fixed) : 0
Retry sector count : 0
Damaged sector count : 0

Track 01
Filename : /Users/MacMini/Working Folder/XLD/Tangerine Dream - Quantum Gate (2017) [FLAC]/01 Sensing Elements.flac
/Users/MacMini/Working Folder/XLD/Tangerine Dream - Quantum Gate (2017) [MP3-320]/01 Sensing Elements.mp3
/Users/MacMini/Working Folder/XLD/Tangerine Dream - Quantum Gate (2017) [MP3-V0]/01 Sensing Elements.mp3
/Users/MacMini/Working Folder/XLD/Tangerine Dream - Quantum Gate (2017) [MP3-V2]/01 Sensing Elements.mp3
Pre-gap length : 00:02:00

Track gain : -6.27 dB
Peak : 1.000000
CRC32 hash (test run) : 11CBCDD0
CRC32 hash : 11CBCDD0
CRC32 hash (skip zero) : FF26A5EF
AccurateRip v1 signature : 7FF3BAF2
AccurateRip v2 signature : 9C60D3F4
->Track not present in AccurateRip database.
Statistics
Read error : 0
Jitter error (maybe fixed) : 0
Retry sector count : 0
Damaged sector count : 0

Track 02
Filename : /Users/MacMini/Working Folder/XLD/Tangerine Dream - Quantum Gate (2017) [FLAC]/02 Roll The Seven Twice.flac
/Users/MacMini/Working Folder/XLD/Tangerine Dream - Quantum Gate (2017) [MP3-320]/02 Roll The Seven Twice.mp3
/Users/MacMini/Working Folder/XLD/Tangerine Dream - Quantum Gate (2017) [MP3-V0]/02 Roll The Seven Twice.mp3
/Users/MacMini/Working Folder/XLD/Tangerine Dream - Quantum Gate (2017) [MP3-V2]/02 Roll The Seven Twice.mp3

Track gain : -5.59 dB
Peak : 1.000000
CRC32 hash (test run) : 10343DF4
CRC32 hash : 10343DF4
CRC32 hash (skip zero) : 4197C47C
AccurateRip v1 signature : ECEF8CA3
AccurateRip v2 signature : C499E15E
->Track not present in AccurateRip database.
Statistics
Read error : 0
Jitter error (maybe fixed) : 0
Retry sector count : 0
Damaged sector count : 0

Track 03
Filename : /Users/MacMini/Working Folder/XLD/Tangerine Dream - Quantum Gate (2017) [FLAC]/03 Granular Blankets.flac
/Users/MacMini/Working Folder/XLD/Tangerine Dream - Quantum Gate (2017) [MP3-320]/03 Granular Blankets.mp3
/Users/MacMini/Working Folder/XLD/Tangerine Dream - Quantum Gate (2017) [MP3-V0]/03 Granular Blankets.mp3
/Users/MacMini/Working Folder/XLD/Tangerine Dream - Quantum Gate (2017) [MP3-V2]/03 Granular Blankets.mp3

Track gain : -7.54 dB
Peak : 1.000000
CRC32 hash (test run) : 06CF356B
CRC32 hash : 06CF356B
CRC32 hash (skip zero) : D921D92F
AccurateRip v1 signature : 71F74D4E
AccurateRip v2 signature : 0C255F44
->Track not present in AccurateRip database.
Statistics
Read error : 0
Jitter error (maybe fixed) : 0
Retry sector count : 0
Damaged sector count : 0

Track 04
Filename : /Users/MacMini/Working Folder/XLD/Tangerine Dream - Quantum Gate (2017) [FLAC]/04 It Is Time To Leave When Everyone Is Dancing.flac
/Users/MacMini/Working Folder/XLD/Tangerine Dream - Quantum Gate (2017) [MP3-320]/04 It Is Time To Leave When Everyone Is Dancing.mp3
/Users/MacMini/Working Folder/XLD/Tangerine Dream - Quantum Gate (2017) [MP3-V0]/04 It Is Time To Leave When Everyone Is Dancing.mp3
/Users/MacMini/Working Folder/XLD/Tangerine Dream - Quantum Gate (2017) [MP3-V2]/04 It Is Time To Leave When Everyone Is Dancing.mp3

Track gain : -6.57 dB
Peak : 1.000000
CRC32 hash (test run) : 16508F10
CRC32 hash : 16508F10
CRC32 hash (skip zero) : 6080D42E
AccurateRip v1 signature : 6DC64F6D
AccurateRip v2 signature : 40414F0B
->Track not present in AccurateRip database.
Statistics
Read error : 0
Jitter error (maybe fixed) : 0
Retry sector count : 0
Damaged sector count : 0

Track 05
Filename : /Users/MacMini/Working Folder/XLD/Tangerine Dream - Quantum Gate (2017) [FLAC]/05 Identity Proven Matrix.flac
/Users/MacMini/Working Folder/XLD/Tangerine Dream - Quantum Gate (2017) [MP3-320]/05 Identity Proven Matrix.mp3
/Users/MacMini/Working Folder/XLD/Tangerine Dream - Quantum Gate (2017) [MP3-V0]/05 Identity Proven Matrix.mp3
/Users/MacMini/Working Folder/XLD/Tangerine Dream - Quantum Gate (2017) [MP3-V2]/05 Identity Proven Matrix.mp3

Track gain : -6.51 dB
Peak : 1.000000
CRC32 hash (test run) : 632DC97B
CRC32 hash : 632DC97B
CRC32 hash (skip zero) : 5BB04BD4
AccurateRip v1 signature : 27C3F744
AccurateRip v2 signature : 4D9B6911
->Track not present in AccurateRip database.
Statistics
Read error : 0
Jitter error (maybe fixed) : 0
Retry sector count : 0
Damaged sector count : 0

Track 06
Filename : /Users/MacMini/Working Folder/XLD/Tangerine Dream - Quantum Gate (2017) [FLAC]/06 Non-Locality Destination.flac
/Users/MacMini/Working Folder/XLD/Tangerine Dream - Quantum Gate (2017) [MP3-320]/06 Non-Locality Destination.mp3
/Users/MacMini/Working Folder/XLD/Tangerine Dream - Quantum Gate (2017) [MP3-V0]/06 Non-Locality Destination.mp3
/Users/MacMini/Working Folder/XLD/Tangerine Dream - Quantum Gate (2017) [MP3-V2]/06 Non-Locality Destination.mp3

Track gain : -6.38 dB
Peak : 1.000000
CRC32 hash (test run) : DAC9636F
CRC32 hash : DAC9636F
CRC32 hash (skip zero) : 2F1E7AE7
AccurateRip v1 signature : 426D9439
AccurateRip v2 signature : 7C5CB6BF
->Track not present in AccurateRip database.
Statistics
Read error : 0
Jitter error (maybe fixed) : 0
Retry sector count : 0
Damaged sector count : 0

Track 07
Filename : /Users/MacMini/Working Folder/XLD/Tangerine Dream - Quantum Gate (2017) [FLAC]/07 Proton Bonfire.flac
/Users/MacMini/Working Folder/XLD/Tangerine Dream - Quantum Gate (2017) [MP3-320]/07 Proton Bonfire.mp3
/Users/MacMini/Working Folder/XLD/Tangerine Dream - Quantum Gate (2017) [MP3-V0]/07 Proton Bonfire.mp3
/Users/MacMini/Working Folder/XLD/Tangerine Dream - Quantum Gate (2017) [MP3-V2]/07 Proton Bonfire.mp3

Track gain : -5.94 dB
Peak : 1.000000
CRC32 hash (test run) : 52852E47
CRC32 hash : 52852E47
CRC32 hash (skip zero) : FD2B2A76
AccurateRip v1 signature : 0A430E85
AccurateRip v2 signature : 20355782
->Track not present in AccurateRip database.
Statistics
Read error : 0
Jitter error (maybe fixed) : 0
Retry sector count : 0
Damaged sector count : 0

Track 08
Filename : /Users/MacMini/Working Folder/XLD/Tangerine Dream - Quantum Gate (2017) [FLAC]/08 Tear Down The Grey Skies.flac
/Users/MacMini/Working Folder/XLD/Tangerine Dream - Quantum Gate (2017) [MP3-320]/08 Tear Down The Grey Skies.mp3
/Users/MacMini/Working Folder/XLD/Tangerine Dream - Quantum Gate (2017) [MP3-V0]/08 Tear Down The Grey Skies.mp3
/Users/MacMini/Working Folder/XLD/Tangerine Dream - Quantum Gate (2017) [MP3-V2]/08 Tear Down The Grey Skies.mp3

Track gain : -7.30 dB
Peak : 1.000000
CRC32 hash (test run) : BE9E5AEB
CRC32 hash : BE9E5AEB
CRC32 hash (skip zero) : A1E032B5
AccurateRip v1 signature : 3B203BA2
AccurateRip v2 signature : 5BE231BD
->Track not present in AccurateRip database.
Statistics
Read error : 0
Jitter error (maybe fixed) : 0
Retry sector count : 0
Damaged sector count : 0

Track 09
Filename : /Users/MacMini/Working Folder/XLD/Tangerine Dream - Quantum Gate (2017) [FLAC]/09 Genesis Of Precious Thoughts.flac
/Users/MacMini/Working Folder/XLD/Tangerine Dream - Quantum Gate (2017) [MP3-320]/09 Genesis Of Precious Thoughts.mp3
/Users/MacMini/Working Folder/XLD/Tangerine Dream - Quantum Gate (2017) [MP3-V0]/09 Genesis Of Precious Thoughts.mp3
/Users/MacMini/Working Folder/XLD/Tangerine Dream - Quantum Gate (2017) [MP3-V2]/09 Genesis Of Precious Thoughts.mp3

Track gain : -5.58 dB
Peak : 1.000000
CRC32 hash (test run) : ED18D1EF
CRC32 hash : ED18D1EF
CRC32 hash (skip zero) : 734A44D7
AccurateRip v1 signature : 0E76004B
AccurateRip v2 signature : 4A41C123
->Track not present in AccurateRip database.
Statistics
Read error : 0
Jitter error (maybe fixed) : 0
Retry sector count : 0
Damaged sector count : 0

No errors occurred

End of status report

––-BEGIN XLD SIGNATURE––-
jRjdLpvZ6o7IKNp2_clbj7cwpBIBYdt4zm11Rnt3fTiflMZgswGtkscB4TWMWtZxg9FatFoMYovWVuPL9818DxF71HXY0ADe5Z5_dK4
––-END XLD SIGNATURE––-

Thanks to the Original ripper Flower86 !