Subcategories
Tags
Language
Tags

Tartit - Amankor / The Exile (2019)

Posted By: delpotro
Tartit - Amankor / The Exile (2019)

Tartit - Amankor / The Exile (2019)
XLD Rip | FLAC (tracks+log+.cue) - 228 Mb | MP3 CBR 320 kbps - 119 Mb | 00:51:43
World, Desert Blues, Female Vocal | Label: Riverboat Records, World Music Network

Amankor / The Exile marks the long-awaited return of the iconic guardians of Tuareg music Tartit, whose hypnotic music speaks of the issues of a culture under attack. With heartfelt songs of nostalgia for their homeland, Tartit spread the message of love and peace whilst transporting the listener to the expanses of the Sahara.

The first album in twelve years from the guardians of Tuareg traditional music. Tartit formed in a refugee camp in Mauritania in the mid- 90s during the Tuareg uprising. Poignant songs about unity, understanding and the threat to the Tuareg way of life. Led by the charismatic female singer Fadimata Walet Oumar known as ‘Disco’. A must-have album for fans of Tinariwen and other desert blues bands / artists, Tartit embrace the authentic instruments of their Malian tradition, along with guitars to give the music a modern edge.
Tracklist:
1. Afous Dafous (03:12)
2. Yahoye (03:21)
3. Leiliya (04:16)
4. Asaharaden (06:02)
5. Haoua (01:14)
6. Amankor (04:45)
7. Tarhanin (04:28)
8. Akaline (04:19)
9. Tamat (04:23)
10. Tanminak (05:22)
11. Tiliaden N’Asahara (03:27)
12. Efaghane (06:29)

X Lossless Decoder version 20160920 (149.2)

XLD extraction logfile from 2019-04-26 15:32:30 +0200

Tartit / Amankor/The Exile

Used drive : HL-DT-ST DVDRW GX40N (revision RQ00)
Media type : Pressed CD

Ripper mode : XLD Secure Ripper
Disable audio cache : OK for the drive with a cache less than 1375KiB
Make use of C2 pointers : NO
Read offset correction : 6
Max retry count : 20
Gap status : Analyzed, Appended (except HTOA)

TOC of the extracted CD
Track | Start | Length | Start sector | End sector
––––––––––––––––––––––––––––-
1 | 00:00:00 | 03:14:00 | 0 | 14549
2 | 03:14:00 | 03:23:16 | 14550 | 29790
3 | 06:37:16 | 04:18:00 | 29791 | 49140
4 | 10:55:16 | 06:04:00 | 49141 | 76440
5 | 16:59:16 | 01:16:45 | 76441 | 82185
6 | 18:15:61 | 04:47:38 | 82186 | 103748
7 | 23:03:24 | 04:30:00 | 103749 | 123998
8 | 27:33:24 | 04:21:22 | 123999 | 143595
9 | 31:54:46 | 04:25:69 | 143596 | 163539
10 | 36:20:40 | 05:24:12 | 163540 | 187851
11 | 41:44:52 | 03:29:00 | 187852 | 203526
12 | 45:13:52 | 06:29:44 | 203527 | 232745

AccurateRip Summary
Disc not found in AccurateRip DB.

All Tracks
Album gain : 2.74 dB
Peak : 0.967224
Statistics
Read error : 0
Jitter error (maybe fixed) : 0
Retry sector count : 0
Damaged sector count : 0

Track 01
Filename : /rips/Tartit - Amankor-The Exile (2019) [FLAC]/01 Afous Dafous.flac
Pre-gap length : 00:02:00

Track gain : 0.42 dB
Peak : 0.745270
CRC32 hash (test run) : E6434C7F
CRC32 hash : E6434C7F
CRC32 hash (skip zero) : 545A7C75
AccurateRip v1 signature : 253014D0
AccurateRip v2 signature : 15604047
->Track not present in AccurateRip database.
Statistics
Read error : 0
Jitter error (maybe fixed) : 0
Retry sector count : 0
Damaged sector count : 0

Track 02
Filename : /rips/Tartit - Amankor-The Exile (2019) [FLAC]/02 Yahoye.flac
Pre-gap length : 00:02:00

Track gain : 2.93 dB
Peak : 0.601929
CRC32 hash (test run) : 0667C025
CRC32 hash : 0667C025
CRC32 hash (skip zero) : DEA9E49C
AccurateRip v1 signature : 59B06536
AccurateRip v2 signature : 9A2D718E
->Track not present in AccurateRip database.
Statistics
Read error : 0
Jitter error (maybe fixed) : 0
Retry sector count : 0
Damaged sector count : 0

Track 03
Filename : /rips/Tartit - Amankor-The Exile (2019) [FLAC]/03 Leiliya.flac
Pre-gap length : 00:02:00

Track gain : 4.29 dB
Peak : 0.570862
CRC32 hash (test run) : F089532E
CRC32 hash : F089532E
CRC32 hash (skip zero) : CADF8B62
AccurateRip v1 signature : 2DD0AA15
AccurateRip v2 signature : 07743623
->Track not present in AccurateRip database.
Statistics
Read error : 0
Jitter error (maybe fixed) : 0
Retry sector count : 0
Damaged sector count : 0

Track 04
Filename : /rips/Tartit - Amankor-The Exile (2019) [FLAC]/04 Asaharaden.flac
Pre-gap length : 00:02:00

Track gain : 2.68 dB
Peak : 0.726471
CRC32 hash (test run) : 37204449
CRC32 hash : 37204449
CRC32 hash (skip zero) : 8B005308
AccurateRip v1 signature : 4CE3BDBC
AccurateRip v2 signature : ED061FCC
->Track not present in AccurateRip database.
Statistics
Read error : 0
Jitter error (maybe fixed) : 0
Retry sector count : 0
Damaged sector count : 0

Track 05
Filename : /rips/Tartit - Amankor-The Exile (2019) [FLAC]/05 Haoua.flac
Pre-gap length : 00:02:00

Track gain : 3.34 dB
Peak : 0.552155
CRC32 hash (test run) : D916437D
CRC32 hash : D916437D
CRC32 hash (skip zero) : 06557C75
AccurateRip v1 signature : 5A9D5C16
AccurateRip v2 signature : 3350118C
->Track not present in AccurateRip database.
Statistics
Read error : 0
Jitter error (maybe fixed) : 0
Retry sector count : 0
Damaged sector count : 0

Track 06
Filename : /rips/Tartit - Amankor-The Exile (2019) [FLAC]/06 Amankor.flac
Pre-gap length : 00:02:00

Track gain : 2.28 dB
Peak : 0.903839
CRC32 hash (test run) : FE567E05
CRC32 hash : FE567E05
CRC32 hash (skip zero) : ECCAE8FA
AccurateRip v1 signature : 5D0C5549
AccurateRip v2 signature : FDA3C02D
->Track not present in AccurateRip database.
Statistics
Read error : 0
Jitter error (maybe fixed) : 0
Retry sector count : 0
Damaged sector count : 0

Track 07
Filename : /rips/Tartit - Amankor-The Exile (2019) [FLAC]/07 Tarhanin.flac
Pre-gap length : 00:02:00

Track gain : 3.96 dB
Peak : 0.473938
CRC32 hash (test run) : 5A740392
CRC32 hash : 5A740392
CRC32 hash (skip zero) : BA22C25A
AccurateRip v1 signature : B0028C20
AccurateRip v2 signature : B37E0A13
->Track not present in AccurateRip database.
Statistics
Read error : 0
Jitter error (maybe fixed) : 0
Retry sector count : 0
Damaged sector count : 0

Track 08
Filename : /rips/Tartit - Amankor-The Exile (2019) [FLAC]/08 Akaline.flac
Pre-gap length : 00:02:00

Track gain : 1.95 dB
Peak : 0.967224
CRC32 hash (test run) : 1A84D745
CRC32 hash : 1A84D745
CRC32 hash (skip zero) : 829F9743
AccurateRip v1 signature : F592AA29
AccurateRip v2 signature : B85274CF
->Track not present in AccurateRip database.
Statistics
Read error : 0
Jitter error (maybe fixed) : 0
Retry sector count : 0
Damaged sector count : 0

Track 09
Filename : /rips/Tartit - Amankor-The Exile (2019) [FLAC]/09 Tamat.flac
Pre-gap length : 00:02:00

Track gain : 3.60 dB
Peak : 0.536041
CRC32 hash (test run) : 79D58411
CRC32 hash : 79D58411
CRC32 hash (skip zero) : 342B0B31
AccurateRip v1 signature : 3A8851C1
AccurateRip v2 signature : B226CFDE
->Track not present in AccurateRip database.
Statistics
Read error : 0
Jitter error (maybe fixed) : 0
Retry sector count : 0
Damaged sector count : 0

Track 10
Filename : /rips/Tartit - Amankor-The Exile (2019) [FLAC]/10 Tanminak.flac
Pre-gap length : 00:02:00

Track gain : 3.45 dB
Peak : 0.967224
CRC32 hash (test run) : 2AFD5779
CRC32 hash : 2AFD5779
CRC32 hash (skip zero) : B58D00F5
AccurateRip v1 signature : 4824A77B
AccurateRip v2 signature : 30F9C922
->Track not present in AccurateRip database.
Statistics
Read error : 0
Jitter error (maybe fixed) : 0
Retry sector count : 0
Damaged sector count : 0

Track 11
Filename : /rips/Tartit - Amankor-The Exile (2019) [FLAC]/11 Tiliaden N'Asahara.flac
Pre-gap length : 00:02:00

Track gain : 3.77 dB
Peak : 0.536041
CRC32 hash (test run) : A4689C93
CRC32 hash : A4689C93
CRC32 hash (skip zero) : E61CB00A
AccurateRip v1 signature : 628536F4
AccurateRip v2 signature : 3C334865
->Track not present in AccurateRip database.
Statistics
Read error : 0
Jitter error (maybe fixed) : 0
Retry sector count : 0
Damaged sector count : 0

Track 12
Filename : /rips/Tartit - Amankor-The Exile (2019) [FLAC]/12 Efaghane.flac
Pre-gap length : 00:02:00

Track gain : 2.93 dB
Peak : 0.967224
CRC32 hash (test run) : D3DBB5A6
CRC32 hash : D3DBB5A6
CRC32 hash (skip zero) : F9E1CFC1
AccurateRip v1 signature : 72DF3499
AccurateRip v2 signature : 3C41FC53
->Track not present in AccurateRip database.
Statistics
Read error : 0
Jitter error (maybe fixed) : 0
Retry sector count : 0
Damaged sector count : 0

No errors occurred

End of status report

––-BEGIN XLD SIGNATURE––-
8P6kq_E9u1fFYARFhxSZB0DCb9pbj_17Osa6lSCYbLgm3dESmNbQ9xpDqptKLsm1xTm5mIJPWQzoD0me7dxTm8SpYCcNsDjyqvL0mAm
––-END XLD SIGNATURE––-

Thanks to the Original ripper !