Subcategories
Tags
Language
Tags

The Jolly Boys - Great Expectation (2010)

Posted By: El Misha
The Jolly Boys - Great Expectation (2010)

The Jolly Boys - Great expectation (2010)
EAC | FLAC (tracks & cue & log) | Scans included | 43:01 | 290 MB + 5% Recovery
Mento, Calypso, Reggae | Label: Wall Of Sound

This is the best record of the year and Minott is the best male vocalist of the decade. The Jolly Boys deserve a best vocalist Grammy, best cover song Grammy, best album Grammy, best all around Grammy and those who value solid music with raw power and hair-raising soulfulness deserve to honor their ears with this one. The Jolly Boys take some great songs on here and make them better as they own them, and they elevate some other mediocre pop songs (that until the Jolly Boys got hold of them were just whiny lyrics and plasticine substance around bubble gum basics) into the bluesy phenomenal stratosphere of hair-raising profound expressions of old school realism.



Tracklist:

01. Passenger
02. Perfect day
03. Rehab
04. Nightclubbing
05. Hanging on the telephone
06. Do it again
07. Riders on the storm
08. Golden brown
09. I fought the law
10. Ring of fire
11. Blue monday
12. You can't always get what you want

Exact Audio Copy V0.99 prebeta 5 from 4. May 2009

EAC extraction logfile from 10. December 2010, 20:30

The Jolly Boys / Great Expectations

Used drive : PIONEER DVD-RW DVR-111D Adapter: 4 ID: 0

Read mode : Secure
Utilize accurate stream : Yes
Defeat audio cache : Yes
Make use of C2 pointers : No

Read offset correction : 48
Overread into Lead-In and Lead-Out : No
Fill up missing offset samples with silence : Yes
Delete leading and trailing silent blocks : No
Null samples used in CRC calculations : Yes
Used interface : Native Win32 interface for Win NT & 2000
Gap handling : Appended to previous track

Used output format : User Defined Encoder
Selected bitrate : 768 kBit/s
Quality : High
Add ID3 tag : No
Command line compressor : C:\Program Files\Exact Audio Copy\FLAC\FLAC.EXE
Additional command line options : -8 -V -T "ARTIST=%a" -T "TITLE=%t" -T "ALBUM=%g" -T "DATE=%y" -T "TRACKNUMBER=%n" -T "GENRE=%m" -T "COMMENT=%e" %s -o %d

TOC of the extracted CD

Track | Start | Length | Start sector | End sector
––––––––––––––––––––––––––––-
1 | 0:00.00 | 3:57.33 | 0 | 17807
2 | 3:57.33 | 3:42.73 | 17808 | 34530
3 | 7:40.31 | 4:09.09 | 34531 | 53214
4 | 11:49.40 | 3:37.55 | 53215 | 69544
5 | 15:27.20 | 3:06.36 | 69545 | 83530
6 | 18:33.56 | 3:19.27 | 83531 | 98482
7 | 21:53.08 | 3:23.70 | 98483 | 113777
8 | 25:17.03 | 2:34.13 | 113778 | 125340
9 | 27:51.16 | 3:22.63 | 125341 | 140553
10 | 31:14.04 | 3:33.70 | 140554 | 156598
11 | 34:47.74 | 3:15.61 | 156599 | 171284
12 | 38:03.60 | 4:57.53 | 171285 | 193612

Track 1

Filename E:\Torrent\WAFFLES\The Jolly Boys feat. Albert Minott - Great expectation (2010)\The Jolly Boys\2010-Great Expectations\01. Passenger.wav

Pre-gap length 0:00:02.00

Peak level 87.5 %
Track quality 99.9 %
Test CRC B4631415
Copy CRC B4631415
Cannot be verified as accurate (confidence 2) [1F7C101B], AccurateRip returned [FF3D1696]
Copy OK

Track 2

Filename E:\Torrent\WAFFLES\The Jolly Boys feat. Albert Minott - Great expectation (2010)\The Jolly Boys\2010-Great Expectations\02. Perfect Day.wav

Peak level 99.9 %
Track quality 100.0 %
Test CRC 7CC0483B
Copy CRC 7CC0483B
Cannot be verified as accurate (confidence 2) [4190A413], AccurateRip returned [7D9D98A7]
Copy OK

Track 3

Filename E:\Torrent\WAFFLES\The Jolly Boys feat. Albert Minott - Great expectation (2010)\The Jolly Boys\2010-Great Expectations\03. Rehab.wav

Peak level 99.9 %
Track quality 100.0 %
Test CRC B8E68A79
Copy CRC B8E68A79
Cannot be verified as accurate (confidence 2) [08AEAB98], AccurateRip returned [28A443C4]
Copy OK

Track 4

Filename E:\Torrent\WAFFLES\The Jolly Boys feat. Albert Minott - Great expectation (2010)\The Jolly Boys\2010-Great Expectations\04. Nightclubbing.wav

Peak level 99.9 %
Track quality 100.0 %
Test CRC BDDD23C4
Copy CRC BDDD23C4
Cannot be verified as accurate (confidence 2) [1D2FAD59], AccurateRip returned [AA9DEE9F]
Copy OK

Track 5

Filename E:\Torrent\WAFFLES\The Jolly Boys feat. Albert Minott - Great expectation (2010)\The Jolly Boys\2010-Great Expectations\05. Hanging On The Telephone.wav

Peak level 99.9 %
Track quality 100.0 %
Test CRC 4E905645
Copy CRC 4E905645
Cannot be verified as accurate (confidence 2) [AF5A3CB7], AccurateRip returned [913D55BD]
Copy OK

Track 6

Filename E:\Torrent\WAFFLES\The Jolly Boys feat. Albert Minott - Great expectation (2010)\The Jolly Boys\2010-Great Expectations\06. Do It Again.wav

Peak level 98.6 %
Track quality 100.0 %
Test CRC 37642408
Copy CRC 37642408
Cannot be verified as accurate (confidence 2) [E1C4AC02], AccurateRip returned [F60F46AD]
Copy OK

Track 7

Filename E:\Torrent\WAFFLES\The Jolly Boys feat. Albert Minott - Great expectation (2010)\The Jolly Boys\2010-Great Expectations\07. Riders On The Storm.wav

Peak level 99.6 %
Track quality 100.0 %
Test CRC C8F0A527
Copy CRC C8F0A527
Cannot be verified as accurate (confidence 2) [A1B073AE], AccurateRip returned [89088C86]
Copy OK

Track 8

Filename E:\Torrent\WAFFLES\The Jolly Boys feat. Albert Minott - Great expectation (2010)\The Jolly Boys\2010-Great Expectations\08. Golden Brown.wav

Peak level 99.9 %
Track quality 100.0 %
Test CRC EC933A0D
Copy CRC EC933A0D
Cannot be verified as accurate (confidence 2) [B80AF380], AccurateRip returned [323A0F80]
Copy OK

Track 9

Filename E:\Torrent\WAFFLES\The Jolly Boys feat. Albert Minott - Great expectation (2010)\The Jolly Boys\2010-Great Expectations\09. I Fought The Law.wav

Peak level 91.9 %
Track quality 100.0 %
Test CRC E09941D5
Copy CRC E09941D5
Cannot be verified as accurate (confidence 2) [620D3C39], AccurateRip returned [0789ADC0]
Copy OK

Track 10

Filename E:\Torrent\WAFFLES\The Jolly Boys feat. Albert Minott - Great expectation (2010)\The Jolly Boys\2010-Great Expectations\10. Ring Of Fire.wav

Peak level 88.7 %
Track quality 100.0 %
Test CRC 8A6EED8C
Copy CRC 8A6EED8C
Cannot be verified as accurate (confidence 2) [2CB8824F], AccurateRip returned [4CED6858]
Copy OK

Track 11

Filename E:\Torrent\WAFFLES\The Jolly Boys feat. Albert Minott - Great expectation (2010)\The Jolly Boys\2010-Great Expectations\11. Blue Monday.wav

Peak level 99.9 %
Track quality 100.0 %
Test CRC 0D6D2133
Copy CRC 0D6D2133
Cannot be verified as accurate (confidence 2) [8374D22F], AccurateRip returned [F85CC819]
Copy OK

Track 12

Filename E:\Torrent\WAFFLES\The Jolly Boys feat. Albert Minott - Great expectation (2010)\The Jolly Boys\2010-Great Expectations\12. You Can't Always Get What You Want.wav

Peak level 97.8 %
Track quality 100.0 %
Test CRC FEAF22C2
Copy CRC FEAF22C2
Cannot be verified as accurate (confidence 2) [84FBEA9A], AccurateRip returned [5C58B1B1]
Copy OK

No tracks could be verified as accurate
You may have a different pressing from the one(s) in the database

No errors occurred

End of status report


All thanks to original releaser!