Subcategories

The Pogues - Original Album Series (2009)

Posted By: El Misha
The Pogues - Original Album Series (2009)

The Pogues - Original Album Series (2009)
EAC Rip | FLAC (image & cue & log) -> 1.33 GB | Full Artwork @ (jpg, 600 dpi) -> 116 MB | 03:44:23
Genre: Punk Rock, Folk Rock, Folk | Label: WEA | # 0825646839490

The Pogues were an Irish-British Celtic punk band formed in 1982 and fronted by Shane MacGowan. The original name of the band was "Pogue Mahone" (meaning "Kiss My Arse" in Gaelic).



Tracklist:

Disc 1 - Red Roses For Me
1. Transmetropolitan
2. The Battle Of Brisbane
3. The Auid Triangle
4. Waxie's Dargle
5. Boys From The County Hell
6. Sea Shanty
7. Dark Streets Of London
8. Streams Of Whiskey
9. Poor Daddy
10. Dingle Regatta
11. Greenland Whale Fisheries
12. Down In The Ground Where The Dead Men Go
13. Kitty

Exact Audio Copy V0.99 prebeta 5 from 4. May 2009

Отчёт EAC об извлечении, выполненном 19. июля 2010, 9:11

Pogues / Red Roses for Me

Дисковод: _NEC DVD_RW ND-4570A Adapter: 0 ID: 0

Режим чтения : Достоверность
Использование точного потока : Да
Отключение кэша аудио : Да
Использование указателей C2 : Нет

Коррекция смещения при чтении : 48
Способность читать области Lead-in и Lead-out : Нет
Заполнение пропущенных сэмплов тишиной : Да
Удаление блоков с тишиной в начале и конце : Нет
При вычислениях CRC использовались нулевые сэмплы : Да
Интерфейс : Встроенный Win32-интерфейс для Win NT/2000

Выходной формат : Внутренние WAV-операции
Формат сэмплов : 44.100 Гц; 16 бит; стерео


TOC извлечённого CD

Трек | Старт | Длительность | Начальный сектор | Конечный сектор
––––––––––––––––––––––––––––––––––-
1 | 0:00.33 | 4:15.55 | 33 | 19212
2 | 4:16.13 | 1:49.40 | 19213 | 27427
3 | 6:05.53 | 4:20.22 | 27428 | 46949
4 | 10:26.00 | 1:53.10 | 46950 | 55434
5 | 12:19.10 | 2:56.00 | 55435 | 68634
6 | 15:15.10 | 2:24.58 | 68635 | 79492
7 | 17:39.68 | 3:33.00 | 79493 | 95467
8 | 21:12.68 | 2:32.57 | 95468 | 106924
9 | 23:45.50 | 3:09.38 | 106925 | 121137
10 | 26:55.13 | 2:52.25 | 121138 | 134062
11 | 29:47.38 | 2:36.45 | 134063 | 145807
12 | 32:24.08 | 3:30.00 | 145808 | 161557
13 | 35:54.08 | 4:23.17 | 161558 | 181299


Характеристики диапазона извлечения и сообщения об ошибках

Выбранный диапазон

Имя файла D:\Soft\___\The Pogues\1984 Red Roses for Me\1984 Red Roses For Me.wav

Пиковый уровень 100.0 %
Качество диапазона 100.0 %
CRC теста 6ABFF6DC
CRC копии 6ABFF6DC
Копирование… OK

Ошибок не произошло


AccurateRip: сводка

Трек 1 точное извлечение (доверие 4) [8FCBE6A4]
Трек 2 точное извлечение (доверие 4) [E87B48FE]
Трек 3 точное извлечение (доверие 4) [F7A5F1D1]
Трек 4 точное извлечение (доверие 4) [9966D4A2]
Трек 5 точное извлечение (доверие 4) [8FEB1DA7]
Трек 6 точное извлечение (доверие 4) [060095DC]
Трек 7 точное извлечение (доверие 4) [A67F6A16]
Трек 8 точное извлечение (доверие 4) [53B6F79A]
Трек 9 точное извлечение (доверие 4) [8F2A4D8F]
Трек 10 точное извлечение (доверие 4) [AE0705DF]
Трек 11 точное извлечение (доверие 4) [177E79DA]
Трек 12 точное извлечение (доверие 4) [763A3FD4]
Трек 13 точное извлечение (доверие 4) [C3E971E6]

Все треки извлечены точно

Конец отчёта


Disc 2 - Rum Sodomy & The Lash.
1. The Sick Bed Of Cuchulainn
2. The Old Main Drag
3. Wild Cats Of Kilkenny
4. I'm A Man You Don't Meet Every Day
5. A Pair Of Brown Eyes
6. Sally Maclennane
7. A Pistol For Paddy Garcia
8. Dirty Old Town
9. Jesse James Navigator
10. Navigator
11. Billy's Bone
12. The Gentelman Soldier
13. The Band Played Waltzing Matilda

Exact Audio Copy V0.99 prebeta 5 from 4. May 2009

Отчёт EAC об извлечении, выполненном 19. июля 2010, 8:36

The Pogues / Rum Sodomy & the Lash

Дисковод: _NEC DVD_RW ND-4570A Adapter: 0 ID: 0

Режим чтения : Достоверность
Использование точного потока : Да
Отключение кэша аудио : Да
Использование указателей C2 : Нет

Коррекция смещения при чтении : 48
Способность читать области Lead-in и Lead-out : Нет
Заполнение пропущенных сэмплов тишиной : Да
Удаление блоков с тишиной в начале и конце : Нет
При вычислениях CRC использовались нулевые сэмплы : Да
Интерфейс : Встроенный Win32-интерфейс для Win NT/2000

Выходной формат : Внутренние WAV-операции
Формат сэмплов : 44.100 Гц; 16 бит; стерео


TOC извлечённого CD

Трек | Старт | Длительность | Начальный сектор | Конечный сектор
––––––––––––––––––––––––––––––––––-
1 | 0:00.32 | 2:59.18 | 32 | 13474
2 | 2:59.50 | 3:19.65 | 13475 | 28464
3 | 6:19.40 | 2:48.42 | 28465 | 41106
4 | 9:08.07 | 2:55.00 | 41107 | 54231
5 | 12:03.07 | 4:54.15 | 54232 | 76296
6 | 16:57.22 | 2:43.43 | 76297 | 88564
7 | 19:40.65 | 2:31.42 | 88565 | 99931
8 | 22:12.32 | 3:45.53 | 99932 | 116859
9 | 25:58.10 | 2:58.52 | 116860 | 130261
10 | 28:56.62 | 4:12.38 | 130262 | 149199
11 | 33:09.25 | 2:02.45 | 149200 | 158394
12 | 35:11.70 | 2:04.25 | 158395 | 167719
13 | 37:16.20 | 8:10.37 | 167720 | 204506


Характеристики диапазона извлечения и сообщения об ошибках

Выбранный диапазон

Имя файла J:\_MUZ\The Pogues\1985 Rum Sodomy & the Lash\1985 Rum Sodomy & the Lash.wav

Пиковый уровень 96.0 %
Качество диапазона 100.0 %
CRC теста 1E8C8115
CRC копии 1E8C8115
Копирование… OK

Ошибок не произошло


AccurateRip: сводка

Трек 1 точное извлечение (доверие 4) [82382878]
Трек 2 точное извлечение (доверие 4) [B7A8D27D]
Трек 3 точное извлечение (доверие 4) [8F766392]
Трек 4 точное извлечение (доверие 4) [3CA5B981]
Трек 5 точное извлечение (доверие 4) [06861218]
Трек 6 точное извлечение (доверие 4) [A0A841C2]
Трек 7 точное извлечение (доверие 4) [5515A6F6]
Трек 8 точное извлечение (доверие 4) [C8E89744]
Трек 9 точное извлечение (доверие 4) [311AE32C]
Трек 10 точное извлечение (доверие 4) [0B0A346D]
Трек 11 точное извлечение (доверие 4) [4CB5C4F8]
Трек 12 точное извлечение (доверие 4) [DC863A18]
Трек 13 точное извлечение (доверие 4) [418D2FF4]

Все треки извлечены точно

Конец отчёта


Disc 3 - If I Should Fall From Grace With God
1. If I Should Fall From Grace With God
2. Turkish Song Of The Damned
3. Bottle Of Smoke
4. Fairytale Of New York
5. Metropolis
6. Thousands Are Saling
7. South Australia
8. Fiesta
9. Medley
10. Streets Of Sorrow / Birmingham Six
11. Lullaby Of Landon
12. The Battle March Medley
13. Sit Down By The Fire
14. The Broad Majestic Shannon
15. Worms

Exact Audio Copy V0.99 prebeta 5 from 4. May 2009

Отчёт EAC об извлечении, выполненном 19. июля 2010, 9:45

The Pogues / If I Should Fall From Grace With God

Дисковод: _NEC DVD_RW ND-4570A Adapter: 0 ID: 0

Режим чтения : Достоверность
Использование точного потока : Да
Отключение кэша аудио : Да
Использование указателей C2 : Нет

Коррекция смещения при чтении : 48
Способность читать области Lead-in и Lead-out : Нет
Заполнение пропущенных сэмплов тишиной : Да
Удаление блоков с тишиной в начале и конце : Нет
При вычислениях CRC использовались нулевые сэмплы : Да
Интерфейс : Встроенный Win32-интерфейс для Win NT/2000

Выходной формат : Внутренние WAV-операции
Формат сэмплов : 44.100 Гц; 16 бит; стерео


TOC извлечённого CD

Трек | Старт | Длительность | Начальный сектор | Конечный сектор
––––––––––––––––––––––––––––––––––-
1 | 0:00.00 | 2:21.30 | 0 | 10604
2 | 2:21.30 | 3:27.65 | 10605 | 26194
3 | 5:49.20 | 2:47.25 | 26195 | 38744
4 | 8:36.45 | 4:36.40 | 38745 | 59484
5 | 13:13.10 | 2:50.47 | 59485 | 72281
6 | 16:03.57 | 5:28.45 | 72282 | 96926
7 | 21:32.27 | 3:28.00 | 96927 | 112526
8 | 25:00.27 | 4:13.08 | 112527 | 131509
9 | 29:13.35 | 4:02.00 | 131510 | 149659
10 | 33:15.35 | 4:39.07 | 149660 | 170591
11 | 37:54.42 | 3:32.10 | 170592 | 186501
12 | 41:26.52 | 4:10.30 | 186502 | 205281
13 | 45:37.07 | 2:17.48 | 205282 | 215604
14 | 47:54.55 | 2:55.35 | 215605 | 228764
15 | 50:50.15 | 1:03.02 | 228765 | 233491


Характеристики диапазона извлечения и сообщения об ошибках

Выбранный диапазон

Имя файла D:\Soft\___\The Pogues\1988 If I Should Fall from Grace with God\1988 If I Should Fall From Grace With God.wav

Пиковый уровень 100.0 %
Качество диапазона 100.0 %
CRC теста 5D5A9E86
CRC копии 5D5A9E86
Копирование… OK

Ошибок не произошло


AccurateRip: сводка

Трек 1 точное извлечение (доверие 10) [A1B6D400]
Трек 2 точное извлечение (доверие 10) [35737044]
Трек 3 точное извлечение (доверие 10) [B0B8566C]
Трек 4 точное извлечение (доверие 10) [6724A0AF]
Трек 5 точное извлечение (доверие 10) [AD7581AB]
Трек 6 точное извлечение (доверие 10) [79972C8B]
Трек 7 точное извлечение (доверие 10) [262875DC]
Трек 8 точное извлечение (доверие 10) [468E12CF]
Трек 9 точное извлечение (доверие 10) [E986FCB5]
Трек 10 точное извлечение (доверие 10) [4DA0F993]
Трек 11 точное извлечение (доверие 10) [642FEA5B]
Трек 12 точное извлечение (доверие 10) [04E1A7D1]
Трек 13 точное извлечение (доверие 10) [4E25B145]
Трек 14 точное извлечение (доверие 10) [69763370]
Трек 15 точное извлечение (доверие 10) [09B54985]

Все треки извлечены точно

Конец отчёта


Disc 4 - Peace And Love
1. Gridlock
2. White City
3. Young Ned Of The Hill
4. Misty Morning, Albert Bridge
5. Cotton Fields
6. Blue Heaven
7. Down All The Days
8. USA
9. Lorelei
10. Gartloney Rats
11. Boat Train
12. Tombstone
13. Night Train To Lorca
14. London You're A Lady

Exact Audio Copy V0.99 prebeta 5 from 4. May 2009

Отчёт EAC об извлечении, выполненном 19. июля 2010, 10:06

The Pogues / Peace and Love

Дисковод: _NEC DVD_RW ND-4570A Adapter: 0 ID: 0

Режим чтения : Достоверность
Использование точного потока : Да
Отключение кэша аудио : Да
Использование указателей C2 : Нет

Коррекция смещения при чтении : 48
Способность читать области Lead-in и Lead-out : Нет
Заполнение пропущенных сэмплов тишиной : Да
Удаление блоков с тишиной в начале и конце : Нет
При вычислениях CRC использовались нулевые сэмплы : Да
Интерфейс : Встроенный Win32-интерфейс для Win NT/2000

Выходной формат : Внутренние WAV-операции
Формат сэмплов : 44.100 Гц; 16 бит; стерео


TOC извлечённого CD

Трек | Старт | Длительность | Начальный сектор | Конечный сектор
––––––––––––––––––––––––––––––––––-
1 | 0:00.00 | 3:33.12 | 0 | 15986
2 | 3:33.12 | 2:31.63 | 15987 | 27374
3 | 6:05.00 | 2:45.05 | 27375 | 39754
4 | 8:50.05 | 3:01.10 | 39755 | 53339
5 | 11:51.15 | 2:51.32 | 53340 | 66196
6 | 14:42.47 | 3:36.08 | 66197 | 82404
7 | 18:18.55 | 3:45.17 | 82405 | 99296
8 | 22:03.72 | 4:52.65 | 99297 | 121261
9 | 26:56.62 | 3:33.68 | 121262 | 137304
10 | 30:30.55 | 2:32.22 | 137305 | 148726
11 | 33:03.02 | 2:40.35 | 148727 | 160761
12 | 35:43.37 | 2:57.73 | 160762 | 174109
13 | 38:41.35 | 3:29.22 | 174110 | 189806
14 | 42:10.57 | 2:56.15 | 189807 | 203021


Характеристики диапазона извлечения и сообщения об ошибках

Выбранный диапазон

Имя файла D:\Soft\___\The Pogues\1989 Peace and Love\1989 Peace and Love.wav

Пиковый уровень 100.0 %
Качество диапазона 99.9 %
CRC теста 94DE8D30
CRC копии 94DE8D30
Копирование… OK

Ошибок не произошло


AccurateRip: сводка

Трек 1 точное извлечение (доверие 5) [392C9D63]
Трек 2 точное извлечение (доверие 5) [D4CAC509]
Трек 3 точное извлечение (доверие 5) [64482AC9]
Трек 4 точное извлечение (доверие 5) [09A7DDE7]
Трек 5 точное извлечение (доверие 5) [9832D6F3]
Трек 6 точное извлечение (доверие 5) [812AEB67]
Трек 7 точное извлечение (доверие 5) [28D738BE]
Трек 8 точное извлечение (доверие 5) [A6F40E62]
Трек 9 точное извлечение (доверие 5) [E0544B6B]
Трек 10 точное извлечение (доверие 5) [E0A98187]
Трек 11 точное извлечение (доверие 5) [CDD4EC85]
Трек 12 точное извлечение (доверие 5) [CFFA974C]
Трек 13 точное извлечение (доверие 5) [E7D7FC45]
Трек 14 точное извлечение (доверие 5) [AC50B7EC]

Все треки извлечены точно

Конец отчёта


Disc 5 - Hell's Ditch
1. The Sunnyside Of The Street
2. Sayonara
3. The Ghost Of A Smile
4. Hell's Ditch
5. Lorca's Novena
6. Summer In Siam
7. Rain Street
8. Rainbow Man
9. The Wake Of The Medusa
10. House Of The Gods
11. 5 Green Queens And Jean
12. Maidrin Rua
13. Six To Go
14. The Glen Of Dispair

Exact Audio Copy V0.99 prebeta 5 from 4. May 2009

Отчёт EAC об извлечении, выполненном 19. июля 2010, 10:36

The Pogues / Hell's Ditch

Дисковод: _NEC DVD_RW ND-4570A Adapter: 0 ID: 0

Режим чтения : Достоверность
Использование точного потока : Да
Отключение кэша аудио : Да
Использование указателей C2 : Нет

Коррекция смещения при чтении : 48
Способность читать области Lead-in и Lead-out : Нет
Заполнение пропущенных сэмплов тишиной : Да
Удаление блоков с тишиной в начале и конце : Нет
При вычислениях CRC использовались нулевые сэмплы : Да
Интерфейс : Встроенный Win32-интерфейс для Win NT/2000

Выходной формат : Внутренние WAV-операции
Формат сэмплов : 44.100 Гц; 16 бит; стерео


TOC извлечённого CD

Трек | Старт | Длительность | Начальный сектор | Конечный сектор
––––––––––––––––––––––––––––––––––-
1 | 0:00.00 | 2:44.27 | 0 | 12326
2 | 2:44.27 | 3:07.08 | 12327 | 26359
3 | 5:51.35 | 2:58.50 | 26360 | 39759
4 | 8:50.10 | 3:03.12 | 39760 | 53496
5 | 11:53.22 | 4:40.60 | 53497 | 74556
6 | 16:34.07 | 4:06.13 | 74557 | 93019
7 | 20:40.20 | 4:00.70 | 93020 | 111089
8 | 24:41.15 | 2:46.02 | 111090 | 123541
9 | 27:27.17 | 3:04.45 | 123542 | 137386
10 | 30:31.62 | 3:46.55 | 137387 | 154391
11 | 34:18.42 | 2:35.55 | 154392 | 166071
12 | 36:54.22 | 1:47.13 | 166072 | 174109
13 | 38:41.35 | 2:58.27 | 174110 | 187486


Характеристики диапазона извлечения и сообщения об ошибках

Выбранный диапазон

Имя файла D:\Soft\___\The Pogues\1990 Hell’s Ditch\1990 Hell's Ditch.wav

Пиковый уровень 98.6 %
Качество диапазона 99.7 %
CRC теста 38FD2D21
CRC копии 38FD2D21
Копирование… OK

Ошибок не произошло


AccurateRip: сводка

Трек 1 точное извлечение (доверие 3) [25D725F6]
Трек 2 точное извлечение (доверие 3) [688CAA68]
Трек 3 точное извлечение (доверие 3) [7AA8689F]
Трек 4 точное извлечение (доверие 3) [45F244CF]
Трек 5 точное извлечение (доверие 3) [FE8CE968]
Трек 6 точное извлечение (доверие 3) [F79B523D]
Трек 7 точное извлечение (доверие 3) [5A995B8F]
Трек 8 точное извлечение (доверие 3) [1B099DB7]
Трек 9 точное извлечение (доверие 3) [F23B1A75]
Трек 10 точное извлечение (доверие 3) [4AA84AC6]
Трек 11 точное извлечение (доверие 3) [97F85A22]
Трек 12 точное извлечение (доверие 3) [18FCEB8F]
Трек 13 точное извлечение (доверие 3) [D439FFAC]

Все треки извлечены точно

Конец отчёта


All thanks to original releaser!