Subcategories
Tags
Language
Tags

The Allman Brothers Band - Mycology: An Anthology (Remastered Reissue) (1998/2020)

Posted By: delpotro
The Allman Brothers Band - Mycology: An Anthology (Remastered Reissue) (1998/2020)

The Allman Brothers Band - Mycology: An Anthology (Remastered Reissue) (1998/2020)
EAC Rip | FLAC (tracks+log+.cue) - 492 Mb | MP3 CBR 320 kbps - 193 Mb | Covers included | 01:04:46
Blues Rock, Southern Rock | Label: Music On CD

The ‘Mycology’ is a well-selected overview of The Allman Brothers Band’s surprisingly sturdy tenure with Epic Records, which included guitarist/vocalist Warren Haynes and bassist Allan Woody, came as close as possible to recreating this group’s original, glorious, creative beginnings. The country-flavored “Seven Turns” is among the finest Bett´s compositions, “End Of The line” is a slow and menacing stab of southern blues rock. “Back Where It All Begins” is their latter day southern anthem and the two bonus are simply breathtaking, Betts and Warren Haynes playing acoustic slide guitars in a reading of “Midnight Rider” and an obscure performance of “Every Hungry Woman” featuring their classic line-up.
Tracklist:
1. Good Clean Fun (05:05)
2. Seven Turns (05:03)
3. End Of The Line (04:38)
4. Get On With Your Life (06:59)
5. Nobody Knows (11:00)
6. No One To Run With (05:58)
7. Back Where It All Begins (09:10)
8. Sailin' Cross The Devil's Sea (04:58)
9. Midnight Rider (Live Acoustic Performance 1992) (03:08)
10. Every Hungry Woman (Atlanta Pop Festival 1970) (04:14)

Exact Audio Copy V1.6 from 23. October 2020

EAC extraction logfile from 22. June 2021, 8:31

The Allman Brothers Band / Mycology: An Anthology

Used drive : PIONEER BD-RW BDR-209M Adapter: 1 ID: 1

Read mode : Secure
Utilize accurate stream : Yes
Defeat audio cache : Yes
Make use of C2 pointers : No

Read offset correction : 667
Overread into Lead-In and Lead-Out : No
Fill up missing offset samples with silence : Yes
Delete leading and trailing silent blocks : No
Null samples used in CRC calculations : Yes
Used interface : Native Win32 interface for Win NT & 2000
Gap handling : Appended to previous track

Used output format : User Defined Encoder
Selected bitrate : 1024 kBit/s
Quality : High
Add ID3 tag : No
Command line compressor : C:\Program Files (x86)\Exact Audio Copy\Flac\flac.exe
Additional command line options : -8 -V -T "ARTIST=%artist%" -T "TITLE=%title%" -T "ALBUM=%albumtitle%" -T "DATE=%year%" -T "TRACKNUMBER=%tracknr%" -T "GENRE=%genre%" -T "PERFORMER=%albuminterpret%" -T "COMPOSER=%composer%" %haslyrics%–tag-from-file=LYRICS="%lyricsfile%"%haslyrics% -T "ALBUMARTIST=%albumartist%" -T "DISCNUMBER=%cdnumber%" -T "TOTALDISCS=%totalcds%" -T "TOTALTRACKS=%numtracks%" -T "COMMENT=%comment%" %source% -o %dest%


TOC of the extracted CD

Track | Start | Length | Start sector | End sector
––––––––––––––––––––––––––––-
1 | 0:00.00 | 5:05.45 | 0 | 22919
2 | 5:05.45 | 5:03.20 | 22920 | 45664
3 | 10:08.65 | 4:38.62 | 45665 | 66576
4 | 14:47.52 | 6:59.43 | 66577 | 98044
5 | 21:47.20 | 15:38.50 | 98045 | 168444
6 | 37:25.70 | 5:58.60 | 168445 | 195354
7 | 43:24.55 | 9:10.10 | 195355 | 236614
8 | 52:34.65 | 4:49.60 | 236615 | 258349
9 | 57:24.50 | 3:08.17 | 258350 | 272466
10 | 60:32.67 | 4:13.55 | 272467 | 291496


Track 1

Filename F:\EAC\01 - Good Clean Fun.wav

Pre-gap length 0:00:02.00

Peak level 97.7 %
Extraction speed 5.3 X
Track quality 100.0 %
Test CRC 09D34025
Copy CRC 09D34025
Track not present in AccurateRip database
Copy OK

Track 2

Filename F:\EAC\02 - Seven Turns.wav

Pre-gap length 0:00:00.64

Peak level 96.6 %
Extraction speed 5.9 X
Track quality 100.0 %
Test CRC 1763FFD1
Copy CRC 1763FFD1
Track not present in AccurateRip database
Copy OK

Track 3

Filename F:\EAC\03 - End of the Line.wav

Pre-gap length 0:00:00.30

Peak level 96.6 %
Extraction speed 6.5 X
Track quality 100.0 %
Test CRC 423E1C2E
Copy CRC 423E1C2E
Track not present in AccurateRip database
Copy OK

Track 4

Filename F:\EAC\04 - Get On with Your Life.wav

Pre-gap length 0:00:01.26

Peak level 96.6 %
Extraction speed 7.3 X
Track quality 100.0 %
Test CRC E8D63DB0
Copy CRC E8D63DB0
Track not present in AccurateRip database
Copy OK

Track 5

Filename F:\EAC\05 - Nobody Knows.wav

Pre-gap length 0:00:01.64

Peak level 97.7 %
Extraction speed 8.4 X
Track quality 100.0 %
Test CRC D60EC267
Copy CRC D60EC267
Track not present in AccurateRip database
Copy OK

Track 6

Filename F:\EAC\06 - No One to Run With.wav

Pre-gap length 0:00:01.26

Peak level 94.4 %
Extraction speed 8.8 X
Track quality 100.0 %
Test CRC 48BA36AF
Copy CRC 48BA36AF
Track not present in AccurateRip database
Copy OK

Track 7

Filename F:\EAC\07 - Back Where It All Begins.wav

Pre-gap length 0:00:00.44

Peak level 96.6 %
Extraction speed 9.1 X
Track quality 99.9 %
Test CRC 5D1DFA2C
Copy CRC 5D1DFA2C
Track not present in AccurateRip database
Copy OK

Track 8

Filename F:\EAC\08 - Sailin' 'Cross the Devil's Sea.wav

Pre-gap length 0:00:00.46

Peak level 97.7 %
Extraction speed 8.5 X
Track quality 99.9 %
Test CRC 768D31B2
Copy CRC 768D31B2
Track not present in AccurateRip database
Copy OK

Track 9

Filename F:\EAC\09 - Midnight Rider.wav

Pre-gap length 0:00:01.37

Peak level 87.0 %
Extraction speed 7.8 X
Track quality 99.9 %
Test CRC 6D3A082C
Copy CRC 6D3A082C
Track not present in AccurateRip database
Copy OK

Track 10

Filename F:\EAC\10 - Every Hungry Woman.wav

Pre-gap length 0:00:00.96

Peak level 96.6 %
Extraction speed 9.7 X
Track quality 100.0 %
Test CRC DC309D9B
Copy CRC DC309D9B
Track not present in AccurateRip database
Copy OK


None of the tracks are present in the AccurateRip database

No errors occurred

End of status report

–– CUETools DB Plugin V2.1.6

[CTDB TOCID: fpJ0CW_SrUxQG7GcoAcUKbenRtI-] disk not present in database
Submit result: fpJ0CW_SrUxQG7GcoAcUKbenRtI- has been uploaded


==== Log checksum 630B3DC4178E51930BE049267F00D04DAC394956DFD8B113C24847B8AEE0C734 ====

Thanks to the Original ripper !