Subcategories
Tags
Language
Tags

The Dixie Hummingbirds & The Angelic Gospel Singers - Move On Up A Little Higher (1970/2002) [Re-up]

Posted By: delpotro
The Dixie Hummingbirds & The Angelic Gospel Singers - Move On Up A Little Higher (1970/2002) [Re-up]

The Dixie Hummingbirds & The Angelic Gospel Singers - Move On Up A Little Higher (1970/2002)
EAC Rip | FLAC (tracks+log+.cue) - 188 Mb | MP3 CBR 320 kbps - 76 Mb | Digital Booklet | 00:32:22
R'n'B, Soul, Gospel | Label: Liquid 8, Roadshow

This is a good selection of the beautiful music the Dixie Hummingbirds made: tight-knit harmonies, fervent soloing, and songs ranging in mood from tender and peaceful to hand-clapping, shouting joy. This earnest and lovely music demonstrates why they're one of the groups that even unbelievers love, and joining them on at least some cuts are the Angelics. The passionate title track, "Move On Up a Little Higher," kicks things off, and is followed by another intense number – a version of "In the Morning" recorded live at what must've been quite a church service. There are plenty of breathers included, too, such as the a cappella numbers "Beaming from Heaven," the heartbreaking "Young Man" and "Get Away Jordan."
Tracklist:
1. Move On Up A Little Higher
2. In The Morning
3. Beaming From Heaven
4. Jesus Will Answer Prayer
5. Young Man
6. I'll Be Satisfied
7. Standing On The Highway
8. Get Away Jordan
9. Mercy Lord
10. Is There Anyone In Heaven That You Know
11. Cool Down Yonder
12. I Must Have Jesus

Exact Audio Copy V1.1 from 23. June 2015

EAC extraction logfile from 2. September 2017, 17:07

The Dixie Hummingbirds / With The Angelics: Move On Up

Used drive : PBDS CD-ROM DH-48N1S Adapter: 1 ID: 0

Read mode : Secure
Utilize accurate stream : Yes
Defeat audio cache : Yes
Make use of C2 pointers : No

Read offset correction : 6
Overread into Lead-In and Lead-Out : No
Fill up missing offset samples with silence : Yes
Delete leading and trailing silent blocks : No
Null samples used in CRC calculations : Yes
Used interface : Native Win32 interface for Win NT & 2000
Gap handling : Appended to previous track

Used output format : User Defined Encoder
Selected bitrate : 768 kBit/s
Quality : High
Add ID3 tag : No
Command line compressor : C:\Program Files (x86)\Exact Audio Copy\FLAC\FLAC.EXE
Additional command line options : -8 -V -T "ARTIST=%artist%" -T "TITLE=%title%" -T "ALBUM=%albumtitle%" -T "DATE=%year%" -T "TRACKNUMBER=%tracknr%" -T "GENRE=%genre%" -T "PERFORMER=%albuminterpret%" -T "COMPOSER=%composer%" %haslyrics%–tag-from-file=LYRICS="%lyricsfile%"%haslyrics% -T "ALBUMARTIST=%albumartist%" -T "DISCNUMBER=%cdnumber%" -T "TOTALDISCS=%totalcds%" -T "TOTALTRACKS=%numtracks%" -T "COMMENT=%comment%" %source% -o %dest%


TOC of the extracted CD

Track | Start | Length | Start sector | End sector
––––––––––––––––––––––––––––-
1 | 0:00.00 | 2:47.54 | 0 | 12578
2 | 2:47.54 | 3:22.16 | 12579 | 27744
3 | 6:09.70 | 3:00.56 | 27745 | 41300
4 | 9:10.51 | 2:45.17 | 41301 | 53692
5 | 11:55.68 | 2:09.73 | 53693 | 63440
6 | 14:05.66 | 2:11.13 | 63441 | 73278
7 | 16:17.04 | 2:59.49 | 73279 | 86752
8 | 19:16.53 | 2:39.21 | 86753 | 98698
9 | 21:55.74 | 2:44.51 | 98699 | 111049
10 | 24:40.50 | 3:18.50 | 111050 | 125949
11 | 27:59.25 | 2:15.26 | 125950 | 136100
12 | 30:14.51 | 2:07.64 | 136101 | 145689


Track 1

Filename C:\EACRips\01 - Move On Up A Little Higher.wav

Pre-gap length 0:00:02.00

Peak level 98.9 %
Extraction speed 1.5 X
Track quality 100.0 %
Test CRC 8AEC7531
Copy CRC 8AEC7531
Track not present in AccurateRip database
Copy OK

Track 2

Filename C:\EACRips\02 - In The Morning.wav

Pre-gap length 0:00:02.00

Peak level 91.6 %
Extraction speed 3.3 X
Track quality 100.0 %
Test CRC D7620B77
Copy CRC D7620B77
Track not present in AccurateRip database
Copy OK

Track 3

Filename C:\EACRips\03 - Beaming From Heaven.wav

Pre-gap length 0:00:02.00

Peak level 77.7 %
Extraction speed 2.8 X
Track quality 100.0 %
Test CRC CEE1E9EB
Copy CRC CEE1E9EB
Track not present in AccurateRip database
Copy OK

Track 4

Filename C:\EACRips\04 - Jesus Will Answer Prayer.wav

Pre-gap length 0:00:02.00

Peak level 89.7 %
Extraction speed 3.2 X
Track quality 100.0 %
Test CRC D8C452AF
Copy CRC D8C452AF
Track not present in AccurateRip database
Copy OK

Track 5

Filename C:\EACRips\05 - Young Man.wav

Pre-gap length 0:00:02.00

Peak level 89.9 %
Extraction speed 2.0 X
Track quality 100.0 %
Test CRC F41A54A4
Copy CRC F41A54A4
Track not present in AccurateRip database
Copy OK

Track 6

Filename C:\EACRips\06 - I'll Be Satisfied.wav

Pre-gap length 0:00:02.00

Peak level 89.9 %
Extraction speed 3.3 X
Track quality 100.0 %
Test CRC 7F534530
Copy CRC 7F534530
Track not present in AccurateRip database
Copy OK

Track 7

Filename C:\EACRips\07 - Standing On The Highway.wav

Pre-gap length 0:00:02.00

Peak level 91.8 %
Extraction speed 2.3 X
Track quality 100.0 %
Test CRC 3DFB9CB3
Copy CRC 3DFB9CB3
Track not present in AccurateRip database
Copy OK

Track 8

Filename C:\EACRips\08 - Get Away Jordan.wav

Pre-gap length 0:00:02.00

Peak level 89.0 %
Extraction speed 2.9 X
Track quality 100.0 %
Test CRC B474EF7A
Copy CRC B474EF7A
Track not present in AccurateRip database
Copy OK

Track 9

Filename C:\EACRips\09 - Mercy Lord.wav

Pre-gap length 0:00:02.00

Peak level 85.9 %
Extraction speed 2.8 X
Track quality 99.9 %
Test CRC 8ACF73A2
Copy CRC 8ACF73A2
Track not present in AccurateRip database
Copy OK

Track 10

Filename C:\EACRips\10 - Is There Anyone In Heaven That You Know.wav

Pre-gap length 0:00:02.00

Peak level 86.1 %
Extraction speed 3.2 X
Track quality 100.0 %
Test CRC 2DB82B82
Copy CRC 2DB82B82
Track not present in AccurateRip database
Copy OK

Track 11

Filename C:\EACRips\11 - Cool Down Yonder.wav

Pre-gap length 0:00:02.00

Peak level 84.7 %
Extraction speed 2.5 X
Track quality 100.0 %
Test CRC 8DF2B019
Copy CRC 8DF2B019
Track not present in AccurateRip database
Copy OK

Track 12

Filename C:\EACRips\12 - I Must Have Jesus.wav

Pre-gap length 0:00:02.00

Peak level 87.6 %
Extraction speed 2.1 X
Track quality 100.0 %
Test CRC 0F463B8A
Copy CRC 0F463B8A
Track not present in AccurateRip database
Copy OK


None of the tracks are present in the AccurateRip database

No errors occurred

End of status report

–– CUETools DB Plugin V2.1.6

[CTDB TOCID: cq9GJjGjolHwHABOfud4jIAvEKU-] disk not present in database
Submit result: cq9GJjGjolHwHABOfud4jIAvEKU- has been uploaded


==== Log checksum D135E87B64CAF8BACD37410DC74ADFB3FDF29433AA3EABD0B08364C783CF5483 ====

Thanks to the Original ripper leontrotsky !