Subcategories

The Carpenters - 20th Century Masters: The Millennium Collection: The Best of Carpenters (2002)

Posted By: delpotro
The Carpenters - 20th Century Masters: The Millennium Collection: The Best of Carpenters (2002)

The Carpenters - 20th Century Masters: The Millennium Collection: The Best of Carpenters (2002)
EAC Rip | FLAC (tracks+log+.cue) - 260 Mb | MP3 CBR 320 kbps - 98 Mb | 00:42:39
Pop, Pop Rock, Female Vocal | Label: A&M Records

Karen's sweet voice plus Richard's clean arrangements added up to superstar success. Here are their biggest hits and most cherished songs: Top of the World; Please Mr. Postman; Yesterday Once More; Goodbye to Love; Only Yesterday; Bless the Beasts and Children; I Believe You; This Masquerade , and four more chosen by Richard himself.
Tracklist:
1. Yesterday Once More (03:58)
2. I Need to Be in Love (03:48)
3. Please Mr. Postman (02:48)
4. Bless the Beasts and Children (03:14)
5. This Masquerade (04:53)
6. I Just Fall in Love Again (04:03)
7. I Believe You (03:54)
8. Top of the World (03:01)
9. Love Is Surrender (01:58)
10. Maybe It's You (03:03)
11. Only Yesterday (03:58)
12. Goodbye to Love (03:57)

Exact Audio Copy V1.0 beta 3 from 29. August 2011

EAC extraction logfile from 17. April 2017, 21:51

Carpenters / 20th Century Masters - The Millennium Collection - The Best Of

Used drive : SAMSUNG CDRW/DVD SM-348B Adapter: 0 ID: 0

Read mode : Secure
Utilize accurate stream : Yes
Defeat audio cache : Yes
Make use of C2 pointers : No

Read offset correction : 6
Overread into Lead-In and Lead-Out : No
Fill up missing offset samples with silence : Yes
Delete leading and trailing silent blocks : No
Null samples used in CRC calculations : Yes
Used interface : Native Win32 interface for Win NT & 2000
Gap handling : Appended to previous track

Used output format : User Defined Encoder
Selected bitrate : 1024 kBit/s
Quality : High
Add ID3 tag : No
Command line compressor : C:\Program Files (x86)\Exact Audio Copy\Flac\flac.exe
Additional command line options : -8 -V -T "ARTIST=%artist%" -T "TITLE=%title%" -T "ALBUM=%albumtitle%" -T "DATE=%year%" -T "TRACKNUMBER=%tracknr%" -T "GENRE=%genre%" -T "PERFORMER=%albuminterpret%" -T "COMPOSER=%composer%" %haslyrics%–tag-from-file=LYRICS="%lyricsfile%"%haslyrics% -T "ALBUMARTIST=%albumartist%" -T "DISCNUMBER=%cdnumber%" -T "TOTALDISCS=%totalcds%" -T "TOTALTRACKS=%numtracks%" -T "COMMENT=%comment%" %source% -o %dest%


TOC of the extracted CD

Track | Start | Length | Start sector | End sector
––––––––––––––––––––––––––––-
1 | 0:00.00 | 3:58.35 | 0 | 17884
2 | 3:58.35 | 3:48.30 | 17885 | 35014
3 | 7:46.65 | 2:48.50 | 35015 | 47664
4 | 10:35.40 | 3:14.00 | 47665 | 62214
5 | 13:49.40 | 4:53.32 | 62215 | 84221
6 | 18:42.72 | 4:03.23 | 84222 | 102469
7 | 22:46.20 | 3:54.50 | 102470 | 120069
8 | 26:40.70 | 3:01.08 | 120070 | 133652
9 | 29:42.03 | 1:58.17 | 133653 | 142519
10 | 31:40.20 | 3:03.30 | 142520 | 156274
11 | 34:43.50 | 3:58.73 | 156275 | 174197
12 | 38:42.48 | 3:57.07 | 174198 | 191979


Track 1

Filename E:\#New Songs\#RIPPED\01 - Yesterday Once More.wav

Pre-gap length 0:00:02.00

Peak level 99.8 %
Extraction speed 5.6 X
Track quality 100.0 %
Test CRC 19555FBC
Copy CRC 19555FBC
Accurately ripped (confidence 18) [DF7741D4] (AR v2)
Copy OK

Track 2

Filename E:\#New Songs\#RIPPED\02 - I Need To Be In Love.wav

Peak level 99.8 %
Extraction speed 4.5 X
Track quality 99.9 %
Test CRC 62FD4E1F
Copy CRC 62FD4E1F
Accurately ripped (confidence 19) [0E4B2360] (AR v2)
Copy OK

Track 3

Filename E:\#New Songs\#RIPPED\03 - Please Mr. Postman.wav

Peak level 99.8 %
Extraction speed 4.2 X
Track quality 99.9 %
Test CRC C59E4EAC
Copy CRC C59E4EAC
Accurately ripped (confidence 19) [BCE2D2A5] (AR v2)
Copy OK

Track 4

Filename E:\#New Songs\#RIPPED\04 - Bless The Beasts And The Children.wav

Peak level 99.8 %
Extraction speed 6.5 X
Track quality 100.0 %
Test CRC 217484CC
Copy CRC 217484CC
Accurately ripped (confidence 19) [FE3374E0] (AR v2)
Copy OK

Track 5

Filename E:\#New Songs\#RIPPED\05 - This Masquerade.wav

Peak level 99.8 %
Extraction speed 7.3 X
Track quality 100.0 %
Test CRC 036E9E29
Copy CRC 036E9E29
Accurately ripped (confidence 19) [1165B63C] (AR v2)
Copy OK

Track 6

Filename E:\#New Songs\#RIPPED\06 - I Just Fall In Love Again.wav

Peak level 99.8 %
Extraction speed 7.5 X
Track quality 100.0 %
Test CRC 75AF3DC1
Copy CRC 75AF3DC1
Accurately ripped (confidence 19) [0F02391A] (AR v2)
Copy OK

Track 7

Filename E:\#New Songs\#RIPPED\07 - I Believe You.wav

Peak level 99.8 %
Extraction speed 7.9 X
Track quality 100.0 %
Test CRC 771A8FD0
Copy CRC 771A8FD0
Accurately ripped (confidence 19) [E5F9585F] (AR v2)
Copy OK

Track 8

Filename E:\#New Songs\#RIPPED\08 - Top Of The World.wav

Peak level 99.8 %
Extraction speed 7.8 X
Track quality 100.0 %
Test CRC 32421914
Copy CRC 32421914
Accurately ripped (confidence 19) [9EB023C4] (AR v2)
Copy OK

Track 9

Filename E:\#New Songs\#RIPPED\09 - Love Is Surrender.wav

Peak level 99.8 %
Extraction speed 7.2 X
Track quality 100.0 %
Test CRC 45CB31AC
Copy CRC 45CB31AC
Accurately ripped (confidence 19) [9488D17D] (AR v2)
Copy OK

Track 10

Filename E:\#New Songs\#RIPPED\10 - Maybe It's You.wav

Peak level 99.8 %
Extraction speed 8.2 X
Track quality 100.0 %
Test CRC 69AD39C4
Copy CRC 69AD39C4
Accurately ripped (confidence 20) [5EC861CC] (AR v2)
Copy OK

Track 11

Filename E:\#New Songs\#RIPPED\11 - Only Yesterday.wav

Peak level 99.8 %
Extraction speed 8.7 X
Track quality 100.0 %
Test CRC 85FA79A4
Copy CRC 85FA79A4
Accurately ripped (confidence 20) [A0446D74] (AR v2)
Copy OK

Track 12

Filename E:\#New Songs\#RIPPED\12 - Goodbye To Love.wav

Peak level 99.8 %
Extraction speed 8.9 X
Track quality 100.0 %
Test CRC 08BFF070
Copy CRC 08BFF070
Accurately ripped (confidence 20) [B6575380] (AR v2)
Copy OK


All tracks accurately ripped

No errors occurred

End of status report

==== Log checksum 836D726C91F740F1E3363724E11B66D1EC8A09CBB0634DB46768314BD46C5984 ====

Thanks to the Original ripper !