Subcategories
Tags
Language
Tags

The Comet Is Coming - The Afterlife (2019)

Posted By: delpotro
The Comet Is Coming - The Afterlife (2019)

The Comet Is Coming - The Afterlife (2019)
EAC Rip | FLAC (tracks+log+.cue) - 263 Mb | MP3 CBR 320 kbps - 141 Mb | Scans included | 00:32:21
Nu Jazz, Fusion | Label: Impulse! Records

The Comet Is Coming released sophomore album, Lifeforce, in March. Now, the English band will release The Afterlife. “The Afterlife has been a topic of deep consideration and one of the keys to spiritual mythology around the world for millennia,” says Danalogue. “The two records can be seen as companions that cannot exist without each other, like day & night, light & dark, creation & destruction. They were made together, at the same time, and have always been intended to be experienced together.
Tracklist:
1. All That Matters Is the Moments (feat. Joshua Idehen) (07:44)
2. The Softness of the Present (03:03)
3. The Afterlife (06:34)
4. Lifeforce Part I (03:52)
5. Lifeforce Part II (04:35)
6. The Seven Planetary Heavens (06:31)

Exact Audio Copy V1.0 beta 4 from 7. December 2014

EAC extraction logfile from 1. March 2021, 23:01

The Comet Is Coming / The Afterline

Used drive : ATAPI iHAS124 F Adapter: 1 ID: 0

Read mode : Secure
Utilize accurate stream : Yes
Defeat audio cache : Yes
Make use of C2 pointers : No

Read offset correction : 6
Overread into Lead-In and Lead-Out : No
Fill up missing offset samples with silence : Yes
Delete leading and trailing silent blocks : No
Null samples used in CRC calculations : Yes
Used interface : Native Win32 interface for Win NT & 2000
Gap handling : Appended to previous track

Used output format : User Defined Encoder
Selected bitrate : 896 kBit/s
Quality : High
Add ID3 tag : No
Command line compressor : C:\Program Files\flac-1.3.2-win\win64\flac.exe
Additional command line options : -8 -V -T "ARTIST=%artist%" -T "TITLE=%title%" -T "ALBUM=%albumtitle%" -T "DATE=%year%" -T "TRACKNUMBER=%tracknr%" -T "GENRE=%genre%" -T "COMMENT=ripped by vp_sunset" %source% -o %dest%


TOC of the extracted CD

Track | Start | Length | Start sector | End sector
––––––––––––––––––––––––––––-
1 | 0:00.00 | 7:44.00 | 0 | 34799
2 | 7:44.00 | 3:03.56 | 34800 | 48580
3 | 10:47.56 | 6:34.01 | 48581 | 78131
4 | 17:21.57 | 3:52.47 | 78132 | 95578
5 | 21:14.29 | 4:35.30 | 95579 | 116233
6 | 25:49.59 | 6:31.23 | 116234 | 145581


Track 1

Filename C:\_EAC\01. All That Matters Is The Moments.wav

Pre-gap length 0:00:02.00

Peak level 97.7 %
Extraction speed 5.8 X
Track quality 100.0 %
Test CRC 6C116651
Copy CRC 6C116651
Accurately ripped (confidence 10) [0758BC55] (AR v2)
Copy OK

Track 2

Filename C:\_EAC\02. The Softness Of The Present.wav

Peak level 96.6 %
Extraction speed 5.9 X
Track quality 100.0 %
Test CRC 63BA183D
Copy CRC 63BA183D
Accurately ripped (confidence 10) [C90A8CB1] (AR v2)
Copy OK

Track 3

Filename C:\_EAC\03. The Afterlife.wav

Peak level 97.1 %
Extraction speed 7.1 X
Track quality 100.0 %
Test CRC 94C75DCF
Copy CRC 94C75DCF
Accurately ripped (confidence 10) [71EC8D7F] (AR v2)
Copy OK

Track 4

Filename C:\_EAC\04. Lifeforce Part I.wav

Peak level 96.7 %
Extraction speed 7.3 X
Track quality 100.0 %
Test CRC C826C189
Copy CRC C826C189
Accurately ripped (confidence 10) [792C363A] (AR v2)
Copy OK

Track 5

Filename C:\_EAC\05. Lifeforce Part II.wav

Peak level 97.5 %
Extraction speed 7.8 X
Track quality 100.0 %
Test CRC D43630D7
Copy CRC D43630D7
Accurately ripped (confidence 11) [741823ED] (AR v2)
Copy OK

Track 6

Filename C:\_EAC\06. The Seven Planetary Heavens.wav

Peak level 97.0 %
Extraction speed 8.6 X
Track quality 100.0 %
Test CRC 0A4C113A
Copy CRC 0A4C113A
Accurately ripped (confidence 10) [E0EF40F4] (AR v2)
Copy OK


All tracks accurately ripped

No errors occurred

End of status report

–– CUETools DB Plugin V2.1.4

[CTDB TOCID: jhRPZrYivwwyAs9seNPhOni_OHw-] found
Submit result: already submitted
Track | CTDB Status
1 | (40/40) Accurately ripped
2 | (40/40) Accurately ripped
3 | (40/40) Accurately ripped
4 | (40/40) Accurately ripped
5 | (40/40) Accurately ripped
6 | (40/40) Accurately ripped


==== Log checksum 73674BB3290DE118645E4B25B696EF6B5EA3F103F8F4D3F5F963116E7EF97F3B ====

Thanks to the Original ripper vp_sunset !