Tags
Language
Tags
January 2023
Su Mo Tu We Th Fr Sa
1 2 3 4 5 6 7
8 9 10 11 12 13 14
15 16 17 18 19 20 21
22 23 24 25 26 27 28
29 30 31 1 2 3 4

The Cult - Under the Midnight Sun (2022)

Posted By: delpotro
The Cult - Under the Midnight Sun (2022)

The Cult - Under the Midnight Sun (2022)
EAC Rip | FLAC (tracks+log+.cue) | 00:35:05 | 236 Mb
Hard Rock, Alternative Rock, Post-Punk | Label: Black Hill Records

The Cult has reveled in a storied career. From the pre-millennial iconic Love album bursting with idealism and the full on blast of 2001’s Beyond Good and Evil to the recent biting truth of Hidden City, the band has lived their art. How the future unfolds will be decided in part by current cultures response and the group’s response. One thing is for sure, The Cult will respond. It’s what they do. The Cult’s next endeavor is Under The Midnight Sun.
Tracklist:
1. Mirror (03:48)
2. A Cut Inside (03:59)
3. Vendetta X (03:23)
4. Give Me Mercy (03:37)
5. Outer Heaven (04:54)
6. Knife Through Butterfly Heart (06:04)
7. Impermanence (04:13)
8. Under The Midnight Sun (05:04)

Exact Audio Copy V1.6 from 23. October 2020

EAC extraction logfile from 29. October 2022, 9:49

The Cult / Under the Midnight Sun

Used drive : TSSTcorpDVD+-RW TS-H653A Adapter: 1 ID: 1

Read mode : Secure
Utilize accurate stream : Yes
Defeat audio cache : Yes
Make use of C2 pointers : No

Read offset correction : 6
Overread into Lead-In and Lead-Out : No
Fill up missing offset samples with silence : Yes
Delete leading and trailing silent blocks : No
Null samples used in CRC calculations : Yes
Used interface : Native Win32 interface for Win NT & 2000
Gap handling : Appended to previous track

Used output format : User Defined Encoder
Selected bitrate : 1024 kBit/s
Quality : High
Add ID3 tag : No
Command line compressor : C:\Tools\flac-1.3.2-win\win64\flac.exe
Additional command line options : -8 -V -T "ARTIST=%artist%" -T "TITLE=%title%" -T "ALBUM=%albumtitle%" -T "DATE=%year%" -T "TRACKNUMBER=%tracknr%" -T "GENRE=%genre%" -T "PERFORMER=%albuminterpret%" -T "COMPOSER=%composer%" %haslyrics%–tag-from-file=LYRICS="%lyricsfile%"%haslyrics% -T "ALBUMARTIST=%albumartist%" -T "DISCNUMBER=%cdnumber%" -T "TOTALDISCS=%totalcds%" -T "TOTALTRACKS=%numtracks%" -T "COMMENT=%comment%" %source% -o %dest%


TOC of the extracted CD

Track | Start | Length | Start sector | End sector
––––––––––––––––––––––––––––-
1 | 0:00.00 | 3:48.05 | 0 | 17104
2 | 3:48.05 | 3:59.36 | 17105 | 35065
3 | 7:47.41 | 3:24.00 | 35066 | 50365
4 | 11:11.41 | 3:37.39 | 50366 | 66679
5 | 14:49.05 | 4:54.56 | 66680 | 88785
6 | 19:43.61 | 6:04.40 | 88786 | 116125
7 | 25:48.26 | 4:13.08 | 116126 | 135108
8 | 30:01.34 | 5:04.14 | 135109 | 157922


Track 1

Filename S:\EAC\The Cult - Under the Midnight Sun (2022) [CD FLAC] {BHR011CD}\01 - Mirror.wav

Pre-gap length 0:00:02.00

Peak level 100.0 %
Extraction speed 2.2 X
Track quality 99.9 %
Test CRC DE677FAB
Copy CRC DE677FAB
Track not present in AccurateRip database
Copy OK

Track 2

Filename S:\EAC\The Cult - Under the Midnight Sun (2022) [CD FLAC] {BHR011CD}\02 - A Cut Inside.wav

Peak level 100.0 %
Extraction speed 2.8 X
Track quality 100.0 %
Test CRC 2CF28F49
Copy CRC 2CF28F49
Track not present in AccurateRip database
Copy OK

Track 3

Filename S:\EAC\The Cult - Under the Midnight Sun (2022) [CD FLAC] {BHR011CD}\03 - Vendetta X.wav

Peak level 100.0 %
Extraction speed 3.0 X
Track quality 100.0 %
Test CRC 7D5F35C9
Copy CRC 7D5F35C9
Track not present in AccurateRip database
Copy OK

Track 4

Filename S:\EAC\The Cult - Under the Midnight Sun (2022) [CD FLAC] {BHR011CD}\04 - Give Me Mercy.wav

Peak level 100.0 %
Extraction speed 3.3 X
Track quality 100.0 %
Test CRC ADA557B8
Copy CRC ADA557B8
Track not present in AccurateRip database
Copy OK

Track 5

Filename S:\EAC\The Cult - Under the Midnight Sun (2022) [CD FLAC] {BHR011CD}\05 - Outer Heaven.wav

Peak level 100.0 %
Extraction speed 3.6 X
Track quality 100.0 %
Test CRC 2D9F45DD
Copy CRC 2D9F45DD
Track not present in AccurateRip database
Copy OK

Track 6

Filename S:\EAC\The Cult - Under the Midnight Sun (2022) [CD FLAC] {BHR011CD}\06 - Knife Through Butterfly Heart.wav

Peak level 100.0 %
Extraction speed 3.7 X
Track quality 99.9 %
Test CRC 902C980C
Copy CRC 902C980C
Track not present in AccurateRip database
Copy OK

Track 7

Filename S:\EAC\The Cult - Under the Midnight Sun (2022) [CD FLAC] {BHR011CD}\07 - Impermanence.wav

Peak level 100.0 %
Extraction speed 4.1 X
Track quality 100.0 %
Test CRC 69225DC6
Copy CRC 69225DC6
Track not present in AccurateRip database
Copy OK

Track 8

Filename S:\EAC\The Cult - Under the Midnight Sun (2022) [CD FLAC] {BHR011CD}\08 - Under the Midnight Sun.wav

Peak level 100.0 %
Extraction speed 4.5 X
Track quality 100.0 %
Test CRC E1E6837A
Copy CRC E1E6837A
Track not present in AccurateRip database
Copy OK


None of the tracks are present in the AccurateRip database

No errors occurred

End of status report

–– CUETools DB Plugin V2.1.6

[CTDB TOCID: Ng.idA7HUMTTQIGBTUHssOog0ZA-] found
Submit result: Ng.idA7HUMTTQIGBTUHssOog0ZA- has been confirmed
Track | CTDB Status
1 | (48/48) Accurately ripped
2 | (48/48) Accurately ripped
3 | (48/48) Accurately ripped
4 | (48/48) Accurately ripped
5 | (48/48) Accurately ripped
6 | (48/48) Accurately ripped
7 | (48/48) Accurately ripped
8 | (48/48) Accurately ripped


==== Log checksum 428340C299CD04C096D20501A6BCCF844A524C91A1CABAFAFB6B251D1705C792 ====

Thanks to the Original ripper !