Subcategories

The Meteors - Attack of the Chainsaw Mutants (2017) {CD+DVD - Not Now Music NOT2CD655 rec 1983, 1987}

Posted By: ruskaval
The Meteors - Attack of the Chainsaw Mutants (2017) {CD+DVD - Not Now Music NOT2CD655 rec 1983, 1987}

The Meteors - Attack of the Chainsaw Mutants (2017) {CD+DVD - Not Now Music NOT2CD655 rec 1983, 1987}
EAC rip (secure mode) | FLAC (tracks)+CUE+LOG -> 239 Mb | MP3 @320 -> 90 Mb
DVD5 -> 1.50 Gb | All Regions | PAL 4:3 | Dolby AC3, 2 ch | ~ 80m | ISO Image
Full Artwork @ 300 dpi (png) -> 63 Mb | 5% repair rar
© 1983-88, 2017 Not Now Music | NOT2CD655
Psychobilly / Rockabilly / Punk Rock / Horror Punk

Psychobilly legends and one of the hardest working, ball breaking, out-an-out rockin' bands in the world. Led by the enigmatic Paul Fenech, the band have been recording and touring for many years and never fail to impress their ever loyal fans. This CD + DVD set covers much of the band's career and is a collection of live recordings and footage from the legendary Psychobilly haunts The Hellfire Club and The Klub Foot, plus promos for "Please Don't Touch" and "Chainsaw Boogie".
Double disc CD and DVD set from psychobilly genre originators The Meteors.
Bona-fide psychobilly legends and one of the hardest working, out-an-out rockin' bands in the world, The Meteors, led by the enigmatic Paul Fenech, have been recording and touring for many years and never fail to impress their ever loyal army of fans.
Disc one is an audio CD, and disc two is a DVD capturing performances of The Meteors live on stage in 1983 at The Hellfire Club (Wakefield), 1987 at The Klub Foot (London) and 1988 at The Hummingbird (Birmingham) plus promo videos for the singles Go Buddy Go, Rawhide, Please Don't Touch, Chainsaw Boogie and Who Do You Love?
The Meteors - Attack of the Chainsaw Mutants (2017) {CD+DVD - Not Now Music NOT2CD655 rec 1983, 1987}


notnowmusic.com INFO

Track Listing

Disc 1 (CD):

01 - When a Stranger Calls [02:01]
02 - Get Off My Cloud [02:04]
03 - Sweet Love on My Mind [02:19]
04 - Mutant Rock [02:23]
05 - Rattlesnakin' Daddy [01:45]
06 - Don't Touch the Bang Bang Fruit [01:46]
07 - Maniac [02:29]
08 - Wildcat Ways [02:20]
09 - I Don't Worry About It [03:25]
10 - Go Buddy Go [03:14]
11 - Rawhide [02:27]
12 - Please Don't Touch [02:32]
13 - Chainsaw Boogie [05:23]
14 - Who Do You Love [03:49]

01-02 - Live at Hallfire Club 21/12/83
03-04 - Live at Klub Foot 11/07/87
05-09 - Live at Hummingbird Club 09/07/88

The Meteors - Attack of the Chainsaw Mutants (2017) {CD+DVD - Not Now Music NOT2CD655 rec 1983, 1987}


Disc 1 (DVD):
01 - When a Stranger Calls
02 - Get Off My Cloud
03 - Sweet Love on My Mind
04 - Mutant Rock
05 - Rattlesnakin' Daddy
06 - Don't Touch the Bang Bang Fruit
07 - Maniac
08 - Wildcat Ways
09 - I Don't Worry About It
10 - Go Buddy Go
11 - Rawhide
12 - Please Don't Touch
13 - Chainsaw Boogie
14 - Who Do You Love

01-02 - Live at Hallfire Club 21/12/83
03-04 - Live at Klub Foot 11/07/87
05-09 - Live at Hummingbird Club 09/07/88
10-14 - Promo Videos

The Meteors - Attack of the Chainsaw Mutants (2017) {CD+DVD - Not Now Music NOT2CD655 rec 1983, 1987}


Exact Audio Copy V1.3 from 2. September 2016

EAC extraction logfile from 11. November 2017, 20:26

The Meteors / Attack of the Chainsaw Mutants

Used drive : ASUS BW-12D1S-U Adapter: 1 ID: 0

Read mode : Secure
Utilize accurate stream : Yes
Defeat audio cache : Yes
Make use of C2 pointers : No

Read offset correction : 667
Overread into Lead-In and Lead-Out : No
Fill up missing offset samples with silence : Yes
Delete leading and trailing silent blocks : No
Null samples used in CRC calculations : Yes
Used interface : Native Win32 interface for Win NT & 2000
Gap handling : Appended to previous track

Used output format : User Defined Encoder
Selected bitrate : 1024 kBit/s
Quality : High
Add ID3 tag : No
Command line compressor : C:\Program Files (x86)\Music Codec\Flac 1.3.2\win64\flac.exe
Additional command line options : -8 -V -T "ARTIST=%artist%" -T "TITLE=%title%" -T "ALBUM=%albumtitle%" -T "DATE=%year%" -T "TRACKNUMBER=%tracknr%" -T "TOTALTRACKS=%numtracks%" -T "GENRE=%genre%" -T "ALBUMARTIST=%albumartist%" -T "ALBUM ARTIST=%albumartist%" -T "COMMENT=EAC Secure Mode, Test & Copy, AccurateRip, FLAC -8" %source%


TOC of the extracted CD

Track | Start | Length | Start sector | End sector
––––––––––––––––––––––––––––-
1 | 0:00.00 | 2:01.68 | 0 | 9142
2 | 2:01.68 | 2:04.71 | 9143 | 18513
3 | 4:06.64 | 2:19.69 | 18514 | 29007
4 | 6:26.58 | 2:23.24 | 29008 | 39756
5 | 8:50.07 | 1:45.45 | 39757 | 47676
6 | 10:35.52 | 1:46.47 | 47677 | 55673
7 | 12:22.24 | 2:29.10 | 55674 | 66858
8 | 14:51.34 | 2:20.58 | 66859 | 77416
9 | 17:12.17 | 3:25.72 | 77417 | 92863
10 | 20:38.14 | 3:14.68 | 92864 | 107481
11 | 23:53.07 | 2:27.25 | 107482 | 118531
12 | 26:20.32 | 2:32.04 | 118532 | 129935
13 | 28:52.36 | 5:23.01 | 129936 | 154161
14 | 34:15.37 | 3:49.17 | 154162 | 171353


Track 1

Filename D:\3. my rip in preparation\Other\APDS\01 - When a Stranger Calls.wav

Pre-gap length 0:00:02.00

Peak level 98.3 %
Extraction speed 4.1 X
Track quality 100.0 %
Test CRC 185BDC60
Copy CRC 185BDC60
Accurately ripped (confidence 2) [86528CD6] (AR v2)
Copy OK

Track 2

Filename D:\3. my rip in preparation\Other\APDS\02 - Get Off My Cloud.wav

Pre-gap length 0:00:01.77

Peak level 98.3 %
Extraction speed 4.4 X
Track quality 100.0 %
Test CRC 609AE959
Copy CRC 609AE959
Accurately ripped (confidence 2) [8466A781] (AR v2)
Copy OK

Track 3

Filename D:\3. my rip in preparation\Other\APDS\03 - Sweet Love on My Mind.wav

Pre-gap length 0:00:01.77

Peak level 98.3 %
Extraction speed 4.7 X
Track quality 100.0 %
Test CRC 8311213B
Copy CRC 8311213B
Accurately ripped (confidence 2) [1248C2C5] (AR v2)
Copy OK

Track 4

Filename D:\3. my rip in preparation\Other\APDS\04 - Mutant Rock.wav

Pre-gap length 0:00:01.77

Peak level 98.2 %
Extraction speed 5.0 X
Track quality 100.0 %
Test CRC 750C32C5
Copy CRC 750C32C5
Accurately ripped (confidence 2) [21AC513D] (AR v2)
Copy OK

Track 5

Filename D:\3. my rip in preparation\Other\APDS\05 - Rattlesnakin' Daddy.wav

Pre-gap length 0:00:01.77

Peak level 98.3 %
Extraction speed 3.9 X
Track quality 99.8 %
Test CRC 769C4037
Copy CRC 769C4037
Accurately ripped (confidence 2) [C6D45D32] (AR v2)
Copy OK

Track 6

Filename D:\3. my rip in preparation\Other\APDS\06 - Don't Touch the Bang Bang Fruit.wav

Pre-gap length 0:00:01.77

Peak level 98.3 %
Extraction speed 4.9 X
Track quality 100.0 %
Test CRC 3DCEE0A5
Copy CRC 3DCEE0A5
Accurately ripped (confidence 2) [DF69341E] (AR v2)
Copy OK

Track 7

Filename D:\3. my rip in preparation\Other\APDS\07 - Maniac.wav

Pre-gap length 0:00:01.77

Peak level 98.2 %
Extraction speed 5.5 X
Track quality 100.0 %
Test CRC 1F612A61
Copy CRC 1F612A61
Accurately ripped (confidence 2) [68CC3EF1] (AR v2)
Copy OK

Track 8

Filename D:\3. my rip in preparation\Other\APDS\08 - Wildcat Ways.wav

Pre-gap length 0:00:01.77

Peak level 93.4 %
Extraction speed 4.7 X
Track quality 99.9 %
Test CRC 9DF50E0C
Copy CRC 9DF50E0C
Accurately ripped (confidence 2) [28D1147A] (AR v2)
Copy OK

Track 9

Filename D:\3. my rip in preparation\Other\APDS\09 - I Don't Worry About It.wav

Pre-gap length 0:00:01.77

Peak level 98.2 %
Extraction speed 6.3 X
Track quality 100.0 %
Test CRC 62801F6A
Copy CRC 62801F6A
Accurately ripped (confidence 2) [2EE0A298] (AR v2)
Copy OK

Track 10

Filename D:\3. my rip in preparation\Other\APDS\10 - Go Buddy Go.wav

Pre-gap length 0:00:01.77

Peak level 98.3 %
Extraction speed 6.4 X
Track quality 100.0 %
Test CRC 4A6F0BA1
Copy CRC 4A6F0BA1
Accurately ripped (confidence 2) [039BEB71] (AR v2)
Copy OK

Track 11

Filename D:\3. my rip in preparation\Other\APDS\11 - Rawhide.wav

Pre-gap length 0:00:01.77

Peak level 98.3 %
Extraction speed 6.3 X
Track quality 100.0 %
Test CRC 4E894422
Copy CRC 4E894422
Accurately ripped (confidence 2) [71358ED0] (AR v2)
Copy OK

Track 12

Filename D:\3. my rip in preparation\Other\APDS\12 - Please Don't Touch.wav

Pre-gap length 0:00:01.77

Peak level 98.5 %
Extraction speed 5.6 X
Track quality 99.9 %
Test CRC 62E6349A
Copy CRC 62E6349A
Accurately ripped (confidence 2) [1C2E7467] (AR v2)
Copy OK

Track 13

Filename D:\3. my rip in preparation\Other\APDS\13 - Chainsaw Boogie.wav

Pre-gap length 0:00:01.77

Peak level 98.3 %
Extraction speed 7.0 X
Track quality 99.9 %
Test CRC 414A2EDC
Copy CRC 414A2EDC
Accurately ripped (confidence 2) [0DF9F61B] (AR v2)
Copy OK

Track 14

Filename D:\3. my rip in preparation\Other\APDS\14 - Who Do You Love.wav

Pre-gap length 0:00:01.77

Peak level 98.3 %
Extraction speed 7.6 X
Track quality 100.0 %
Test CRC B4FFC86C
Copy CRC B4FFC86C
Accurately ripped (confidence 2) [63C8D21B] (AR v2)
Copy OK


All tracks accurately ripped

No errors occurred

End of status report

–– CUETools DB Plugin V2.1.6

[CTDB TOCID: j0GpX9mfrdaIDGc4DybRzTvRb1w-] found
Submit result: j0GpX9mfrdaIDGc4DybRzTvRb1w- has been confirmed
Track | CTDB Status
1 | (5/5) Accurately ripped
2 | (5/5) Accurately ripped
3 | (5/5) Accurately ripped
4 | (5/5) Accurately ripped
5 | (5/5) Accurately ripped
6 | (5/5) Accurately ripped
7 | (5/5) Accurately ripped
8 | (5/5) Accurately ripped
9 | (5/5) Accurately ripped
10 | (5/5) Accurately ripped
11 | (5/5) Accurately ripped
12 | (5/5) Accurately ripped
13 | (5/5) Accurately ripped
14 | (5/5) Accurately ripped


==== Log checksum 0AA1BABC1BD76DBE4BE0B9BACEB18C32205A0A650061F4E12EFB1550B5FC9421 ====

I 20:27:46 DVD Decrypter Version 3.5.4.0 started!
I 20:27:46 Professional (6.2, Build 9200)
I 20:27:46 Initialising SPTI…
I 20:27:46 Searching for SCSI / ATAPI devices…
I 20:27:47 Found 2 DVD-RAM/±RWs!
W 20:27:59 Possible Structure Protection Found!
W 20:27:59 1 area has been marked as 'suspect'.
W 20:27:59 Dummy sectors will be inserted where necessary.
I 20:28:21 Operation Started!
I 20:28:21 Source Device: [0:0:0] ASUS BW-12D1S-U E401 (F:) (USB)
I 20:28:21 Source Media Type: DVD-ROM
I 20:28:21 Source Media Region Code: 1; 2; 3; 4; 5; 6; 7; 8
I 20:28:21 Source Media Copyright Protection System Type: None
I 20:28:21 Source Media Implementation Identifier: DVD Architect Pro
I 20:28:21 Destination File: D:\3. my rip in preparation\Other\APDS\Image\Attack of the Chainsaw Mutants (DVD).ISO
I 20:28:22 File Splitting: None
I 20:28:22 Hardware Read Error Retries: 20
I 20:28:22 Remove Structure Protection: No
I 20:28:22 Bad Sector Removal Method: Normal
I 20:28:22 Detect Mastering Errors: No
I 20:28:22 Remove Macrovision Protection: Yes
I 20:28:22 Extracting Sectors… (LBA: 0 - 772811)
I 20:28:22 Found IFO File: VIDEO_TS.IFO - (LBA: 278 - 288)
I 20:28:22 Found VOB File: VIDEO_TS.VOB - (LBA: 289 - 432) - KEY: N/A
I 20:28:22 Found BUP File: VIDEO_TS.BUP - (LBA: 433 - 443)
I 20:28:22 Found IFO File: VTS_01_0.IFO - (LBA: 444 - 509)
I 20:28:22 Found VOB File: VTS_01_0.VOB - (LBA: 510 - 835) - KEY: N/A
I 20:28:22 Found VOB File: VTS_01_1.VOB - (LBA: 836 - 512835) - KEY: N/A
I 20:30:04 Found VOB File: VTS_01_2.VOB - (LBA: 512836 - 772744) - KEY: N/A
I 20:30:42 Found BUP File: VTS_01_0.BUP - (LBA: 772745 - 772810)
I 20:30:46 Operation Successfully Completed! - Duration: 00:02:24
I 20:30:46 Average Read Rate: 10.733 KB/s (7.7x) - Maximum Read Rate: 14.681 KB/s (10.6x)


The Meteors - Attack of the Chainsaw Mutants (2017) {CD+DVD - Not Now Music NOT2CD655 rec 1983, 1987}

The Meteors - Attack of the Chainsaw Mutants (2017) {CD+DVD - Not Now Music NOT2CD655 rec 1983, 1987}

The Meteors - Attack of the Chainsaw Mutants (2017) {CD+DVD - Not Now Music NOT2CD655 rec 1983, 1987}

The Meteors - Attack of the Chainsaw Mutants (2017) {CD+DVD - Not Now Music NOT2CD655 rec 1983, 1987}

The Meteors - Attack of the Chainsaw Mutants (2017) {CD+DVD - Not Now Music NOT2CD655 rec 1983, 1987}


All thanks goes to the original releaser!


===