Tags
Language
Tags

The Script - Tales from The Script (2021)

Posted By: delpotro
The Script - Tales from The Script (2021)

The Script - Tales from The Script (2021)
EAC Rip | FLAC (tracks+log+.cue) | Covers included | 01:09:52 | 555 Mb
Pop, Pop Rock | Label: Sony Music

Tales From The Script – Greatest Hits features all of the biggest hits and fan favourites from their six albums so far. It highlights the classic cuts from the trio’s catalogue, taking in the likes of the #1 smash ‘Hall of Fame’ (featuring will.i.am) and the Top 10 hits ‘The Man Who Can’t Be Moved’, ‘For The First Time’ and ‘Superheroes’. It also includes landmark moments and staples of their live show including ‘Breakeven’, their debut single ‘We Cry’ and ‘Rain’. The collection honours everything that the band - Danny O’Donoghue, Glen Power and Mark Sheehan - have achieved together since forming fourteen years ago. It’s completed by the brand new song ‘I Want It All’, which Sheehan says “ delivers all the ingredients everyone knows and loves” plus the ‘Acoustic Sessions’ version of ‘Never Seen Anything “Quite Like You”’.
Tracklist:
1. Breakeven (04:20)
2. The Man Who Can't Be Moved (04:00)
3. For the First Time (04:12)
4. Nothing (04:31)
5. Hall of Fame (feat. will.i.am) (03:22)
6. If You Could See Me Now (03:38)
7. Superheroes (04:02)
8. Six Degrees of Separation (03:52)
9. Rain (03:30)
10. Arms Open (04:02)
11. The Last Time (03:17)
12. Run Through Walls (03:28)
13. Before the Worst (03:23)
14. We Cry (03:44)
15. Science & Faith (04:20)
16. No Good in Goodbye (05:08)
17. Never Seen Anything "Quite Like You" (Acoustic) (03:48)
18. I Want It All (03:07)

Exact Audio Copy V1.3 from 2. September 2016

EAC extraction logfile from 22. November 2021, 19:05

The Script / Tales from The Script

Used drive : HL-DT-STBD-RE BH16NS55 Adapter: 1 ID: 0

Read mode : Secure
Utilize accurate stream : Yes
Defeat audio cache : Yes
Make use of C2 pointers : No

Read offset correction : 6
Overread into Lead-In and Lead-Out : No
Fill up missing offset samples with silence : Yes
Delete leading and trailing silent blocks : No
Null samples used in CRC calculations : Yes
Used interface : Native Win32 interface for Win NT & 2000
Gap handling : Appended to previous track

Used output format : User Defined Encoder
Selected bitrate : 1024 kBit/s
Quality : High
Add ID3 tag : No
Command line compressor : C:\Program Files (x86)\Exact Audio Copy\Flac\flac.exe
Additional command line options : -8 -V -T "ARTIST=%artist%" -T "TITLE=%title%" -T "ALBUM=%albumtitle%" -T "DATE=%year%" -T "TRACKNUMBER=%tracknr%" -T "GENRE=%genre%" -T "PERFORMER=%albuminterpret%" -T "COMPOSER=%composer%" %haslyrics%–tag-from-file=LYRICS="%lyricsfile%"%haslyrics% -T "ALBUMARTIST=%albumartist%" -T "DISCNUMBER=%cdnumber%" -T "TOTALDISCS=%totalcds%" -T "TOTALTRACKS=%numtracks%" -T "COMMENT=%comment%" %source% -o %dest%


TOC of the extracted CD

Track | Start | Length | Start sector | End sector
––––––––––––––––––––––––––––-
1 | 0:00.00 | 4:21.49 | 0 | 19623
2 | 4:21.49 | 4:00.18 | 19624 | 37641
3 | 8:21.67 | 4:12.03 | 37642 | 56544
4 | 12:33.70 | 4:31.58 | 56545 | 76927
5 | 17:05.53 | 3:22.29 | 76928 | 92106
6 | 20:28.07 | 3:38.53 | 92107 | 108509
7 | 24:06.60 | 4:02.66 | 108510 | 126725
8 | 28:09.51 | 3:52.70 | 126726 | 144195
9 | 32:02.46 | 3:30.16 | 144196 | 159961
10 | 35:32.62 | 4:02.56 | 159962 | 178167
11 | 39:35.43 | 3:17.29 | 178168 | 192971
12 | 42:52.72 | 3:28.01 | 192972 | 208572
13 | 46:20.73 | 3:23.23 | 208573 | 223820
14 | 49:44.21 | 3:44.48 | 223821 | 240668
15 | 53:28.69 | 4:20.63 | 240669 | 260231
16 | 57:49.57 | 5:08.06 | 260232 | 283337
17 | 62:57.63 | 3:48.11 | 283338 | 300448
18 | 66:45.74 | 3:06.69 | 300449 | 314467


Track 1

Filename F:\#EAC wav+flac\#New\The Script - Tales from The Script\01. The Script - Breakeven.wav

Pre-gap length 0:00:02.00

Peak level 85.1 %
Extraction speed 5.0 X
Track quality 100.0 %
Test CRC 579E6036
Copy CRC 579E6036
Cannot be verified as accurate (confidence 1) [0002AF1A], AccurateRip returned [3396C7CE] (AR v2)
Copy OK

Track 2

Filename F:\#EAC wav+flac\#New\The Script - Tales from The Script\02. The Script - The Man Who Can't Be Moved.wav

Peak level 90.7 %
Extraction speed 5.4 X
Track quality 100.0 %
Test CRC F4D545CD
Copy CRC F4D545CD
Cannot be verified as accurate (confidence 1) [F96FB28A], AccurateRip returned [054B2266] (AR v2)
Copy OK

Track 3

Filename F:\#EAC wav+flac\#New\The Script - Tales from The Script\03. The Script - For the First Time.wav

Peak level 96.6 %
Extraction speed 5.8 X
Track quality 100.0 %
Test CRC A4538A32
Copy CRC A4538A32
Cannot be verified as accurate (confidence 1) [3297A17A], AccurateRip returned [C343C9A3] (AR v2)
Copy OK

Track 4

Filename F:\#EAC wav+flac\#New\The Script - Tales from The Script\04. The Script - Nothing.wav

Peak level 97.7 %
Extraction speed 6.2 X
Track quality 100.0 %
Test CRC 57709D05
Copy CRC 57709D05
Cannot be verified as accurate (confidence 1) [876432C6], AccurateRip returned [89543F32] (AR v2)
Copy OK

Track 5

Filename F:\#EAC wav+flac\#New\The Script - Tales from The Script\05. The Script Feat. will.i.am - Hall of Fame.wav

Peak level 88.2 %
Extraction speed 6.3 X
Track quality 100.0 %
Test CRC 94FAD5B3
Copy CRC 94FAD5B3
Cannot be verified as accurate (confidence 1) [F9836D12], AccurateRip returned [07D365CD] (AR v2)
Copy OK

Track 6

Filename F:\#EAC wav+flac\#New\The Script - Tales from The Script\06. The Script - If You Could See Me Now.wav

Peak level 87.0 %
Extraction speed 6.7 X
Track quality 100.0 %
Test CRC CE9D14DF
Copy CRC CE9D14DF
Cannot be verified as accurate (confidence 1) [59074F00], AccurateRip returned [E0902CB3] (AR v2)
Copy OK

Track 7

Filename F:\#EAC wav+flac\#New\The Script - Tales from The Script\07. The Script - Superheroes.wav

Peak level 82.4 %
Extraction speed 7.1 X
Track quality 100.0 %
Test CRC 88A8F8F6
Copy CRC 88A8F8F6
Cannot be verified as accurate (confidence 1) [0F0CD146], AccurateRip returned [18462D53] (AR v2)
Copy OK

Track 8

Filename F:\#EAC wav+flac\#New\The Script - Tales from The Script\08. The Script - Six Degrees of Separation.wav

Peak level 77.6 %
Extraction speed 7.4 X
Track quality 100.0 %
Test CRC 4A8DDF6C
Copy CRC 4A8DDF6C
Cannot be verified as accurate (confidence 1) [85DC9710], AccurateRip returned [9E4D113F] (AR v2)
Copy OK

Track 9

Filename F:\#EAC wav+flac\#New\The Script - Tales from The Script\09. The Script - Rain.wav

Peak level 83.1 %
Extraction speed 7.4 X
Track quality 100.0 %
Test CRC 8FF64CF3
Copy CRC 8FF64CF3
Cannot be verified as accurate (confidence 1) [AF98AEBA], AccurateRip returned [0D1F66E4] (AR v2)
Copy OK

Track 10

Filename F:\#EAC wav+flac\#New\The Script - Tales from The Script\10. The Script - Arms Open.wav

Peak level 99.3 %
Extraction speed 7.8 X
Track quality 100.0 %
Test CRC 8FB85802
Copy CRC 8FB85802
Cannot be verified as accurate (confidence 1) [E7693EAF], AccurateRip returned [67F0A4B7] (AR v2)
Copy OK

Track 11

Filename F:\#EAC wav+flac\#New\The Script - Tales from The Script\11. The Script - The Last Time.wav

Peak level 74.9 %
Extraction speed 7.9 X
Track quality 100.0 %
Test CRC 751E282C
Copy CRC 751E282C
Cannot be verified as accurate (confidence 1) [9CD3A8CB], AccurateRip returned [90F6B440] (AR v2)
Copy OK

Track 12

Filename F:\#EAC wav+flac\#New\The Script - Tales from The Script\12. The Script - Run Through Walls.wav

Peak level 74.9 %
Extraction speed 8.1 X
Track quality 100.0 %
Test CRC D2477563
Copy CRC D2477563
Cannot be verified as accurate (confidence 1) [75B846C5], AccurateRip returned [72CDFA10] (AR v2)
Copy OK

Track 13

Filename F:\#EAC wav+flac\#New\The Script - Tales from The Script\13. The Script - Before the Worst.wav

Peak level 100.0 %
Extraction speed 8.3 X
Track quality 100.0 %
Test CRC D4378A5C
Copy CRC D4378A5C
Cannot be verified as accurate (confidence 1) [92E98BF1], AccurateRip returned [B1A6CBB6] (AR v2)
Copy OK

Track 14

Filename F:\#EAC wav+flac\#New\The Script - Tales from The Script\14. The Script - We Cry.wav

Peak level 87.0 %
Extraction speed 8.6 X
Track quality 100.0 %
Test CRC CFDD47F1
Copy CRC CFDD47F1
Cannot be verified as accurate (confidence 1) [4D32A0E3], AccurateRip returned [8179FD6B] (AR v2)
Copy OK

Track 15

Filename F:\#EAC wav+flac\#New\The Script - Tales from The Script\15. The Script - Science & Faith.wav

Peak level 97.7 %
Extraction speed 9.0 X
Track quality 100.0 %
Test CRC DC9C1743
Copy CRC DC9C1743
Cannot be verified as accurate (confidence 1) [BA2107AF], AccurateRip returned [2E6FEDA6] (AR v2)
Copy OK

Track 16

Filename F:\#EAC wav+flac\#New\The Script - Tales from The Script\16. The Script - No Good in Goodbye.wav

Peak level 82.6 %
Extraction speed 8.0 X
Track quality 99.9 %
Test CRC 39D32E97
Copy CRC 39D32E97
Cannot be verified as accurate (confidence 1) [E820D84E], AccurateRip returned [5AEB1D60] (AR v2)
Copy OK

Track 17

Filename F:\#EAC wav+flac\#New\The Script - Tales from The Script\17. The Script - Never Seen Anything ''Quite Like You'' (Acoustic).wav

Peak level 99.6 %
Extraction speed 9.3 X
Track quality 100.0 %
Test CRC A77A51C5
Copy CRC A77A51C5
Cannot be verified as accurate (confidence 1) [34A45560], AccurateRip returned [AC7B7F42] (AR v2)
Copy OK

Track 18

Filename F:\#EAC wav+flac\#New\The Script - Tales from The Script\18. The Script - I Want It All.wav

Peak level 70.7 %
Extraction speed 7.1 X
Track quality 99.9 %
Test CRC 69921CF8
Copy CRC 69921CF8
Cannot be verified as accurate (confidence 1) [EDA2C146], AccurateRip returned [A35F9E8B] (AR v2)
Copy OK


No tracks could be verified as accurate
You may have a different pressing from the one(s) in the database

No errors occurred

End of status report

–– CUETools DB Plugin V2.1.6

[CTDB TOCID: tSNaqSK.4VOHJTwWxbpolud.WSs-] found
Submit result: tSNaqSK.4VOHJTwWxbpolud.WSs- has been confirmed
Track | CTDB Status
1 | (8/8) Accurately ripped
2 | (8/8) Accurately ripped
3 | (8/8) Accurately ripped
4 | (8/8) Accurately ripped
5 | (8/8) Accurately ripped
6 | (8/8) Accurately ripped
7 | (8/8) Accurately ripped
8 | (8/8) Accurately ripped
9 | (8/8) Accurately ripped
10 | (8/8) Accurately ripped
11 | (8/8) Accurately ripped
12 | (8/8) Accurately ripped
13 | (8/8) Accurately ripped
14 | (8/8) Accurately ripped
15 | (8/8) Accurately ripped
16 | (8/8) Accurately ripped
17 | (8/8) Accurately ripped
18 | (8/8) Accurately ripped


==== Log checksum 8E9CCE084352E0A5601843433878C9717BB58DF50486E5C53D1FC27CBFA1DF2F ====

––––––––––––––––––––––––––––––

Exact Audio Copy V1.3 from 2. September 2016

EAC extraction logfile from 22. November 2021, 19:05

The Script / Tales from The Script

Used drive : HL-DT-STBD-RE BH16NS55 Adapter: 1 ID: 0

Read mode : Secure
Utilize accurate stream : Yes
Defeat audio cache : Yes
Make use of C2 pointers : No

Read offset correction : 6
Overread into Lead-In and Lead-Out : No
Fill up missing offset samples with silence : Yes
Delete leading and trailing silent blocks : No
Null samples used in CRC calculations : Yes
Used interface : Native Win32 interface for Win NT & 2000
Gap handling : Appended to previous track

Used output format : User Defined Encoder
Selected bitrate : 1024 kBit/s
Quality : High
Add ID3 tag : No
Command line compressor : C:\Program Files (x86)\Exact Audio Copy\Flac\flac.exe
Additional command line options : -8 -V -T "ARTIST=%artist%" -T "TITLE=%title%" -T "ALBUM=%albumtitle%" -T "DATE=%year%" -T "TRACKNUMBER=%tracknr%" -T "GENRE=%genre%" -T "PERFORMER=%albuminterpret%" -T "COMPOSER=%composer%" %haslyrics%–tag-from-file=LYRICS="%lyricsfile%"%haslyrics% -T "ALBUMARTIST=%albumartist%" -T "DISCNUMBER=%cdnumber%" -T "TOTALDISCS=%totalcds%" -T "TOTALTRACKS=%numtracks%" -T "COMMENT=%comment%" %source% -o %dest%


TOC of the extracted CD

Track | Start | Length | Start sector | End sector
––––––––––––––––––––––––––––-
1 | 0:00.00 | 4:21.49 | 0 | 19623
2 | 4:21.49 | 4:00.18 | 19624 | 37641
3 | 8:21.67 | 4:12.03 | 37642 | 56544
4 | 12:33.70 | 4:31.58 | 56545 | 76927
5 | 17:05.53 | 3:22.29 | 76928 | 92106
6 | 20:28.07 | 3:38.53 | 92107 | 108509
7 | 24:06.60 | 4:02.66 | 108510 | 126725
8 | 28:09.51 | 3:52.70 | 126726 | 144195
9 | 32:02.46 | 3:30.16 | 144196 | 159961
10 | 35:32.62 | 4:02.56 | 159962 | 178167
11 | 39:35.43 | 3:17.29 | 178168 | 192971
12 | 42:52.72 | 3:28.01 | 192972 | 208572
13 | 46:20.73 | 3:23.23 | 208573 | 223820
14 | 49:44.21 | 3:44.48 | 223821 | 240668
15 | 53:28.69 | 4:20.63 | 240669 | 260231
16 | 57:49.57 | 5:08.06 | 260232 | 283337
17 | 62:57.63 | 3:48.11 | 283338 | 300448
18 | 66:45.74 | 3:06.69 | 300449 | 314467


Track 1

Filename F:\#EAC wav+flac\#New\The Script - Tales from The Script\01. The Script - Breakeven.wav

Pre-gap length 0:00:02.00

Peak level 85.1 %
Extraction speed 5.0 X
Track quality 100.0 %
Test CRC 579E6036
Copy CRC 579E6036
Cannot be verified as accurate (confidence 1) [0002AF1A], AccurateRip returned [3396C7CE] (AR v2)
Copy OK

Track 2

Filename F:\#EAC wav+flac\#New\The Script - Tales from The Script\02. The Script - The Man Who Can't Be Moved.wav

Peak level 90.7 %
Extraction speed 5.4 X
Track quality 100.0 %
Test CRC F4D545CD
Copy CRC F4D545CD
Cannot be verified as accurate (confidence 1) [F96FB28A], AccurateRip returned [054B2266] (AR v2)
Copy OK

Track 3

Filename F:\#EAC wav+flac\#New\The Script - Tales from The Script\03. The Script - For the First Time.wav

Peak level 96.6 %
Extraction speed 5.8 X
Track quality 100.0 %
Test CRC A4538A32
Copy CRC A4538A32
Cannot be verified as accurate (confidence 1) [3297A17A], AccurateRip returned [C343C9A3] (AR v2)
Copy OK

Track 4

Filename F:\#EAC wav+flac\#New\The Script - Tales from The Script\04. The Script - Nothing.wav

Peak level 97.7 %
Extraction speed 6.2 X
Track quality 100.0 %
Test CRC 57709D05
Copy CRC 57709D05
Cannot be verified as accurate (confidence 1) [876432C6], AccurateRip returned [89543F32] (AR v2)
Copy OK

Track 5

Filename F:\#EAC wav+flac\#New\The Script - Tales from The Script\05. The Script Feat. will.i.am - Hall of Fame.wav

Peak level 88.2 %
Extraction speed 6.3 X
Track quality 100.0 %
Test CRC 94FAD5B3
Copy CRC 94FAD5B3
Cannot be verified as accurate (confidence 1) [F9836D12], AccurateRip returned [07D365CD] (AR v2)
Copy OK

Track 6

Filename F:\#EAC wav+flac\#New\The Script - Tales from The Script\06. The Script - If You Could See Me Now.wav

Peak level 87.0 %
Extraction speed 6.7 X
Track quality 100.0 %
Test CRC CE9D14DF
Copy CRC CE9D14DF
Cannot be verified as accurate (confidence 1) [59074F00], AccurateRip returned [E0902CB3] (AR v2)
Copy OK

Track 7

Filename F:\#EAC wav+flac\#New\The Script - Tales from The Script\07. The Script - Superheroes.wav

Peak level 82.4 %
Extraction speed 7.1 X
Track quality 100.0 %
Test CRC 88A8F8F6
Copy CRC 88A8F8F6
Cannot be verified as accurate (confidence 1) [0F0CD146], AccurateRip returned [18462D53] (AR v2)
Copy OK

Track 8

Filename F:\#EAC wav+flac\#New\The Script - Tales from The Script\08. The Script - Six Degrees of Separation.wav

Peak level 77.6 %
Extraction speed 7.4 X
Track quality 100.0 %
Test CRC 4A8DDF6C
Copy CRC 4A8DDF6C
Cannot be verified as accurate (confidence 1) [85DC9710], AccurateRip returned [9E4D113F] (AR v2)
Copy OK

Track 9

Filename F:\#EAC wav+flac\#New\The Script - Tales from The Script\09. The Script - Rain.wav

Peak level 83.1 %
Extraction speed 7.4 X
Track quality 100.0 %
Test CRC 8FF64CF3
Copy CRC 8FF64CF3
Cannot be verified as accurate (confidence 1) [AF98AEBA], AccurateRip returned [0D1F66E4] (AR v2)
Copy OK

Track 10

Filename F:\#EAC wav+flac\#New\The Script - Tales from The Script\10. The Script - Arms Open.wav

Peak level 99.3 %
Extraction speed 7.8 X
Track quality 100.0 %
Test CRC 8FB85802
Copy CRC 8FB85802
Cannot be verified as accurate (confidence 1) [E7693EAF], AccurateRip returned [67F0A4B7] (AR v2)
Copy OK

Track 11

Filename F:\#EAC wav+flac\#New\The Script - Tales from The Script\11. The Script - The Last Time.wav

Peak level 74.9 %
Extraction speed 7.9 X
Track quality 100.0 %
Test CRC 751E282C
Copy CRC 751E282C
Cannot be verified as accurate (confidence 1) [9CD3A8CB], AccurateRip returned [90F6B440] (AR v2)
Copy OK

Track 12

Filename F:\#EAC wav+flac\#New\The Script - Tales from The Script\12. The Script - Run Through Walls.wav

Peak level 74.9 %
Extraction speed 8.1 X
Track quality 100.0 %
Test CRC D2477563
Copy CRC D2477563
Cannot be verified as accurate (confidence 1) [75B846C5], AccurateRip returned [72CDFA10] (AR v2)
Copy OK

Track 13

Filename F:\#EAC wav+flac\#New\The Script - Tales from The Script\13. The Script - Before the Worst.wav

Peak level 100.0 %
Extraction speed 8.3 X
Track quality 100.0 %
Test CRC D4378A5C
Copy CRC D4378A5C
Cannot be verified as accurate (confidence 1) [92E98BF1], AccurateRip returned [B1A6CBB6] (AR v2)
Copy OK

Track 14

Filename F:\#EAC wav+flac\#New\The Script - Tales from The Script\14. The Script - We Cry.wav

Peak level 87.0 %
Extraction speed 8.6 X
Track quality 100.0 %
Test CRC CFDD47F1
Copy CRC CFDD47F1
Cannot be verified as accurate (confidence 1) [4D32A0E3], AccurateRip returned [8179FD6B] (AR v2)
Copy OK

Track 15

Filename F:\#EAC wav+flac\#New\The Script - Tales from The Script\15. The Script - Science & Faith.wav

Peak level 97.7 %
Extraction speed 9.0 X
Track quality 100.0 %
Test CRC DC9C1743
Copy CRC DC9C1743
Cannot be verified as accurate (confidence 1) [BA2107AF], AccurateRip returned [2E6FEDA6] (AR v2)
Copy OK

Track 16

Filename F:\#EAC wav+flac\#New\The Script - Tales from The Script\16. The Script - No Good in Goodbye.wav

Peak level 82.6 %
Extraction speed 8.0 X
Track quality 99.9 %
Test CRC 39D32E97
Copy CRC 39D32E97
Cannot be verified as accurate (confidence 1) [E820D84E], AccurateRip returned [5AEB1D60] (AR v2)
Copy OK

Track 17

Filename F:\#EAC wav+flac\#New\The Script - Tales from The Script\17. The Script - Never Seen Anything ''Quite Like You'' (Acoustic).wav

Peak level 99.6 %
Extraction speed 9.3 X
Track quality 100.0 %
Test CRC A77A51C5
Copy CRC A77A51C5
Cannot be verified as accurate (confidence 1) [34A45560], AccurateRip returned [AC7B7F42] (AR v2)
Copy OK

Track 18

Filename F:\#EAC wav+flac\#New\The Script - Tales from The Script\18. The Script - I Want It All.wav

Peak level 70.7 %
Extraction speed 7.1 X
Track quality 99.9 %
Test CRC 69921CF8
Copy CRC 69921CF8
Cannot be verified as accurate (confidence 1) [EDA2C146], AccurateRip returned [A35F9E8B] (AR v2)
Copy OK


No tracks could be verified as accurate
You may have a different pressing from the one(s) in the database

No errors occurred

End of status report

–– CUETools DB Plugin V2.1.6

[CTDB TOCID: tSNaqSK.4VOHJTwWxbpolud.WSs-] found
Submit result: tSNaqSK.4VOHJTwWxbpolud.WSs- has been confirmed
Track | CTDB Status
1 | (8/8) Accurately ripped
2 | (8/8) Accurately ripped
3 | (8/8) Accurately ripped
4 | (8/8) Accurately ripped
5 | (8/8) Accurately ripped
6 | (8/8) Accurately ripped
7 | (8/8) Accurately ripped
8 | (8/8) Accurately ripped
9 | (8/8) Accurately ripped
10 | (8/8) Accurately ripped
11 | (8/8) Accurately ripped
12 | (8/8) Accurately ripped
13 | (8/8) Accurately ripped
14 | (8/8) Accurately ripped
15 | (8/8) Accurately ripped
16 | (8/8) Accurately ripped
17 | (8/8) Accurately ripped
18 | (8/8) Accurately ripped


==== Log checksum 8E9CCE084352E0A5601843433878C9717BB58DF50486E5C53D1FC27CBFA1DF2F ====

Thanks to the Original ripper !