Subcategories

Thelonious Monk - The Complete Albums Collection 1957-61 (2015)

Posted By: delpotro
Thelonious Monk - The Complete Albums Collection 1957-61 (2015)

Thelonious Monk - The Complete Albums Collection 1957-61 (2015)
EAC Rip | FLAC (tracks+log+.cue) - 2 Gb | MP3 CBR 320 kbps - 930 Mb | Covers - 16 Mb | 06:46:06
Jazz, Bop, Cool Jazz | Label: Enlightenment

Following a stream of magnificent and hugely influential albums in the early to mid-1950s, the latter part of the decade and the lead up towards his signing for Columbia Records proved a major transitional period for jazz composer and pianist Thelonious Monk.
Tracklist:
Disc 1 (01:22:19)
1. Ruby, My Dear (06:22)
2. Trinkle, Tinkle (06:40)
3. Off Minor (05:16)
4. Nutty (06:38)
5. Epistrophy (03:10)
6. Functional (09:42)
7. April In Paris (03:53)
8. (I Don't Stand) A Ghost Of A Chance With You (04:25)
9. Functional (09:19)
10. I'm Getting Sentimental Over You (04:07)
11. I Should Care (03:16)
12. 'Round Midnight (06:43)
13. All Alone (04:54)
14. Monk's Mood (07:54)

Disc 2 (01:22:59)
1. Evidence (06:41)
2. In Walked Bud (06:34)
3. Blue Monk (07:48)
4. I Mean You (07:57)
5. Rhythm-A-Ning (07:15)
6. Purple Shades (07:38)
7. Light Blue (05:10)
8. Coming On The Hudson (05:21)
9. Rhythm-A-Ning (09:25)
10. Epistrophy (Theme) (00:56)
11. Blue Monk (08:27)
12. Evidence (08:48)
13. Epistrophy (Theme) (00:59)

Disc 3 (01:22:26)
1. Nutty (05:18)
2. Blues Five Spot (08:08)
3. Let's Cool One (09:12)
4. In Walked Bud (11:17)
5. Just A Gigolo (02:07)
6. Misterioso (10:49)
7. Blue Monk (03:38)
8. Ruby, My Dear (03:53)
9. Round Lights (03:30)
10. Everything Happens To Me (05:32)
11. Bluehawk (03:34)
12. Pannonica (03:47)
13. Remember (02:32)
14. There's Danger In Your Eyes, Cherie (04:08)
15. Reflections (05:01)

Disc 4 (01:18:31)
1. Thelonious (03:04)
2. Friday The 13th (09:32)
3. Little Rootie Tootie (08:56)
4. Off Minor (07:56)
5. Crepuscule With Nellie (04:53)
6. Jackie-Ing (06:10)
7. Straight, No Chaser (09:23)
8. Played Twice (08:01)
9. I Mean You (09:50)
10. Ask Me Now (10:46)

Disc 5 (01:19:23)
1. Let's Call This (08:34)
2. Four In One (08:41)
3. I'm Getting Sentimental Over You (06:14)
4. Worry Later (09:10)
5. Epistrophy (01:00)
6. Well, You Needn't (11:31)
7. Off Minor (11:42)
8. Just A Gigolo (01:43)
9. I Mean You (11:02)
10. Hackensack (09:46)

Exact Audio Copy V1.3 from 2. September 2016

EAC extraction logfile from 2. December 2019, 15:02

Thelonious Monk / The Complete Albums Collection: 1957-61

Used drive : SONY DVD RW AD-7280S Adapter: 1 ID: 1

Read mode : Secure
Utilize accurate stream : Yes
Defeat audio cache : Yes
Make use of C2 pointers : No

Read offset correction : 48
Overread into Lead-In and Lead-Out : No
Fill up missing offset samples with silence : Yes
Delete leading and trailing silent blocks : No
Null samples used in CRC calculations : Yes
Used interface : Native Win32 interface for Win NT & 2000
Gap handling : Appended to previous track

Used output format : User Defined Encoder
Selected bitrate : 1024 kBit/s
Quality : High
Add ID3 tag : No
Command line compressor : C:\Program Files (x86)\Exact Audio Copy\Flac\flac.exe
Additional command line options : -8 -e -p -V -T "ARTIST=%artist%" -T "TITLE=%title%" -T "ALBUM=%albumtitle%" -T "DATE=%year%" -T "TRACKNUMBER=%tracknr%" -T "GENRE=%genre%" -T "PERFORMER=%albuminterpret%" -T "COMPOSER=%composer%" %haslyrics%–tag-from-file=LYRICS="%lyricsfile%"%haslyrics% -T "ALBUMARTIST=%albumartist%" -T "DISCNUMBER=%cdnumber%" -T "TOTALDISCS=%totalcds%" -T "TOTALTRACKS=%numtracks%" -T "COMMENT=%comment%" %source% -o %dest%


TOC of the extracted CD

Track | Start | Length | Start sector | End sector
––––––––––––––––––––––––––––-
1 | 0:00.00 | 6:22.51 | 0 | 28700
2 | 6:22.51 | 6:40.55 | 28701 | 58755
3 | 13:03.31 | 5:16.40 | 58756 | 82495
4 | 18:19.71 | 6:38.74 | 82496 | 112419
5 | 24:58.70 | 3:10.13 | 112420 | 126682
6 | 28:09.08 | 9:42.24 | 126683 | 170356
7 | 37:51.32 | 3:53.51 | 170357 | 187882
8 | 41:45.08 | 4:23.26 | 187883 | 207633
9 | 46:08.34 | 9:19.13 | 207634 | 249571
10 | 55:27.47 | 4:05.03 | 249572 | 267949
11 | 59:32.50 | 3:15.47 | 267950 | 282621
12 | 62:48.22 | 6:42.51 | 282622 | 312822
13 | 69:30.73 | 4:52.12 | 312823 | 334734
14 | 74:23.10 | 7:54.65 | 334735 | 370349


Track 1

Filename G:\__New\_EAC rips\Thelonious Monk - The Complete Albums Collection 1957-61 [CD EN5CD9049] (2015) 5cd flac\CD1\01 - Ruby, My Dear (with John Coltrane).wav

Pre-gap length 0:00:02.00

Peak level 79.9 %
Extraction speed 2.8 X
Track quality 100.0 %
Test CRC 1781037C
Copy CRC 1781037C
Accurately ripped (confidence 7) [AD29CB53] (AR v2)
Copy OK

Track 2

Filename G:\__New\_EAC rips\Thelonious Monk - The Complete Albums Collection 1957-61 [CD EN5CD9049] (2015) 5cd flac\CD1\02 - Trinkle, Tinkle (with John Coltrane).wav

Peak level 88.1 %
Extraction speed 3.0 X
Track quality 99.9 %
Test CRC 33E28A85
Copy CRC 33E28A85
Accurately ripped (confidence 7) [450B22A3] (AR v2)
Copy OK

Track 3

Filename G:\__New\_EAC rips\Thelonious Monk - The Complete Albums Collection 1957-61 [CD EN5CD9049] (2015) 5cd flac\CD1\03 - Off Minor (with John Coltrane).wav

Peak level 97.4 %
Extraction speed 3.4 X
Track quality 100.0 %
Test CRC BC154E70
Copy CRC BC154E70
Accurately ripped (confidence 7) [8F479B4A] (AR v2)
Copy OK

Track 4

Filename G:\__New\_EAC rips\Thelonious Monk - The Complete Albums Collection 1957-61 [CD EN5CD9049] (2015) 5cd flac\CD1\04 - Nutty (with John Coltrane).wav

Peak level 75.1 %
Extraction speed 3.8 X
Track quality 100.0 %
Test CRC 15509CB9
Copy CRC 15509CB9
Accurately ripped (confidence 7) [AABEC114] (AR v2)
Copy OK

Track 5

Filename G:\__New\_EAC rips\Thelonious Monk - The Complete Albums Collection 1957-61 [CD EN5CD9049] (2015) 5cd flac\CD1\05 - Epistrophy (with John Coltrane).wav

Peak level 89.3 %
Extraction speed 3.7 X
Track quality 100.0 %
Test CRC E788C003
Copy CRC E788C003
Accurately ripped (confidence 7) [1C57973C] (AR v2)
Copy OK

Track 6

Filename G:\__New\_EAC rips\Thelonious Monk - The Complete Albums Collection 1957-61 [CD EN5CD9049] (2015) 5cd flac\CD1\06 - Functional (with John Coltrane).wav

Peak level 76.9 %
Extraction speed 4.2 X
Track quality 99.9 %
Test CRC AC018B86
Copy CRC AC018B86
Accurately ripped (confidence 7) [0C276A96] (AR v2)
Copy OK

Track 7

Filename G:\__New\_EAC rips\Thelonious Monk - The Complete Albums Collection 1957-61 [CD EN5CD9049] (2015) 5cd flac\CD1\07 - April in Paris.wav

Peak level 75.1 %
Extraction speed 3.8 X
Track quality 99.9 %
Test CRC 997CF8D8
Copy CRC 997CF8D8
Accurately ripped (confidence 7) [684F4F70] (AR v2)
Copy OK

Track 8

Filename G:\__New\_EAC rips\Thelonious Monk - The Complete Albums Collection 1957-61 [CD EN5CD9049] (2015) 5cd flac\CD1\08 - (I Don't Stand) A Ghost of a Chance with You.wav

Peak level 75.2 %
Extraction speed 4.5 X
Track quality 100.0 %
Test CRC 087375D6
Copy CRC 087375D6
Accurately ripped (confidence 7) [80515389] (AR v2)
Copy OK

Track 9

Filename G:\__New\_EAC rips\Thelonious Monk - The Complete Albums Collection 1957-61 [CD EN5CD9049] (2015) 5cd flac\CD1\09 - Functional.wav

Peak level 75.4 %
Extraction speed 5.1 X
Track quality 100.0 %
Test CRC 3AAB2EB7
Copy CRC 3AAB2EB7
Accurately ripped (confidence 7) [68F4F773] (AR v2)
Copy OK

Track 10

Filename G:\__New\_EAC rips\Thelonious Monk - The Complete Albums Collection 1957-61 [CD EN5CD9049] (2015) 5cd flac\CD1\10 - I'm Getting Sentimental Over You.wav

Peak level 75.1 %
Extraction speed 4.4 X
Track quality 99.9 %
Test CRC AC936616
Copy CRC AC936616
Accurately ripped (confidence 7) [4BB3E28B] (AR v2)
Copy OK

Track 11

Filename G:\__New\_EAC rips\Thelonious Monk - The Complete Albums Collection 1957-61 [CD EN5CD9049] (2015) 5cd flac\CD1\11 - I Should Care.wav

Peak level 75.3 %
Extraction speed 4.9 X
Track quality 100.0 %
Test CRC BA5EA689
Copy CRC BA5EA689
Accurately ripped (confidence 7) [E067E47A] (AR v2)
Copy OK

Track 12

Filename G:\__New\_EAC rips\Thelonious Monk - The Complete Albums Collection 1957-61 [CD EN5CD9049] (2015) 5cd flac\CD1\12 - 'Round Midnight.wav

Peak level 75.3 %
Extraction speed 5.0 X
Track quality 99.9 %
Test CRC 96C230A7
Copy CRC 96C230A7
Accurately ripped (confidence 7) [D32AB780] (AR v2)
Copy OK

Track 13

Filename G:\__New\_EAC rips\Thelonious Monk - The Complete Albums Collection 1957-61 [CD EN5CD9049] (2015) 5cd flac\CD1\13 - All Alone.wav

Peak level 75.1 %
Extraction speed 4.9 X
Track quality 99.9 %
Test CRC 7EEABC21
Copy CRC 7EEABC21
Accurately ripped (confidence 7) [A516CF76] (AR v2)
Copy OK

Track 14

Filename G:\__New\_EAC rips\Thelonious Monk - The Complete Albums Collection 1957-61 [CD EN5CD9049] (2015) 5cd flac\CD1\14 - Monk's Mood.wav

Peak level 75.7 %
Extraction speed 5.9 X
Track quality 100.0 %
Test CRC 87162EEF
Copy CRC 87162EEF
Accurately ripped (confidence 7) [FE32EFE3] (AR v2)
Copy OK


All tracks accurately ripped

No errors occurred

End of status report

–– CUETools DB Plugin V2.1.6

[CTDB TOCID: NLReQlM2_xO.nSHxAtoefOuXBq0-] found
Submit result: NLReQlM2_xO.nSHxAtoefOuXBq0- has been confirmed
Track | CTDB Status
1 | (26/27) Accurately ripped
2 | (26/27) Accurately ripped
3 | (26/27) Accurately ripped
4 | (26/27) Accurately ripped
5 | (26/27) Accurately ripped
6 | (25/27) Accurately ripped
7 | (26/27) Accurately ripped
8 | (26/27) Accurately ripped
9 | (26/27) Accurately ripped
10 | (26/27) Accurately ripped
11 | (26/27) Accurately ripped
12 | (26/27) Accurately ripped
13 | (26/27) Accurately ripped
14 | (26/27) Accurately ripped


==== Log checksum F78F34D3C58ED937EEFD62A49A977E4218E40B62D56848695A702E489476AF40 ====
Exact Audio Copy V1.3 from 2. September 2016

EAC extraction logfile from 2. December 2019, 16:00

Thelonious Monk / The Complete Albums Collection: 1957-61

Used drive : SONY DVD RW AD-7280S Adapter: 1 ID: 1

Read mode : Secure
Utilize accurate stream : Yes
Defeat audio cache : Yes
Make use of C2 pointers : No

Read offset correction : 48
Overread into Lead-In and Lead-Out : No
Fill up missing offset samples with silence : Yes
Delete leading and trailing silent blocks : No
Null samples used in CRC calculations : Yes
Used interface : Native Win32 interface for Win NT & 2000
Gap handling : Appended to previous track

Used output format : User Defined Encoder
Selected bitrate : 1024 kBit/s
Quality : High
Add ID3 tag : No
Command line compressor : C:\Program Files (x86)\Exact Audio Copy\Flac\flac.exe
Additional command line options : -8 -e -p -V -T "ARTIST=%artist%" -T "TITLE=%title%" -T "ALBUM=%albumtitle%" -T "DATE=%year%" -T "TRACKNUMBER=%tracknr%" -T "GENRE=%genre%" -T "PERFORMER=%albuminterpret%" -T "COMPOSER=%composer%" %haslyrics%–tag-from-file=LYRICS="%lyricsfile%"%haslyrics% -T "ALBUMARTIST=%albumartist%" -T "DISCNUMBER=%cdnumber%" -T "TOTALDISCS=%totalcds%" -T "TOTALTRACKS=%numtracks%" -T "COMMENT=%comment%" %source% -o %dest%


TOC of the extracted CD

Track | Start | Length | Start sector | End sector
––––––––––––––––––––––––––––-
1 | 0:00.00 | 6:41.73 | 0 | 30147
2 | 6:41.73 | 6:34.15 | 30148 | 59712
3 | 13:16.13 | 7:48.32 | 59713 | 94844
4 | 21:04.45 | 7:57.23 | 94845 | 130642
5 | 29:01.68 | 7:15.54 | 130643 | 163321
6 | 36:17.47 | 7:38.04 | 163322 | 197675
7 | 43:55.51 | 5:10.46 | 197676 | 220971
8 | 49:06.22 | 5:21.14 | 220972 | 245060
9 | 54:27.36 | 9:25.02 | 245061 | 287437
10 | 63:52.38 | 0:56.59 | 287438 | 291696
11 | 64:49.22 | 8:27.09 | 291697 | 329730
12 | 73:16.31 | 8:48.70 | 329731 | 369400
13 | 82:05.26 | 1:00.49 | 369401 | 373949


Track 1

Filename G:\__New\_EAC rips\Thelonious Monk - The Complete Albums Collection 1957-61 [CD EN5CD9049] (2015) 5cd flac\CD2\01 - Evidence (with Art Blakey's Jazz Messengers).wav

Pre-gap length 0:00:02.00

Peak level 99.8 %
Extraction speed 2.8 X
Track quality 100.0 %
Test CRC 94673401
Copy CRC 94673401
Accurately ripped (confidence 7) [4D753004] (AR v2)
Copy OK

Track 2

Filename G:\__New\_EAC rips\Thelonious Monk - The Complete Albums Collection 1957-61 [CD EN5CD9049] (2015) 5cd flac\CD2\02 - In Walked Bud (with Art Blakey's Jazz Messengers).wav

Peak level 100.0 %
Extraction speed 3.2 X
Track quality 100.0 %
Test CRC 2D66B4AA
Copy CRC 2D66B4AA
Accurately ripped (confidence 7) [1A813445] (AR v2)
Copy OK

Track 3

Filename G:\__New\_EAC rips\Thelonious Monk - The Complete Albums Collection 1957-61 [CD EN5CD9049] (2015) 5cd flac\CD2\03 - Blue Monk (with Art Blakey's Jazz Messengers).wav

Peak level 100.0 %
Extraction speed 3.4 X
Track quality 99.9 %
Test CRC D5F98DFF
Copy CRC D5F98DFF
Accurately ripped (confidence 7) [FA292B2D] (AR v2)
Copy OK

Track 4

Filename G:\__New\_EAC rips\Thelonious Monk - The Complete Albums Collection 1957-61 [CD EN5CD9049] (2015) 5cd flac\CD2\04 - I Mean You (with Art Blakey's Jazz Messengers).wav

Peak level 100.0 %
Extraction speed 4.0 X
Track quality 100.0 %
Test CRC 23CA4B0B
Copy CRC 23CA4B0B
Accurately ripped (confidence 7) [63B36CC8] (AR v2)
Copy OK

Track 5

Filename G:\__New\_EAC rips\Thelonious Monk - The Complete Albums Collection 1957-61 [CD EN5CD9049] (2015) 5cd flac\CD2\05 - Rhythm-a-Ning (with Art Blakey's Jazz Messengers).wav

Peak level 100.0 %
Extraction speed 4.3 X
Track quality 100.0 %
Test CRC 030906B2
Copy CRC 030906B2
Accurately ripped (confidence 7) [7F970F10] (AR v2)
Copy OK

Track 6

Filename G:\__New\_EAC rips\Thelonious Monk - The Complete Albums Collection 1957-61 [CD EN5CD9049] (2015) 5cd flac\CD2\06 - Purple Shades (with Art Blakey's Jazz Messengers).wav

Peak level 99.9 %
Extraction speed 4.7 X
Track quality 100.0 %
Test CRC 15BF2FDF
Copy CRC 15BF2FDF
Accurately ripped (confidence 7) [689FE01F] (AR v2)
Copy OK

Track 7

Filename G:\__New\_EAC rips\Thelonious Monk - The Complete Albums Collection 1957-61 [CD EN5CD9049] (2015) 5cd flac\CD2\07 - Light Blue (live at The Five Spot, NYC, 1958).wav

Peak level 96.5 %
Extraction speed 4.7 X
Track quality 100.0 %
Test CRC FE41F1E7
Copy CRC FE41F1E7
Accurately ripped (confidence 7) [780ADC09] (AR v2)
Copy OK

Track 8

Filename G:\__New\_EAC rips\Thelonious Monk - The Complete Albums Collection 1957-61 [CD EN5CD9049] (2015) 5cd flac\CD2\08 - Coming on the Hudson (live at The Five Spot, NYC, 1958).wav

Peak level 96.8 %
Extraction speed 4.9 X
Track quality 100.0 %
Test CRC C421940A
Copy CRC C421940A
Accurately ripped (confidence 7) [4A622850] (AR v2)
Copy OK

Track 9

Filename G:\__New\_EAC rips\Thelonious Monk - The Complete Albums Collection 1957-61 [CD EN5CD9049] (2015) 5cd flac\CD2\09 - Rhythm-a-Ning (live at The Five Spot, NYC, 1958).wav

Peak level 97.2 %
Extraction speed 5.1 X
Track quality 99.9 %
Test CRC 0D8CAD2A
Copy CRC 0D8CAD2A
Accurately ripped (confidence 7) [4D478D2A] (AR v2)
Copy OK

Track 10

Filename G:\__New\_EAC rips\Thelonious Monk - The Complete Albums Collection 1957-61 [CD EN5CD9049] (2015) 5cd flac\CD2\10 - Epistrophy (Theme) (live at The Five Spot, NYC, 1958).wav

Peak level 94.1 %
Extraction speed 2.6 X
Track quality 99.8 %
Test CRC C77DE8AF
Copy CRC C77DE8AF
Accurately ripped (confidence 7) [53B896B5] (AR v2)
Copy OK

Track 11

Filename G:\__New\_EAC rips\Thelonious Monk - The Complete Albums Collection 1957-61 [CD EN5CD9049] (2015) 5cd flac\CD2\11 - Blue Monk (live at The Five Spot, NYC, 1958).wav

Peak level 99.1 %
Extraction speed 5.7 X
Track quality 100.0 %
Test CRC 6D7C37B8
Copy CRC 6D7C37B8
Accurately ripped (confidence 7) [489CAC58] (AR v2)
Copy OK

Track 12

Filename G:\__New\_EAC rips\Thelonious Monk - The Complete Albums Collection 1957-61 [CD EN5CD9049] (2015) 5cd flac\CD2\12 - Evidence (live at The Five Spot, NYC, 1958).wav

Peak level 100.0 %
Extraction speed 6.0 X
Track quality 100.0 %
Test CRC C8BD124A
Copy CRC C8BD124A
Accurately ripped (confidence 7) [7BAF1379] (AR v2)
Copy OK

Track 13

Filename G:\__New\_EAC rips\Thelonious Monk - The Complete Albums Collection 1957-61 [CD EN5CD9049] (2015) 5cd flac\CD2\13 - Epistrophy (Theme) (live at The Five Spot, NYC, 1958).wav

Peak level 96.7 %
Extraction speed 3.9 X
Track quality 100.0 %
Test CRC F600ABB1
Copy CRC F600ABB1
Accurately ripped (confidence 7) [9F1C1862] (AR v2)
Copy OK


All tracks accurately ripped

No errors occurred

End of status report

–– CUETools DB Plugin V2.1.6

[CTDB TOCID: 11ba7AroZNmq6deSxNUQr29vURs-] found
Submit result: 11ba7AroZNmq6deSxNUQr29vURs- has been confirmed
Track | CTDB Status
1 | (26/27) Accurately ripped
2 | (26/27) Accurately ripped
3 | (26/27) Accurately ripped
4 | (26/27) Accurately ripped
5 | (26/27) Accurately ripped
6 | (26/27) Accurately ripped
7 | (26/27) Accurately ripped
8 | (26/27) Accurately ripped
9 | (26/27) Accurately ripped
10 | (26/27) Accurately ripped
11 | (26/27) Accurately ripped
12 | (26/27) Accurately ripped
13 | (26/27) Accurately ripped


==== Log checksum E0C05B9DA3E286F029D6F3B19FA5A3F48208CBA4C28B8D4F0132BFE8A8206332 ====
Exact Audio Copy V1.3 from 2. September 2016

EAC extraction logfile from 2. December 2019, 17:20

Thelonious Monk / The Complete Albums Collection: 1957-61

Used drive : SONY DVD RW AD-7280S Adapter: 1 ID: 1

Read mode : Secure
Utilize accurate stream : Yes
Defeat audio cache : Yes
Make use of C2 pointers : No

Read offset correction : 48
Overread into Lead-In and Lead-Out : No
Fill up missing offset samples with silence : Yes
Delete leading and trailing silent blocks : No
Null samples used in CRC calculations : Yes
Used interface : Native Win32 interface for Win NT & 2000
Gap handling : Appended to previous track

Used output format : User Defined Encoder
Selected bitrate : 1024 kBit/s
Quality : High
Add ID3 tag : No
Command line compressor : C:\Program Files (x86)\Exact Audio Copy\Flac\flac.exe
Additional command line options : -8 -e -p -V -T "ARTIST=%artist%" -T "TITLE=%title%" -T "ALBUM=%albumtitle%" -T "DATE=%year%" -T "TRACKNUMBER=%tracknr%" -T "GENRE=%genre%" -T "PERFORMER=%albuminterpret%" -T "COMPOSER=%composer%" %haslyrics%–tag-from-file=LYRICS="%lyricsfile%"%haslyrics% -T "ALBUMARTIST=%albumartist%" -T "DISCNUMBER=%cdnumber%" -T "TOTALDISCS=%totalcds%" -T "TOTALTRACKS=%numtracks%" -T "COMMENT=%comment%" %source% -o %dest%


TOC of the extracted CD

Track | Start | Length | Start sector | End sector
––––––––––––––––––––––––––––-
1 | 0:00.00 | 5:19.30 | 0 | 23954
2 | 5:19.30 | 8:09.06 | 23955 | 60635
3 | 13:28.36 | 9:12.15 | 60636 | 102050
4 | 22:40.51 | 11:17.51 | 102051 | 152876
5 | 33:58.27 | 2:07.04 | 152877 | 162405
6 | 36:05.31 | 10:49.47 | 162406 | 211127
7 | 46:55.03 | 3:38.04 | 211128 | 227481
8 | 50:33.07 | 3:53.56 | 227482 | 245012
9 | 54:26.63 | 3:30.43 | 245013 | 260805
10 | 57:57.31 | 5:32.24 | 260806 | 285729
11 | 63:29.55 | 3:34.38 | 285730 | 301817
12 | 67:04.18 | 3:47.37 | 301818 | 318879
13 | 70:51.55 | 2:32.57 | 318880 | 330336
14 | 73:24.37 | 4:08.20 | 330337 | 348956
15 | 77:32.57 | 5:02.18 | 348957 | 371624


Track 1

Filename G:\__New\_EAC rips\Thelonious Monk - The Complete Albums Collection 1957-61 [CD EN5CD9049] (2015) 5cd flac\CD3\01 - Nutty (live at The Five Spot, NYC, 1958).wav

Pre-gap length 0:00:02.00

Peak level 90.1 %
Extraction speed 2.7 X
Track quality 100.0 %
Test CRC F434803B
Copy CRC F434803B
Accurately ripped (confidence 7) [C4E4AA7D] (AR v2)
Copy OK

Track 2

Filename G:\__New\_EAC rips\Thelonious Monk - The Complete Albums Collection 1957-61 [CD EN5CD9049] (2015) 5cd flac\CD3\02 - Blues Five Spot (live at The Five Spot, NYC, 1958).wav

Peak level 92.9 %
Extraction speed 2.9 X
Track quality 100.0 %
Test CRC 86AF094A
Copy CRC 86AF094A
Accurately ripped (confidence 7) [7658F425] (AR v2)
Copy OK

Track 3

Filename G:\__New\_EAC rips\Thelonious Monk - The Complete Albums Collection 1957-61 [CD EN5CD9049] (2015) 5cd flac\CD3\03 - Let's Cool One (live at The Five Spot, NYC, 1958).wav

Peak level 95.0 %
Extraction speed 3.7 X
Track quality 100.0 %
Test CRC 59609F07
Copy CRC 59609F07
Accurately ripped (confidence 7) [53AE7461] (AR v2)
Copy OK

Track 4

Filename G:\__New\_EAC rips\Thelonious Monk - The Complete Albums Collection 1957-61 [CD EN5CD9049] (2015) 5cd flac\CD3\04 - In Walked Bud (live at The Five Spot, NYC, 1958).wav

Peak level 96.8 %
Extraction speed 4.2 X
Track quality 100.0 %
Test CRC 53044444
Copy CRC 53044444
Accurately ripped (confidence 7) [418EDB64] (AR v2)
Copy OK

Track 5

Filename G:\__New\_EAC rips\Thelonious Monk - The Complete Albums Collection 1957-61 [CD EN5CD9049] (2015) 5cd flac\CD3\05 - Just a Gigolo (live at The Five Spot, NYC, 1958).wav

Peak level 80.8 %
Extraction speed 3.7 X
Track quality 100.0 %
Test CRC 3B0BF8EC
Copy CRC 3B0BF8EC
Accurately ripped (confidence 7) [DA53891E] (AR v2)
Copy OK

Track 6

Filename G:\__New\_EAC rips\Thelonious Monk - The Complete Albums Collection 1957-61 [CD EN5CD9049] (2015) 5cd flac\CD3\06 - Misterioso (live at The Five Spot, NYC, 1958).wav

Peak level 91.3 %
Extraction speed 4.8 X
Track quality 100.0 %
Test CRC D7BA5310
Copy CRC D7BA5310
Accurately ripped (confidence 7) [0EF2979E] (AR v2)
Copy OK

Track 7

Filename G:\__New\_EAC rips\Thelonious Monk - The Complete Albums Collection 1957-61 [CD EN5CD9049] (2015) 5cd flac\CD3\07 - Blue Monk (solo).wav

Peak level 85.1 %
Extraction speed 4.6 X
Track quality 100.0 %
Test CRC 1B82CB5D
Copy CRC 1B82CB5D
Accurately ripped (confidence 7) [6E8D4A83] (AR v2)
Copy OK

Track 8

Filename G:\__New\_EAC rips\Thelonious Monk - The Complete Albums Collection 1957-61 [CD EN5CD9049] (2015) 5cd flac\CD3\08 - Ruby, My Dear (solo).wav

Peak level 82.0 %
Extraction speed 4.7 X
Track quality 100.0 %
Test CRC 882A7F66
Copy CRC 882A7F66
Accurately ripped (confidence 7) [2DC0BA78] (AR v2)
Copy OK

Track 9

Filename G:\__New\_EAC rips\Thelonious Monk - The Complete Albums Collection 1957-61 [CD EN5CD9049] (2015) 5cd flac\CD3\09 - Round Lights (solo).wav

Peak level 89.1 %
Extraction speed 4.1 X
Track quality 100.0 %
Test CRC 9F8CE253
Copy CRC 9F8CE253
Accurately ripped (confidence 7) [79A44098] (AR v2)
Copy OK

Track 10

Filename G:\__New\_EAC rips\Thelonious Monk - The Complete Albums Collection 1957-61 [CD EN5CD9049] (2015) 5cd flac\CD3\10 - Everything Happens to Me (solo).wav

Peak level 92.1 %
Extraction speed 4.8 X
Track quality 99.9 %
Test CRC 854593C4
Copy CRC 854593C4
Accurately ripped (confidence 7) [4FCD1F1D] (AR v2)
Copy OK

Track 11

Filename G:\__New\_EAC rips\Thelonious Monk - The Complete Albums Collection 1957-61 [CD EN5CD9049] (2015) 5cd flac\CD3\11 - Bluehawk (solo).wav

Peak level 91.7 %
Extraction speed 5.1 X
Track quality 100.0 %
Test CRC AE35391C
Copy CRC AE35391C
Accurately ripped (confidence 7) [F5A0FEB0] (AR v2)
Copy OK

Track 12

Filename G:\__New\_EAC rips\Thelonious Monk - The Complete Albums Collection 1957-61 [CD EN5CD9049] (2015) 5cd flac\CD3\12 - Pannonica (solo).wav

Peak level 89.0 %
Extraction speed 5.2 X
Track quality 100.0 %
Test CRC BF5139B9
Copy CRC BF5139B9
Accurately ripped (confidence 7) [D0942E5B] (AR v2)
Copy OK

Track 13

Filename G:\__New\_EAC rips\Thelonious Monk - The Complete Albums Collection 1957-61 [CD EN5CD9049] (2015) 5cd flac\CD3\13 - Remember (solo).wav

Peak level 71.0 %
Extraction speed 5.1 X
Track quality 100.0 %
Test CRC FE3B2EDA
Copy CRC FE3B2EDA
Accurately ripped (confidence 7) [6EF21739] (AR v2)
Copy OK

Track 14

Filename G:\__New\_EAC rips\Thelonious Monk - The Complete Albums Collection 1957-61 [CD EN5CD9049] (2015) 5cd flac\CD3\14 - There's Danger in Your Eyes, Cherie (solo).wav

Peak level 67.6 %
Extraction speed 5.5 X
Track quality 100.0 %
Test CRC 98CF5AA5
Copy CRC 98CF5AA5
Accurately ripped (confidence 7) [20A6A3FF] (AR v2)
Copy OK

Track 15

Filename G:\__New\_EAC rips\Thelonious Monk - The Complete Albums Collection 1957-61 [CD EN5CD9049] (2015) 5cd flac\CD3\15 - Reflections (solo).wav

Peak level 93.2 %
Extraction speed 5.8 X
Track quality 100.0 %
Test CRC BB7C9A24
Copy CRC BB7C9A24
Accurately ripped (confidence 7) [51A33149] (AR v2)
Copy OK


All tracks accurately ripped

No errors occurred

End of status report

–– CUETools DB Plugin V2.1.6

[CTDB TOCID: z2VXZfAZxJaOaduYj0xcv4wGfRY-] found
Submit result: z2VXZfAZxJaOaduYj0xcv4wGfRY- has been confirmed
Track | CTDB Status
1 | (26/27) Accurately ripped
2 | (26/27) Accurately ripped
3 | (26/27) Accurately ripped
4 | (26/27) Accurately ripped
5 | (26/27) Accurately ripped
6 | (26/27) Accurately ripped
7 | (26/27) Accurately ripped
8 | (26/27) Accurately ripped
9 | (26/27) Accurately ripped
10 | (26/27) Accurately ripped
11 | (26/27) Accurately ripped
12 | (26/27) Accurately ripped
13 | (26/27) Accurately ripped
14 | (26/27) Accurately ripped
15 | (26/27) Accurately ripped


==== Log checksum 3CF90FD73EB65A25290B4FD8F3F887DCEB91019969860E9AD8025056332B04BD ====
Exact Audio Copy V1.3 from 2. September 2016

EAC extraction logfile from 2. December 2019, 18:14

Thelonious Monk / The Complete Albums Collection: 1957-61

Used drive : SONY DVD RW AD-7280S Adapter: 1 ID: 1

Read mode : Secure
Utilize accurate stream : Yes
Defeat audio cache : Yes
Make use of C2 pointers : No

Read offset correction : 48
Overread into Lead-In and Lead-Out : No
Fill up missing offset samples with silence : Yes
Delete leading and trailing silent blocks : No
Null samples used in CRC calculations : Yes
Used interface : Native Win32 interface for Win NT & 2000
Gap handling : Appended to previous track

Used output format : User Defined Encoder
Selected bitrate : 1024 kBit/s
Quality : High
Add ID3 tag : No
Command line compressor : C:\Program Files (x86)\Exact Audio Copy\Flac\flac.exe
Additional command line options : -8 -e -p -V -T "ARTIST=%artist%" -T "TITLE=%title%" -T "ALBUM=%albumtitle%" -T "DATE=%year%" -T "TRACKNUMBER=%tracknr%" -T "GENRE=%genre%" -T "PERFORMER=%albuminterpret%" -T "COMPOSER=%composer%" %haslyrics%–tag-from-file=LYRICS="%lyricsfile%"%haslyrics% -T "ALBUMARTIST=%albumartist%" -T "DISCNUMBER=%cdnumber%" -T "TOTALDISCS=%totalcds%" -T "TOTALTRACKS=%numtracks%" -T "COMMENT=%comment%" %source% -o %dest%


TOC of the extracted CD

Track | Start | Length | Start sector | End sector
––––––––––––––––––––––––––––-
1 | 0:00.00 | 3:04.60 | 0 | 13859
2 | 3:04.60 | 9:32.65 | 13860 | 56824
3 | 12:37.50 | 8:56.06 | 56825 | 97030
4 | 21:33.56 | 7:56.08 | 97031 | 132738
5 | 29:29.64 | 4:53.33 | 132739 | 154746
6 | 34:23.22 | 6:10.31 | 154747 | 182527
7 | 40:33.53 | 9:23.48 | 182528 | 224800
8 | 49:57.26 | 8:01.74 | 224801 | 260949
9 | 57:59.25 | 9:50.59 | 260950 | 305258
10 | 67:50.09 | 10:47.66 | 305259 | 353849


Track 1

Filename G:\__New\_EAC rips\Thelonious Monk - The Complete Albums Collection 1957-61 [CD EN5CD9049] (2015) 5cd flac\CD4\01 - Thelonious (live at Town Hall, NYC, 1959).wav

Pre-gap length 0:00:02.00

Peak level 91.2 %
Extraction speed 2.5 X
Track quality 100.0 %
Test CRC E65746AE
Copy CRC E65746AE
Accurately ripped (confidence 8) [7022A614] (AR v2)
Copy OK

Track 2

Filename G:\__New\_EAC rips\Thelonious Monk - The Complete Albums Collection 1957-61 [CD EN5CD9049] (2015) 5cd flac\CD4\02 - Friday the 13th (live at Town Hall, NYC, 1959).wav

Peak level 87.2 %
Extraction speed 3.2 X
Track quality 100.0 %
Test CRC 574260D2
Copy CRC 574260D2
Accurately ripped (confidence 8) [74AAC985] (AR v2)
Copy OK

Track 3

Filename G:\__New\_EAC rips\Thelonious Monk - The Complete Albums Collection 1957-61 [CD EN5CD9049] (2015) 5cd flac\CD4\03 - Little Rootie Tootie (live at Town Hall, NYC, 1959).wav

Peak level 91.5 %
Extraction speed 3.7 X
Track quality 100.0 %
Test CRC 57101393
Copy CRC 57101393
Accurately ripped (confidence 8) [23BC19FE] (AR v2)
Copy OK

Track 4

Filename G:\__New\_EAC rips\Thelonious Monk - The Complete Albums Collection 1957-61 [CD EN5CD9049] (2015) 5cd flac\CD4\04 - Off Minor (live at Town Hall, NYC, 1959).wav

Peak level 88.2 %
Extraction speed 3.8 X
Track quality 99.9 %
Test CRC CBD9F4F0
Copy CRC CBD9F4F0
Accurately ripped (confidence 8) [CE7C9076] (AR v2)
Copy OK

Track 5

Filename G:\__New\_EAC rips\Thelonious Monk - The Complete Albums Collection 1957-61 [CD EN5CD9049] (2015) 5cd flac\CD4\05 - Crepuscle with Nellie (live at Town Hall, NYC, 1959).wav

Peak level 80.5 %
Extraction speed 3.7 X
Track quality 99.9 %
Test CRC CB30447F
Copy CRC CB30447F
Accurately ripped (confidence 8) [14348893] (AR v2)
Copy OK

Track 6

Filename G:\__New\_EAC rips\Thelonious Monk - The Complete Albums Collection 1957-61 [CD EN5CD9049] (2015) 5cd flac\CD4\06 - Jackie-Ing.wav

Peak level 59.9 %
Extraction speed 4.5 X
Track quality 100.0 %
Test CRC 17F02C9D
Copy CRC 17F02C9D
Accurately ripped (confidence 8) [7A7267F0] (AR v2)
Copy OK

Track 7

Filename G:\__New\_EAC rips\Thelonious Monk - The Complete Albums Collection 1957-61 [CD EN5CD9049] (2015) 5cd flac\CD4\07 - Straight, No Chaser.wav

Peak level 62.4 %
Extraction speed 4.9 X
Track quality 100.0 %
Test CRC 5192937A
Copy CRC 5192937A
Accurately ripped (confidence 8) [9B0D63C7] (AR v2)
Copy OK

Track 8

Filename G:\__New\_EAC rips\Thelonious Monk - The Complete Albums Collection 1957-61 [CD EN5CD9049] (2015) 5cd flac\CD4\08 - Played Twice (take 3).wav

Peak level 63.8 %
Extraction speed 5.1 X
Track quality 100.0 %
Test CRC 9BE0408C
Copy CRC 9BE0408C
Accurately ripped (confidence 8) [0067F909] (AR v2)
Copy OK

Track 9

Filename G:\__New\_EAC rips\Thelonious Monk - The Complete Albums Collection 1957-61 [CD EN5CD9049] (2015) 5cd flac\CD4\09 - I Mean You.wav

Peak level 60.7 %
Extraction speed 5.6 X
Track quality 100.0 %
Test CRC 8357A97F
Copy CRC 8357A97F
Accurately ripped (confidence 8) [CEAE3A8F] (AR v2)
Copy OK

Track 10

Filename G:\__New\_EAC rips\Thelonious Monk - The Complete Albums Collection 1957-61 [CD EN5CD9049] (2015) 5cd flac\CD4\10 - Ask Me Now.wav

Peak level 59.6 %
Extraction speed 5.9 X
Track quality 100.0 %
Test CRC B9D523F3
Copy CRC B9D523F3
Accurately ripped (confidence 8) [34455660] (AR v2)
Copy OK


All tracks accurately ripped

No errors occurred

End of status report

–– CUETools DB Plugin V2.1.6

[CTDB TOCID: Ke.dUhN28hyZWBJ4V1Qdj8Frs44-] found
Submit result: Ke.dUhN28hyZWBJ4V1Qdj8Frs44- has been confirmed
Track | CTDB Status
1 | (25/26) Accurately ripped
2 | (25/26) Accurately ripped
3 | (25/26) Accurately ripped
4 | (25/26) Accurately ripped
5 | (25/26) Accurately ripped
6 | (25/26) Accurately ripped
7 | (25/26) Accurately ripped
8 | (25/26) Accurately ripped
9 | (25/26) Accurately ripped
10 | (25/26) Accurately ripped


==== Log checksum 66A201AAE8E2A1F1BD6E909C33FFFE006A5B4AB370E369B044D7B7314D1052E6 ====
Exact Audio Copy V1.3 from 2. September 2016

EAC extraction logfile from 2. December 2019, 19:12

Thelonious Monk / The Complete Albums Collection: 1957-61

Used drive : SONY DVD RW AD-7280S Adapter: 1 ID: 1

Read mode : Secure
Utilize accurate stream : Yes
Defeat audio cache : Yes
Make use of C2 pointers : No

Read offset correction : 48
Overread into Lead-In and Lead-Out : No
Fill up missing offset samples with silence : Yes
Delete leading and trailing silent blocks : No
Null samples used in CRC calculations : Yes
Used interface : Native Win32 interface for Win NT & 2000
Gap handling : Appended to previous track

Used output format : User Defined Encoder
Selected bitrate : 1024 kBit/s
Quality : High
Add ID3 tag : No
Command line compressor : C:\Program Files (x86)\Exact Audio Copy\Flac\flac.exe
Additional command line options : -8 -e -p -V -T "ARTIST=%artist%" -T "TITLE=%title%" -T "ALBUM=%albumtitle%" -T "DATE=%year%" -T "TRACKNUMBER=%tracknr%" -T "GENRE=%genre%" -T "PERFORMER=%albuminterpret%" -T "COMPOSER=%composer%" %haslyrics%–tag-from-file=LYRICS="%lyricsfile%"%haslyrics% -T "ALBUMARTIST=%albumartist%" -T "DISCNUMBER=%cdnumber%" -T "TOTALDISCS=%totalcds%" -T "TOTALTRACKS=%numtracks%" -T "COMMENT=%comment%" %source% -o %dest%


TOC of the extracted CD

Track | Start | Length | Start sector | End sector
––––––––––––––––––––––––––––-
1 | 0:00.00 | 8:34.23 | 0 | 38572
2 | 8:34.23 | 8:41.64 | 38573 | 77711
3 | 17:16.12 | 6:14.38 | 77712 | 105799
4 | 23:30.50 | 9:10.05 | 105800 | 147054
5 | 32:40.55 | 0:59.67 | 147055 | 151546
6 | 33:40.47 | 11:31.40 | 151547 | 203411
7 | 45:12.12 | 11:42.22 | 203412 | 256083
8 | 56:54.34 | 1:43.31 | 256084 | 263839
9 | 58:37.65 | 11:02.68 | 263840 | 313557
10 | 69:40.58 | 9:48.17 | 313558 | 357674


Track 1

Filename G:\__New\_EAC rips\Thelonious Monk - The Complete Albums Collection 1957-61 [CD EN5CD9049] (2015) 5cd flac\CD5\01 - Let's Call This (live at The Blackhawk, San Francisco, 1960).wav

Pre-gap length 0:00:02.00

Peak level 66.7 %
Extraction speed 2.9 X
Track quality 100.0 %
Test CRC DDA7B991
Copy CRC DDA7B991
Accurately ripped (confidence 7) [9A11A12E] (AR v2)
Copy OK

Track 2

Filename G:\__New\_EAC rips\Thelonious Monk - The Complete Albums Collection 1957-61 [CD EN5CD9049] (2015) 5cd flac\CD5\02 - Four in One (live at The Blackhawk, San Francisco, 1960).wav

Peak level 67.4 %
Extraction speed 3.0 X
Track quality 100.0 %
Test CRC E1BA8758
Copy CRC E1BA8758
Accurately ripped (confidence 7) [573ABDA7] (AR v2)
Copy OK

Track 3

Filename G:\__New\_EAC rips\Thelonious Monk - The Complete Albums Collection 1957-61 [CD EN5CD9049] (2015) 5cd flac\CD5\03 - I'm Getting Sentimental Over You (live at The Blackhawk, San Francisco, 1960).wav

Peak level 66.5 %
Extraction speed 3.4 X
Track quality 99.9 %
Test CRC D0DE088E
Copy CRC D0DE088E
Accurately ripped (confidence 7) [7D5DA02C] (AR v2)
Copy OK

Track 4

Filename G:\__New\_EAC rips\Thelonious Monk - The Complete Albums Collection 1957-61 [CD EN5CD9049] (2015) 5cd flac\CD5\04 - San Francisco Holiday (Worry Later) (live at The Blackhawk, San Francisco, 1960).wav

Peak level 71.0 %
Extraction speed 4.2 X
Track quality 100.0 %
Test CRC 556817DC
Copy CRC 556817DC
Accurately ripped (confidence 7) [3E845A36] (AR v2)
Copy OK

Track 5

Filename G:\__New\_EAC rips\Thelonious Monk - The Complete Albums Collection 1957-61 [CD EN5CD9049] (2015) 5cd flac\CD5\05 - Epistrophy (live at The Blackhawk, San Francisco, 1960).wav

Peak level 63.7 %
Extraction speed 2.9 X
Track quality 100.0 %
Test CRC 344E4870
Copy CRC 344E4870
Accurately ripped (confidence 7) [365AF1A1] (AR v2)
Copy OK

Track 6

Filename G:\__New\_EAC rips\Thelonious Monk - The Complete Albums Collection 1957-61 [CD EN5CD9049] (2015) 5cd flac\CD5\06 - Well, You Needn't (live in France, 1960).wav

Peak level 97.5 %
Extraction speed 4.5 X
Track quality 99.9 %
Test CRC 097E4230
Copy CRC 097E4230
Accurately ripped (confidence 7) [5E1A7307] (AR v2)
Copy OK

Track 7

Filename G:\__New\_EAC rips\Thelonious Monk - The Complete Albums Collection 1957-61 [CD EN5CD9049] (2015) 5cd flac\CD5\07 - Off Minor (live in France, 1960).wav

Peak level 64.6 %
Extraction speed 5.2 X
Track quality 100.0 %
Test CRC C5E82AF5
Copy CRC C5E82AF5
Accurately ripped (confidence 7) [504DDE9B] (AR v2)
Copy OK

Track 8

Filename G:\__New\_EAC rips\Thelonious Monk - The Complete Albums Collection 1957-61 [CD EN5CD9049] (2015) 5cd flac\CD5\08 - Just a Gigolo (live in France, 1960).wav

Peak level 71.9 %
Extraction speed 4.2 X
Track quality 100.0 %
Test CRC BF8FD1CD
Copy CRC BF8FD1CD
Accurately ripped (confidence 7) [767EA32B] (AR v2)
Copy OK

Track 9

Filename G:\__New\_EAC rips\Thelonious Monk - The Complete Albums Collection 1957-61 [CD EN5CD9049] (2015) 5cd flac\CD5\09 - I Mean You (live in France, 1960).wav

Peak level 75.2 %
Extraction speed 5.7 X
Track quality 100.0 %
Test CRC 0C3ED378
Copy CRC 0C3ED378
Accurately ripped (confidence 7) [A6D1D070] (AR v2)
Copy OK

Track 10

Filename G:\__New\_EAC rips\Thelonious Monk - The Complete Albums Collection 1957-61 [CD EN5CD9049] (2015) 5cd flac\CD5\10 - Hackensack (live in France, 1960).wav

Peak level 83.3 %
Extraction speed 5.9 X
Track quality 100.0 %
Test CRC 31256E34
Copy CRC 31256E34
Accurately ripped (confidence 7) [9E161460] (AR v2)
Copy OK


All tracks accurately ripped

No errors occurred

End of status report

–– CUETools DB Plugin V2.1.6

[CTDB TOCID: MiplU9ZfIoUK5w_QfQublNOaklQ-] found
Submit result: MiplU9ZfIoUK5w_QfQublNOaklQ- has been confirmed
Track | CTDB Status
1 | (24/24) Accurately ripped
2 | (24/24) Accurately ripped
3 | (24/24) Accurately ripped
4 | (24/24) Accurately ripped
5 | (24/24) Accurately ripped
6 | (24/24) Accurately ripped
7 | (24/24) Accurately ripped
8 | (24/24) Accurately ripped
9 | (24/24) Accurately ripped
10 | (24/24) Accurately ripped


==== Log checksum 8F5330784F1ED8F27628EC7CD33F4C107E25F5820D0627B776BD4AE1CF94F46E ====

Thanks to the Original ripper !